osu file format v9

[General]
AudioFilename: world is mine.mp3
AudioLeadIn: 0
PreviewTime: 124663
Countdown: 0
SampleSet: Soft
StackLeniency: 0.4
Mode: 0
LetterboxInBreaks: 0

[Editor]
Bookmarks: 25390
DistanceSpacing: 1.2
BeatDivisor: 4
GridSize: 4

[Metadata]
Title:World is Mine (Live)
Artist:Hatsune Miku
Creator:L_P
Version:Insane
Source:Hatsune Miku Live in Tokyo 2011
Tags:vocaloid idolmaster taiko_maniac1811 supercell ryo

[Difficulty]
HPDrainRate:7
CircleSize:4
OverallDifficulty:7
ApproachRate:8
SliderMultiplier:1.6
SliderTickRate:2

[Events]
//Background and Video events
0,0,"Hatsune_Miku_-_World_is_Mine_Wallpaper__yvt2.jpg"
Video,64,"VBG.avi"
//Break Periods
2,96166,100852
//Storyboard Layer 0 (Background)
//Storyboard Layer 1 (Fail)
//Storyboard Layer 2 (Pass)
//Storyboard Layer 3 (Foreground)
//Storyboard Sound Samples
//Background Colour Transformations
3,100,163,162,255

[TimingPoints]
1115,363.636363636364,4,2,1,83,1,0
3660,-200,4,2,1,58,0,0
6569,-200,4,2,0,50,0,0
6933,-200,4,2,1,50,0,0
8024,-200,4,2,1,60,0,0
8387,-200,4,2,1,42,0,0
8751,-200,4,2,1,32,0,0
9478,-200,4,2,1,50,0,0
10933,-200,4,2,0,50,0,0
11296,-200,4,2,1,50,0,0
13550,600,4,2,1,75,1,0
13550,-200,4,2,1,41,0,0
14430,952.380952380952,4,2,1,75,1,0
14430,-200,4,2,1,75,0,0
15380,-200,4,2,1,60,0,0
15382,1000,4,2,1,83,1,0
15620,-200,4,2,1,8,0,0
18882,-200,4,2,1,50,0,0
20330,363.636363636364,4,2,1,55,1,0
20330,-100,4,2,1,43,0,0
21602,-100,4,2,1,64,0,0
22511,-100,4,2,1,85,0,0
23239,-100,4,2,1,70,0,0
26148,-100,4,2,1,100,0,0
27420,-100,4,2,1,100,0,0
32308,-100,4,2,1,90,0,0
35966,-100,4,2,1,70,0,0
36330,-100,4,2,1,90,0,0
55580,-133.333333333333,4,2,1,80,0,0
56693,-100,4,2,1,80,0,0
57035,-133.333333333333,4,2,1,87,0,0
57763,-100,4,2,1,91,0,0
61057,-133.333333333333,4,2,1,91,0,0
63581,-100,4,2,1,91,0,0
67217,-200,4,2,1,60,0,0
69784,-100,4,2,1,100,0,1
74489,-100,4,2,1,74,0,1
74853,-100,4,2,1,81,0,1
75217,-100,4,2,1,100,0,1
78853,-100,4,2,1,93,0,1
93035,-133.333333333333,4,2,1,75,0,1
93784,-133.333333333333,4,2,1,90,0,1
95966,-200,4,2,1,75,0,0
106126,-133.333333333333,4,2,1,80,0,0
107602,-100,4,2,1,80,0,0
114511,-100,4,2,0,80,0,0
114602,-100,4,2,1,80,0,0
117784,-100,4,2,0,80,0,0
117875,-100,4,2,1,80,0,0
125057,-100,4,2,1,100,0,1
135239,-133.333333333333,4,2,1,100,0,1
135784,-100,4,2,1,100,0,1
137057,-100,4,2,1,64,0,1
137239,-100,4,2,1,100,0,1
148330,-100,4,2,1,100,0,1
151239,-100,4,2,1,76,0,0
151278,362.537764350453,4,2,1,83,1,0
152003,-100,4,2,1,83,0,0
152546,-100,4,2,1,83,0,0
157080,387.096774193548,4,2,1,100,1,0
157453,392.156862745098,4,2,1,100,1,0
157845,-133.333333333333,4,2,1,100,0,0
158629,397.350993377483,4,2,1,100,1,0
158829,408.163265306122,4,2,1,100,1,0
159441,491.803278688525,4,2,1,100,1,0
160424,363.636363636364,4,2,1,83,1,0
162928,363.636363636364,4,2,1,83,1,0

[Colours]
Combo1 : 255,204,128
Combo2 : 120,252,120
Combo3 : 131,131,252
Combo4 : 225,106,255

[HitObjects]
100,212,3660,1,0
100,212,4024,2,0,B|129:259|203:262|234:209,1,160,2|0
352,160,5115,2,0,B|348:252,1,80
256,82,6205,2,0,B|256:205,1,120,0|0
184,229,6933,6,0,B|220:256|230:299,1,80,2|0
328,229,7660,2,0,B|292:252|282:299,1,80,0|0
256,220,8387,1,6
256,152,8751,1,6
257,84,9115,1,4
257,15,9478,1,4
179,86,9842,6,0,B|140:115|157:172,1,80,2|0
333,86,10569,2,0,B|372:115|355:172,1,80
256,235,11296,2,2,B|257:329,1,80
256,149,12024,2,0,B|257:55,1,80
176,68,12569,1,0
175,68,12751,6,0,B|176:141|132:187,1,120,4|0
224,192,13550,6,0,B|248:156|248:108,1,80,4|0
328,132,14430,6,0,B|320:184|304:216,1,80,4|4
256,192,15632,12,0,18882
123,119,20330,5,4
101,195,20511,1,0
179,177,20693,1,0
209,313,21057,6,0,B|170:310|160:256,2,80,4|0|0
237,236,21602,2,0,B|272:214|278:176|267:142|267:142|319:106,1,160
351,181,22148,2,0,B|397:154|397:154|417:201|453:217|491:194,2,160,0|12|0
238,66,23239,1,4
160,84,23420,1,0
87,117,23602,1,0
87,117,23966,6,0,B|47:170|65:247,2,120,4|0|0
220,206,24875,2,0,B|188:240|177:294,1,80
292,206,25420,2,0,B|320:240|335:294,1,80,8|0
160,104,26148,5,4
256,59,26330,1,0
352,104,26511,1,0
256,325,26875,2,0,B|256:238,2,80
188,196,27420,2,0,B|212:140|296:140|316:196,1,160
252,228,27966,1,0
124,209,28330,2,0,B|85:162|104:80|152:61,1,160,12|0
304,63,29057,5,4
383,72,29239,1,0
400,149,29420,1,0
329,187,29602,1,12
269,133,29784,1,0
180,216,29966,1,0
204,96,30148,1,12
254,205,30330,1,0
152,148,30511,6,0,B|112:128|104:72,1,80,8|0
24,132,30875,2,0,B|56:156|64:200,1,80,8|0
184,246,31239,1,0
159,277,31330,1,0
160,316,31420,1,0
185,347,31511,1,0
224,360,31602,2,0,B|308:320,1,80,12|0
330,185,31966,5,0
358,110,32148,1,0
432,80,32330,2,0,B|444:129|408:172,1,80,8|0
368,276,32693,1,0
300,316,32875,1,0
224,312,33057,2,0,B|230:264|284:240,1,80
400,192,33420,1,0
480,184,33602,2,0,B|474:136|417:113,2,80,0|8|0
328,224,34148,2,0,B|328:108,1,80
224,176,34511,2,0,B|224:292,1,80,8|0
176,346,34875,5,0
84,313,35057,1,0
84,312,35239,1,8
84,313,35420,2,0,B|32:295|25:243|50:199|89:187|132:194|164:219|169:278,1,240,0|8
162,88,36330,1,0
230,128,36511,1,0
231,208,36693,1,8
162,249,36875,2,0,B|151:311|208:360|270:349,2,160,8|2|8
240,272,37784,6,0,B|400:272,1,160,0|12
460,220,38329,1,0
472,140,38511,1,0
408,92,38693,2,0,B|352:12,2,80,0|8|0
344,144,39239,2,0,B|288:64,2,80,0|8|0
280,192,39784,2,0,B|224:112,2,80,0|8|0
204,224,40329,2,0,B|124:272,1,80,8|0
48,228,40693,5,0
88,144,40875,2,0,B|128:60,1,80,0|8
136,216,41239,1,0
200,152,41420,2,0,B|268:88,1,80
224,232,41784,1,8
308,188,41966,2,0,B|392:164|456:224,1,160
232,88,42693,6,0,B|274:71|328:88,1,80
380,124,43057,1,0
380,124,43420,5,0
376,204,43602,1,4
376,204,43966,1,8
176,340,44511,1,0
176,340,44693,2,0,B|124:244,1,80,8|0
144,172,45057,6,0,B|220:128,1,80
368,172,45420,2,0,B|292:128,1,80,8|0
256,200,45784,1,0
256,280,45966,1,0
256,360,46148,1,8
52,156,46511,5,0
144,200,46693,1,0
140,96,46875,2,0,B|224:100,1,80,8|0
424,160,47239,1,0
336,104,47420,1,0
328,208,47602,2,0,B|244:204,1,80,8|0
148,104,47966,6,0,B|232:108,1,80
320,192,48329,2,0,B|236:188,1,80,8|4
164,264,48693,1,0
72,312,48875,1,4
172,344,49057,1,0
268,304,49239,1,4
352,364,49420,6,0,B|372:328|368:280,1,80,4|0
472,288,49784,2,0,B|476:247|453:204,1,80,8|0
392,128,50148,1,0
196,60,50511,1,8
60,216,50875,1,0
252,292,51239,1,8
392,128,51602,1,0
404,232,51784,1,0
316,292,51966,1,8
308,188,52148,1,8
224,244,52329,6,0,B|136:244,1,80
64,116,52693,2,0,B|152:116,1,80,8|0
272,176,53057,2,0,B|312:184|360:176,1,80
432,48,53420,2,0,B|388:40|344:48,1,80,8|0
248,64,53784,1,0
128,56,53966,1,0
220,132,54148,1,12
188,16,54329,1,0
144,128,54511,1,4
248,64,54693,5,0
300,76,54784,1,0
332,112,54875,1,4
344,160,54966,1,0
328,212,55057,1,0
296,248,55148,1,0
248,256,55239,6,0,B|200:244|148:276,1,80
152,340,55602,2,0,B|212:356|272:328,2,119.999996423721,4|8|0
316,212,56693,2,0,B|364:224|416:192,1,80
408,128,57057,2,0,B|348:112|288:140,2,119.999996423721,4|8|0
208,184,58148,5,4
120,128,58329,1,0
116,232,58511,1,8
208,184,58693,2,0,B|312:184,1,80
300,288,59057,2,0,B|212:288,2,80,0|8|0
380,220,59602,1,0
412,120,59784,1,0
332,52,59966,1,8
244,108,60148,1,8
268,208,60329,1,0
184,272,60511,1,0
184,272,60602,1,0
184,272,60693,2,0,B|264:344,1,80,12|0
140,344,61057,6,0,B|80:332|48:256,2,119.999996423721,0|12|0
196,176,62148,1,8
324,252,62511,2,0,B|372:248|372:248|424:248|440:192,2,119.999996423721,4|0|0
220,72,63602,5,0
168,160,63784,1,0
192,208,63875,1,0
216,256,63966,2,0,B|208:300|232:340,1,80
296,256,64329,2,0,B|304:296|280:348,1,80,8|0
192,208,64693,2,0,B|152:228|96:212,1,80
320,208,65057,2,0,B|364:184|408:220,1,80,8|0
224,120,65420,6,0,B|172:108|124:140,1,80
68,240,65784,2,0,B|68:288|88:324,1,80,8|0
176,248,66148,1,0
232,168,66329,1,8
252,164,66420,1,8
276,168,66511,1,8
334,248,66693,1,0
256,316,66875,6,0,B|256:232,2,80,4|0|0
256,64,67602,2,0,B|256:156,1,80
208,196,68148,2,0,B|220:220|256:236|296:224|308:192,1,120
256,312,69057,1,0
256,312,69420,1,0
64,332,69784,5,4
84,232,69966,1,0
160,304,70148,1,8
216,216,70329,1,0
256,196,70420,1,0
296,216,70511,1,0
352,304,70693,1,0
428,232,70875,1,8
448,332,71057,1,0
428,232,71239,6,0,B|336:192,1,80
157,200,71602,2,0,B|84:232,1,80,8|0
120,132,71966,2,0,B|204:104,1,80
392,132,72329,2,0,B|308:104,1,80,8|0
256,192,72693,6,0,B|208:264,1,80,4|0
256,192,73057,2,0,B|272:276,1,80
256,192,73420,2,0,B|344:256,1,80,4|0
256,192,73784,2,0,B|340:176,1,80
280,88,74148,5,4
176,80,74329,1,0
84,132,74511,1,12
60,236,74693,2,0,B|84:284,4,40,0|0|4|0|0
168,192,75239,2,0,B|252:192,1,80,12|0
344,156,75602,5,4
240,92,75784,1,0
132,60,75966,1,8
72,160,76148,1,0
76,184,76239,1,0
80,200,76329,2,0,B|96:244|140:264,1,80
272,320,76693,2,0,B|256:276|212:256,1,80,8|0
304,196,77057,6,0,B|328:240|328:240|320:268|328:312|392:324|416:296,1,160,0|8
432,212,77602,1,0
392,116,77784,1,0
308,56,77966,1,0
204,56,78148,1,8
120,116,78329,1,0
80,212,78511,6,0,B|184:212,1,80
352,212,78875,2,0,B|432:212,1,80,12|0
388,308,79239,2,0,B|296:308,1,80
124,308,79602,2,0,B|216:308,1,80,12|0
220,184,79966,2,0,B|192:212|208:268|276:280|316:232|292:184,1,160,0|12
280,116,80511,2,0,B|388:116,1,80
476,148,80875,5,0
472,188,80966,1,0
448,216,81057,1,0
424,240,81148,1,0
412,264,81239,1,0
352,348,81420,6,0,B|248:348,2,80,0|0|4
252,264,81966,1,0
200,264,82057,1,0
148,264,82148,2,0,B|68:264,1,80
84,168,82511,2,0,B|168:168,1,80,12|0
204,72,82875,1,0
308,72,83057,1,0
344,168,83239,1,8
256,224,83420,1,0
168,168,83602,5,0
308,72,83784,1,0
256,224,83966,1,8
204,72,84148,1,0
344,168,84329,2,0,B|392:248,1,80,4|0
256,224,84693,2,0,B|256:320,1,80,8|0
168,168,85057,2,0,B|120:248,1,80,4|0
256,116,85420,2,0,B|256:36,1,80,8|0
304,172,85784,2,4,B|292:128|256:108|256:108|216:128|208:180,1,160
76,340,86511,5,4
180,340,86693,1,0
284,336,86875,1,12
388,336,87057,1,0
336,248,87239,2,0,B|392:180,2,80,0|0|12
244,192,87784,1,0
236,204,87875,1,0
228,212,87966,2,0,B|188:188|180:144,1,80
60,160,88329,2,0,B|100:184|108:228,1,80,8|0
156,304,88693,5,0
240,352,88875,1,0
360,300,89057,1,8
280,248,89239,1,0
316,120,89420,2,0,B|408:116,1,80
256,56,89784,2,0,B|160:56,1,80,8|0
96,176,90148,6,0,B|96:232|156:248,1,80
192,328,90511,2,0,B|240:299|224:240,1,80,12|0
256,144,90875,2,0,B|204:132|168:184,1,80
300,260,91239,2,0,B|328:220|296:168,1,80,4|0
344,104,91602,6,0,B|180:104,1,160,0|12
132,192,92148,1,0
108,292,92329,1,0
212,264,92511,1,0
226,306,92602,1,0
268,327,92693,1,0
313,323,92784,1,0
352,299,92875,1,0
363,253,92966,1,0
348,216,93057,1,4
472,100,93420,6,0,B|408:92|368:28,2,119.999996423721,0|12|0
316,124,94511,1,4
176,188,94875,1,0
308,272,95239,2,0,B|376:296|432:244,2,119.999996423721,8|0|4
152,88,101602,6,0,B|144:132|180:172|240:164,1,120,4|0
276,168,102329,1,0
328,168,102511,2,0,B|360:204|332:248,1,80,2|0
244,288,103239,2,0,B|208:256|152:268,1,80,2|0
116,268,103784,2,0,B|72:288|32:260,1,80,8|0
140,204,104511,5,0
140,204,104693,2,0,B|188:140,1,80,2|0
372,204,105420,2,0,B|324:140,1,80,2|0
256,60,106148,6,8,B|256:128,1,59.9999982118607
168,128,106511,2,8,B|168:196,1,59.9999982118607
76,176,106875,2,8,B|76:252,2,59.9999982118607
256,280,107602,6,0,B|304:308|370:305|412:272,1,160,4|0
256,280,108329,2,0,B|208:308|141:305|100:272,1,160,4|0
180,200,108875,1,8
256,128,109057,1,0
332,200,109239,1,0
256,280,109420,2,0,B|352:312,1,80,8|0
256,280,109784,2,0,B|160:312,1,80,8|0
256,280,110148,2,0,B|256:172,1,80,0|8
152,192,110511,5,0
164,88,110693,1,0
256,40,110875,1,0
348,88,111057,1,8
360,192,111239,2,0,B|304:248,1,80,8|0
152,192,111602,2,0,B|208:248,2,80
256,168,112148,1,8
256,272,112329,2,0,B|256:352,2,80,0|0|8
160,316,112875,1,0
160,316,112966,1,0
160,316,113057,1,4
352,316,113239,1,0
352,316,113329,1,0
352,316,113420,6,0,B|352:224,1,80,8|0
444,132,113784,2,0,B|444:236,1,80
348,172,114148,2,0,B|296:152,2,40,8|0|0
256,224,114511,2,0,B|232:272|180:268,1,80
176,164,114875,6,0,B|124:92,2,80
268,120,115420,2,0,B|284:72,2,40,0|0|8
296,224,115784,2,0,B|284:276,2,40
196,212,116148,1,0
196,212,116329,2,0,B|88:212,1,80,0|4
136,56,117057,6,0,B|204:96,1,80,8|0
376,56,117420,2,0,B|308:96,1,80
256,188,117784,2,0,B|256:352,1,160
152,332,118329,2,0,B|212:256|300:256|364:344,1,240
336,128,119239,5,2
272,96,119602,1,2
208,124,119966,1,8
108,248,120511,1,8
108,248,120693,2,0,B|152:316,2,80
404,248,121420,2,0,B|360:316,1,80,8|0
256,132,121966,5,0
256,132,122148,2,0,B|256:224,2,80
184,328,122875,2,0,B|240:368|288:368|352:316,1,160
332,228,123420,2,0,B|276:188|228:188|164:240,1,160
256,300,123966,2,0,B|256:136,2,160
100,160,125057,5,4
80,264,125239,1,0
168,316,125420,1,8
252,256,125602,1,0
252,204,125693,1,0
216,164,125784,2,0,B|152:248,2,80,0|0|8
176,68,126329,1,0
328,68,126511,6,0,B|236:68,1,80
300,160,126875,2,0,B|392:160,1,80,8|0
328,252,127239,2,0,B|232:252,1,80
308,340,127602,2,0,B|408:340,1,80,8|0
420,236,127966,5,4
248,116,128329,1,8
456,116,128693,1,4
288,236,129057,1,8
348,36,129420,5,4
248,116,129602,1,0
288,236,129784,1,12
248,356,129966,1,0
288,236,130148,2,0,B|200:236,1,80,4|0
248,116,130511,2,0,B|148:116,1,80,12|0
100,196,130875,5,4
88,300,131057,1,0
184,260,131239,1,8
100,196,131420,1,0
100,196,131511,1,0
100,196,131602,2,0,B|136:112,1,80
228,164,131966,2,0,B|296:108,1,80,8|0
372,180,132329,6,0,B|448:208|452:292|440:320,2,160,0|8|0
340,280,133239,1,0
256,336,133420,1,8
172,280,133602,1,0
256,220,133784,6,0,B|256:120,1,80
152,160,134148,2,0,B|204:76,1,80,12|0
256,220,134511,2,0,B|256:120,1,80
360,160,134875,2,0,B|308:76,1,80,12|0
368,32,135239,2,0,B|256:92|116:20,1,239.999992847443,0|4
120,132,136148,5,0
100,180,136239,1,0
104,232,136329,1,0
136,272,136420,1,0
184,288,136511,1,0
236,284,136602,1,0
280,256,136693,6,0,B|364:256,2,80,0|0|12
212,176,137239,1,0
212,176,137329,1,0
212,176,137420,2,0,B|276:100,1,80
348,52,137784,2,0,B|444:52,1,80,8|0
400,168,138148,5,0
310,249,138329,1,0
428,232,138511,1,8
325,173,138693,1,0
377,281,138875,2,0,B|352:332|281:320,1,80
135,281,139239,2,0,B|159:332|230:320,1,80,8|0
256,216,139602,6,0,B|172:180,1,80,4|0
256,216,139966,2,0,B|228:132,1,80
256,216,140329,2,0,B|304:128,1,80,4|0
256,216,140693,2,0,B|344:192,1,80
292,308,141057,1,4
212,368,141239,1,0
128,312,141420,1,12
156,220,141602,1,0
256,216,141784,2,4,B|232:152|296:104|356:136,1,160
372,340,142511,6,0,B|414:298|392:221|329:206,1,160,4|8
272,292,143057,1,0
272,292,143148,1,0
272,292,143239,2,0,B|188:328,1,80
184,220,143602,2,0,B|96:220,1,80,8|0
132,120,143966,2,0,B|192:56|280:64,1,160,0|8
232,160,144511,1,0
232,160,144693,2,0,B|320:160,1,80
288,264,145057,2,0,B|184:264,1,80,8|0
152,352,145420,6,0,B|96:332|76:272|104:216,1,160,0|12
132,120,145966,1,0
232,160,146148,2,0,B|312:204|400:156,1,160,0|12
312,88,146693,1,0
312,88,146875,2,0,B|360:168|296:244,1,160,0|12
376,312,147420,1,0
376,312,147602,1,0
272,320,147784,5,0
232,320,147875,1,0
192,320,147966,1,0
152,320,148057,1,0
112,320,148148,1,0
72,320,148239,1,0
32,320,148329,1,0
104,136,148693,6,0,B|184:164|256:116,2,160
104,136,149784,1,0
104,136,150148,1,0
104,136,150511,1,0
92,228,150693,5,0
92,268,150784,1,0
112,304,150875,2,0,B|180:356,1,80
272,328,151278,2,0,B|360:348,2,80
296,164,152003,2,0,B|320:244|404:280,1,160,12|0
432,364,152546,1,0
432,364,152909,1,0
432,364,153090,2,0,B|432:200,2,160,0|8|0
284,300,154178,5,0
208,324,154359,1,0
220,244,154540,1,0
96,144,154903,2,0,B|128:52|228:48,1,160,12|0
299,49,155447,2,0,B|384:52|416:144,1,160
336,160,155990,2,0,B|176:160,2,160,0|8|0
368,308,157080,5,4
256,336,157273,1,0
144,308,157453,1,0
24,232,157845,2,0,B|8:172|60:136|108:160|108:160|152:120,1,179.999994635582,12|0
144,308,158829,2,0,B|224:352,1,80
344,320,159441,2,0,B|392:296,2,40
328,240,159932,2,0,B|292:216,2,40,8|0|0
256,192,160424,12,4,162928
