osu file format v9

[General]
AudioFilename: world is mine.mp3
AudioLeadIn: 0
PreviewTime: 124663
Countdown: 0
SampleSet: Soft
StackLeniency: 0.8
Mode: 0
LetterboxInBreaks: 0

[Editor]
DistanceSpacing: 1.1
BeatDivisor: 4
GridSize: 4

[Metadata]
Title:World is Mine (Live)
Artist:Hatsune Miku
Creator:L_P
Version:Hard
Source:Hatsune Miku Live in Tokyo 2011
Tags:vocaloid idolmaster taiko_maniac1811 supercell ryo

[Difficulty]
HPDrainRate:5
CircleSize:4
OverallDifficulty:5
ApproachRate:5
SliderMultiplier:1.2
SliderTickRate:2

[Events]
//Background and Video events
0,0,"Hatsune_Miku_-_World_is_Mine_Wallpaper__yvt2.jpg"
Video,64,"VBG.avi"
//Break Periods
2,96166,100402
2,119439,123493
//Storyboard Layer 0 (Background)
//Storyboard Layer 1 (Fail)
//Storyboard Layer 2 (Pass)
//Storyboard Layer 3 (Foreground)
//Storyboard Sound Samples
//Background Colour Transformations
3,100,163,162,255

[TimingPoints]
1115,363.636363636364,4,2,1,100,1,0
3660,-200,4,2,1,83,0,0
13550,600,4,2,1,100,1,0
13550,-200,4,2,1,72,0,0
14430,952.380952380952,4,2,1,80,1,0
14430,-200,4,2,1,79,0,0
15382,1000,4,2,1,100,1,0
15632,-100,4,2,1,63,0,0
20330,363.636363636364,4,2,1,90,1,0
29057,-100,4,2,1,69,0,0
29148,-100,4,2,1,90,0,0
69784,-100,4,2,1,100,0,1
74511,-100,4,2,1,60,0,1
74875,-100,4,2,1,76,0,1
75239,-100,4,2,1,100,0,1
86511,-100,4,2,1,73,0,1
87239,-100,4,2,1,100,0,1
95966,-200,4,2,1,91,0,0
101602,-100,4,2,1,91,0,0
103239,-100,4,2,1,73,0,0
104693,-100,4,2,1,57,0,0
106148,-100,4,2,1,100,0,0
119239,-100,4,2,1,54,0,0
119330,-100,4,2,1,100,0,0
125057,-100,4,2,1,100,0,1
129784,-100,4,2,1,82,0,1
130148,-100,4,2,1,100,0,1
141420,-100,4,2,1,78,0,1
141784,-100,4,2,1,100,0,1
151239,-100,4,2,1,100,0,0
151278,362.537764350453,4,2,1,83,1,0
157080,387.096774193548,4,2,1,100,1,0
157453,392.156862745098,4,2,1,100,1,0
157845,-133.333333333333,4,2,1,100,0,0
158629,397.350993377483,4,2,1,100,1,0
158829,408.163265306122,4,2,1,100,1,0
159441,491.803278688525,4,2,1,100,1,0
160424,363.636363636364,4,2,1,100,1,0
162928,363.636363636364,4,2,1,100,1,0

[Colours]
Combo1 : 255,204,128
Combo2 : 120,252,120
Combo3 : 131,131,252
Combo4 : 225,106,255

[HitObjects]
136,220,3660,1,0
136,220,4024,2,0,B|100:276|132:344,1,120,2|0
184,300,5115,2,0,B|248:328,2,60,0|2|2
228,248,6205,2,0,B|296:224,1,60
352,212,6933,6,0,B|364:284|292:336|236:324,1,180,2|0
216,264,8387,2,0,B|204:192|272:136|332:152,1,180,2|0
448,200,9842,6,0,B|472:140|448:76,1,120,2|0
388,108,10933,1,0
328,140,11296,2,0,B|312:196,2,60,2|2|0
356,260,12751,6,0,B|308:260|276:304,1,90,6|0
256,316,13550,6,0,B|236:340|196:332,1,60,6|0
180,332,14430,6,0,B|144:324|112:340,1,60,6|4
256,192,15632,12,4,18882
440,64,20330,6,0,B|448:132,2,60,2|0|2
376,180,21057,2,0,B|328:208|320:256|364:304,1,120,12|0
400,244,21602,2,0,B|324:224|260:268|252:332,1,180,2|0
136,340,22511,2,0,B|68:356|24:284,1,120,8|4
56,168,23239,6,0,B|92:232,2,60,2|0|2
152,76,23966,2,0,B|232:32|356:48,1,180,12|2
440,108,24875,2,2,B|436:180,1,60
412,296,25420,2,0,B|392:336|344:344,1,60,8|4
172,364,26148,6,0,B|108:328,2,60,6|0|2
300,324,26875,2,0,B|240:344|168:308,1,120,12|0
212,256,27420,2,0,B|212:328|288:376|360:360,1,180,2|2
444,288,28330,2,0,B|444:156,1,120,12|0
404,32,29057,6,0,B|360:84|380:164,1,120,12|0
308,144,29602,2,0,B|324:83|280:31,1,120,8|0
216,36,30148,1,8
120,128,30511,6,0,B|80:176|96:252,1,120,0|8
108,308,31057,1,8
152,360,31239,2,0,B|192:312|176:236,1,120,0|8
292,312,31966,6,0,B|352:328,1,60
404,208,32511,1,0
404,208,32693,1,8
476,96,33057,1,0
476,96,33239,2,0,B|424:112|540:152|420:168|476:200,1,120,8|0
404,208,33784,2,0,B|400:276|332:304,2,120,8|0|8
276,240,34875,6,0,B|216:264|188:328,1,120,0|8
124,320,35420,2,0,B|99:263|39:239,1,120
40,172,35966,2,0,B|40:48,1,120,8|0
104,56,36511,5,0
104,56,36693,1,8
104,56,36875,2,2,B|104:128|160:188,2,120
168,36,37784,2,0,B|206:75|206:147,1,120,0|12
220,212,38329,6,0,B|296:192,2,60,0|0|8
116,296,39057,2,0,B|184:308|260:288,1,120,0|8
356,348,39784,2,0,B|424:360|500:340,1,120,0|8
460,216,40511,1,0
460,216,40693,6,0,B|412:264|332:260,1,120,0|8
344,196,41239,2,0,B|376:224|408:224|432:196|424:144,1,120,0|0
364,132,41784,1,8
324,80,41966,6,0,B|252:68|180:104,1,120,0|8
84,48,42693,2,0,B|116:120,2,60,2|0|2
52,176,43420,5,0
52,176,43602,2,0,B|60:248|120:288,1,120,0|12
240,296,44329,2,0,B|312:276|380:308,1,120,0|8
424,184,45057,2,0,B|460:244|424:324,1,120,0|8
388,348,45602,1,0
324,356,45784,2,0,B|296:336|284:296,2,60,0|0|8
192,340,46511,6,0,B|132:352|76:324,1,120,0|8
44,264,47057,1,0
44,264,47239,2,0,B|40:200|64:144,1,120,0|8
172,72,47966,5,0
300,40,48329,1,8
300,40,48511,1,0
300,40,48693,2,0,B|368:48|392:116,1,120,0|8
332,228,49420,6,0,B|384:336,1,120,4|8
252,332,50148,2,0,B|180:352,2,60,0|0|8
132,276,50875,2,0,B|112:320|40:316|24:260,2,120,0|8|0
88,152,51966,5,8
88,152,52148,1,0
88,152,52329,2,0,B|144:200|224:156,1,120,0|8
220,232,52875,2,0,B|180:256|180:328|208:356,1,120
264,332,53420,2,0,B|288:296|264:256,2,60,8|0|0
396,316,54148,2,0,B|448:276|432:192,1,120,12|0
464,148,54693,2,0,B|456:116|420:92,1,60,0|8
359,211,55239,6,0,B|296:184|240:212,2,120,12|0|8
308,332,56329,1,0
308,332,56693,2,0,B|248:360|184:336,2,120,4|0|0
204,248,57784,1,0
68,272,58148,6,0,B|40:204|72:136,1,120,4|8
128,180,58693,2,0,B|148:116|124:44,1,120
196,60,59239,2,0,B|177:114|197:178,1,120,8|0
196,244,59784,2,0,B|220:312,1,60,0|8
176,356,60148,2,0,B|252:364,1,60
364,336,60693,5,8
364,336,60875,1,0
364,336,61057,2,0,B|436:312|448:240,1,120,4|4
444,124,61784,2,0,B|392:160|380:228,1,120,8|0
256,264,62511,2,0,B|132:292,2,120,0|4|8
172,164,63602,1,0
44,196,63966,6,0,B|48:128|100:88,1,120,0|8
160,208,64693,2,0,B|156:276|104:316,1,120,0|8
232,360,65420,2,0,B|236:292|288:252,1,120,0|8
416,240,66148,2,0,B|412:308|360:348,1,120,0|8
296,232,66875,6,6,B|244:188,2,60
172,280,67602,2,0,B|104:296|48:240,1,120,12|0
116,212,68148,2,0,B|72:160|68:88,1,120,4|0
132,80,68693,2,0,B|175:131|178:188,2,120,4|2|4
256,44,69784,6,0,B|388:44,1,120,4|8
448,152,70511,2,0,B|400:200|416:276,1,120,0|8
388,324,71057,1,0
324,336,71239,6,0,B|260:344|200:304,1,120,0|8
120,212,71966,2,0,B|184:208|248:248,1,120,0|8
128,316,72693,5,4
256,348,73057,1,8
372,284,73420,1,4
416,160,73784,1,8
372,284,74148,6,0,B|312:252|244:292,1,120,4|12
172,184,74875,2,0,B|116:224|44:192,1,120,4|12
120,300,75602,6,0,B|148:260|148:260|168:264|168:264|224:240,2,120,4|8|0
248,328,76693,1,8
380,316,77057,2,0,B|456:268|460:148|408:76,1,240
300,48,78148,1,8
168,52,78511,6,0,B|116:88|108:164,1,120,0|12
48,272,79239,2,0,B|84:332|152:352,1,120,0|12
268,324,79966,2,0,B|360:336|440:248|416:152,1,240
372,56,81057,1,8
244,80,81420,6,0,B|172:52|124:120,1,120,0|12
224,200,82148,2,0,B|200:140,2,60,0|0|8
116,276,82875,2,0,B|152:336|236:332,1,120,0|8
224,200,83602,2,0,B|192:256,2,60,0|0|8
320,292,84329,6,0,B|380:324|440:308,1,120,4|8
476,184,85057,2,0,B|416:152|356:168,1,120,4|8
252,244,85784,6,0,B|317:263|372:236,1,120,4|12
272,328,86511,2,0,B|206:308|151:335,1,120,4|12
52,252,87239,6,0,B|64:132,1,120,4|8
156,224,87966,2,0,B|204:288,2,60,0|0|8
268,292,88693,2,0,B|352:192,1,120,0|8
228,144,89420,2,0,B|160:176,2,60,0|0|8
345,200,90148,6,0,B|353:272|433:308,1,120,0|12
280,264,90875,2,0,B|272:336|192:372,1,120,0|12
164,320,91420,1,0
164,320,91602,2,0,B|68:300|56:180,1,180
124,188,92329,2,0,B|112:124|160:68,2,120,0|0|4
248,236,93420,6,0,B|256:300|320:332,1,120
368,208,94148,1,0
360,76,94511,2,0,B|288:68|248:128,2,120,4|0|0
456,168,95602,1,0
456,168,95966,1,12
96,196,101602,6,0,B|92:280|180:296,1,120,4|0
200,340,102148,2,0,B|276:348,1,60
312,304,102511,2,0,B|392:300|412:220,1,120,0|0
452,116,103239,1,2
340,52,103602,1,2
340,52,103784,2,0,B|272:48|208:84,1,120
200,192,104511,6,0,B|188:268|104:268,1,120
64,232,105057,2,0,B|16:272,1,60
60,324,105420,2,0,B|116:352,1,60,2|0
176,332,105784,2,0,B|232:360,1,60,2|0
296,352,106148,6,2,B|364:336|388:272,1,120
424,152,106875,2,2,B|356:168|332:232,1,120
208,264,107602,6,0,B|176:320|100:324,1,120,4|0
80,264,108148,1,0
68,196,108329,2,0,B|96:136|176:128,1,120,4|0
236,240,109057,2,0,B|300:248|344:296,1,120
312,348,109602,2,0,B|376:380|436:356,1,120
364,172,110511,6,0,B|396:120|372:28,1,120,0|8
336,180,111239,2,0,B|304:232|328:324,1,120,8|0
192,280,111966,2,0,B|136:316|64:304,1,120
96,244,112511,2,0,B|152:284|164:352,1,120,8|0
360,324,113420,6,0,B|424:300|428:224,1,120,4|8
388,108,114148,1,0
340,232,114511,1,10
340,232,114693,1,0
340,232,114875,2,0,B|296:284|216:272,1,120,0|8
200,212,115420,2,0,B|120:216|100:304,2,120
200,280,116329,2,0,B|200:344,1,60,0|4
384,348,117057,6,0,B|436:296|432:216,1,120,8|0
316,300,117784,2,0,B|388:280|448:332,1,120,0|8
468,264,118329,2,0,B|484:196|460:136,2,120
468,264,119239,1,4
88,300,124693,5,0
88,300,125057,2,0,B|136:352|204:352,1,120,4|8
312,300,125784,2,0,B|328:356,2,60,0|0|8
444,312,126511,2,0,B|488:264|476:180,1,120,0|8
348,172,127239,2,0,B|384:228,2,60,0|0|8
384,44,127966,5,4
252,56,128329,1,8
140,124,128693,1,4
100,252,129057,1,8
192,348,129420,6,4,B|240:304|308:336,1,120,4|12
424,280,130148,2,4,B|376:236|308:268,1,120,4|12
356,140,130875,6,0,B|392:80|460:80,2,120,4|8|0
256,52,131966,1,8
156,140,132329,2,0,B|120:80|52:80,2,120,0|8|0
48,216,133420,5,8
48,216,133602,1,0
48,216,133784,2,0,B|56:288|136:312,1,120,0|12
156,360,134329,1,0
156,360,134511,2,0,B|220:380|284:344,1,120,0|12
372,260,135239,2,0,B|424:268|424:268|448:304|488:304,1,120,0|4
460,172,135966,2,0,B|408:164|408:164|384:128|344:128,1,120,0|4
224,144,136693,6,0,B|208:68,2,60,0|0|4
316,240,137420,2,0,B|268:284|184:264,1,120,0|8
88,208,138148,2,0,B|68:132,2,60,0|0|8
148,324,138875,2,0,B|200:360|276:352,1,120,0|8
384,292,139602,5,4
424,168,139966,1,8
312,240,140329,1,4
444,244,140693,1,8
344,160,141057,6,0,B|292:120|292:48,1,120,4|12
284,188,141784,2,0,B|264:252|196:268,1,120,4|12
76,304,142511,6,0,B|124:352|200:348,1,120,4|8
316,324,143239,2,0,B|400:332,2,60,0|0|8
212,240,143966,2,0,B|156:284|188:352,1,120,0|8
316,324,144693,2,0,B|372:276|336:208,1,120,0|8
388,168,145239,5,0
388,168,145420,2,0,B|368:96|416:44,1,120,0|12
460,96,145966,1,0
464,164,146148,2,0,B|484:236|436:288,1,120,0|12
404,328,146693,1,0
344,356,146875,2,0,B|284:324|212:340,2,120,0|12|0
324,224,147966,1,8
324,224,148329,1,4
392,116,148693,5,0
260,96,149057,1,0
144,156,149420,1,0
196,276,149784,2,0,B|244:328|324:316,1,120
312,252,150329,1,0
368,216,150511,2,0,B|404:160|475:165,1,120,0|4
340,92,151278,6,0,B|272:64|224:120,1,120
308,220,152003,2,0,B|316:280|276:316|220:304|200:252,1,180,8|2
92,180,152909,1,2
92,180,153090,2,0,B|64:244|112:296,2,120,2|12|2
212,236,154178,6,0,B|328:284,2,120,4|0|8
336,84,155447,2,0,B|376:140|360:212,1,120,0|2
304,224,155990,2,0,B|164:224,2,120,2|8|2
420,180,157080,5,4
420,312,157453,1,0
320,256,157845,2,0,B|236:316,1,89.9999973177911,12|0
196,312,158433,1,0
68,312,158829,1,0
68,312,159033,1,0
132,224,159441,2,0,B|176:172|252:204,1,120,8|4
256,192,160424,12,4,162928
