osu file format v7

[General]
AudioFilename: Vegetable Juice (Po Pi Po) Ryu Remix.mp3
AudioLeadIn: 1996
PreviewTime: 72379
Countdown: 0
SampleSet: Soft
StackLeniency: 0.6
Mode: 0
LetterboxInBreaks: 1

[Editor]
DistanceSpacing: 0.800000011920929
BeatDivisor: 4
GridSize: 8

[Metadata]
Title:Vegetable Juice (Po Pi Po) Ryu Remix
Artist:Hatsune Miku
Creator:banvi
Version:Sweet Juice
Source:Vocaloid
Tags:SUPER PRODUCERS BEAT Vocaloid2 rama-zuP animask

[Difficulty]
HPDrainRate:4
CircleSize:3
OverallDifficulty:4
SliderMultiplier:0.8
SliderTickRate:1

[Events]
//Background and Video events
0,0,"beji.jpg"
//Break Periods
2,18413,22238
2,49772,50390
2,52267,53241
2,55117,56092
2,57968,58943
2,102513,106339
2,131022,131640
2,133516,134491
2,136367,137342
2,139218,140193
//Storyboard Layer 0 (Background)
//Storyboard Layer 1 (Fail)
//Storyboard Layer 2 (Pass)
//Storyboard Layer 3 (Foreground)
//Storyboard Sound Samples
//Background Colour Transformations
3,100,163,162,255

[TimingPoints]
1108,356.358021025123,4,2,0,70,1,0
12066,-100,4,2,0,60,0,0
12244,-100,4,2,0,80,0,0
23469,-100,4,2,0,60,0,0
23647,-100,4,2,0,80,0,0
37723,-100,4,2,0,60,0,0
37901,-100,4,2,0,80,0,0
43425,-100,4,2,0,60,0,0
43603,-100,4,2,0,70,0,0
46632,-100,4,2,0,80,0,0
63381,-100,4,2,0,60,0,0
63559,-100,4,2,0,80,0,0
66232,-100,4,2,0,60,0,0
66410,-100,4,2,0,80,0,0
71934,-100,4,2,0,60,0,0
72379,-100,4,2,0,90,0,1
102313,-100,4,2,0,90,0,0
107569,-100,4,2,0,60,0,0
107748,-100,4,2,0,85,0,0
118973,-100,4,2,0,60,0,0
119151,-100,4,2,0,80,0,0
153629,-100,4,2,0,70,0,0
154609,-100,4,2,0,60,0,0
154787,-100,4,2,0,70,0,0
156480,-100,4,2,0,90,0,1
179287,-100,4,2,0,90,0,0

[Colours]
Combo1 : 255,0,0
Combo2 : 0,255,0
Combo3 : 255,255,0
Combo4 : 0,0,255

[HitObjects]
64,80,1108,1,0
192,80,1820,1,0
320,80,2533,1,0
448,80,3246,2,2,B|504:160|448:240,1,160,2|2
352,160,4671,5,0
352,288,5384,1,0
224,288,6097,1,0
96,288,6809,5,2
200,208,7522,1,0
96,136,8235,1,0
200,56,8947,2,2,B|288:16|368:64,1,160,0|2
280,160,10373,6,2,B|280:256,4,80
280,160,12155,5,4
256,192,12511,12,0,18213
160,176,23558,5,4
160,176,23914,6,0,B|96:104|168:24,1,160,2|0
264,104,25340,2,0,B|352:56|432:120,1,160,2|0
344,216,26765,6,0,B|408:288|344:368,1,160,2|0
240,288,28191,2,0,B|168:336|72:280,1,160,2|0
128,176,29616,5,2
384,176,31042,1,2
256,48,32467,5,2
256,176,33180,2,2,B|256:352,2,160
256,48,35318,5,0
128,48,36031,1,2
128,176,36743,2,0,B|128:272,2,80
128,176,37812,5,4
128,176,38169,6,0,B|256:72|432:192|360:352,1,400
256,336,41020,5,0
384,336,41732,1,2
384,208,42445,2,0,B|384:112,2,80
384,208,43514,5,4
384,208,43870,6,0,B|208:208,1,160
96,208,45296,2,0,B|272:208,1,160
256,360,46721,5,0
256,232,47434,1,0
256,104,48147,2,2,B|256:8,4,80,0|0|0|0|2
256,192,51710,5,0
256,192,52067,1,0
256,152,54561,6,2,B|256:64,1,80
256,192,57412,5,0
256,192,57768,1,0
256,232,60263,6,2,B|256:328,2,80,2|2|0
128,232,61688,1,2
128,104,62401,2,0,B|56:48,2,80
128,104,63470,5,4
128,104,63827,5,0
256,104,64539,1,2
384,104,65252,2,0,B|456:48,2,80
384,104,66321,5,4
384,104,66677,5,0
256,104,67390,1,0
256,224,68103,2,2,B|256:312,3,80
392,312,69885,6,0,C|392:64|256:112,1,400
258,110,72023,5,4
258,110,72379,6,0,B|256:16|144:24,1,160,2|0
88,24,73448,1,8
88,88,73805,2,0,B|88:184|192:184,1,160,2|0
256,184,74874,1,8
192,256,75230,6,0,B|104:256,2,80,0|2|0
256,256,76299,1,8
320,256,76655,2,0,B|416:256,2,80,0|2|0
256,256,77724,1,8
256,256,78081,6,0,B|258:350|370:342,1,160,2|0
426,342,79150,1,8
426,278,79506,2,0,B|426:182|322:182,1,160,2|0
258,182,80575,1,8
322,110,80932,6,0,B|410:110,2,80,0|2|0
258,110,82001,1,8
194,110,82357,2,0,B|98:110,2,80,0|2|0
258,110,83426,1,8
258,110,83783,5,0
312,144,84139,2,0,B|352:176|312:216,1,80,2|0
256,240,84852,1,8
200,264,85208,1,0
144,240,85564,2,0,B|96:208|144:176,1,80,2|0
200,144,86277,1,8
256,64,86633,6,0,B|392:64|480:168,1,240,0|8
469,227,88059,2,0,B|392:320|256:320,1,240,0|8
256,232,89484,5,0
202,198,89841,2,0,B|162:166|202:126,1,80,2|0
258,102,90553,1,8
314,78,90910,1,0
370,102,91266,2,0,B|418:134|370:166,1,80,2|0
314,198,91979,1,8
258,278,92335,6,0,B|138:342|10:262,1,240,0|8
72,224,93761,2,0,B|8:104|152:24,1,240,0|8
200,64,95186,6,0,B|288:64,3,80
256,192,96611,12,0,102313
256,96,107659,5,4
256,96,108015,6,0,B|160:96|160:200,1,160
256,96,109440,2,0,B|352:96|352:200,1,160
256,192,110509,1,2
256,288,110866,6,0,B|352:288|352:176,1,160
256,288,112291,2,0,B|160:288|160:176,1,160
40,192,113717,5,0
136,104,114429,1,0
224,192,115142,1,0
352,192,115855,1,0
480,192,116567,5,0
384,280,117280,1,0
296,192,117993,2,2,B|200:192,2,80
296,192,119062,5,4
296,192,119418,5,0
392,280,120131,2,0,B|336:344|232:344,1,160,2|0
184,344,121200,1,0
120,344,121557,1,0
120,216,122269,6,0,B|296:216,1,160,0|2
408,216,123695,2,0,B|240:216,1,160,0|2
120,216,125120,5,0
120,104,125833,2,0,B|176:40|280:40,1,160,2|0
328,40,126902,1,0
392,40,127258,1,0
352,168,127971,6,0,B|248:40|144:184,2,240
256,240,130822,1,2
216,192,132960,6,2,B|304:192,1,80
232,168,135811,5,0
272,216,136167,1,0
296,192,138662,6,2,B|200:192,1,80
280,168,141513,5,0
240,216,141869,1,0
200,264,142225,6,0,B|120:320|48:256,1,160
125,154,143651,2,2,B|125:66,2,80
256,96,145076,6,0,B|336:40|416:104,1,160
331,200,146502,2,2,B|331:296,2,80
240,112,147927,5,0
368,112,148640,1,0
368,240,149352,2,2,B|280:240,3,80
256,112,151134,6,0,B|200:176,1,80
256,112,151847,2,0,B|320:184,1,80
256,208,152560,2,0,B|256:304,2,80,2|0|2
184,144,153629,6,0,B|248:80|336:152,1,160
392,144,154698,1,4
392,208,155054,2,0,B|456:280|384:368,1,160
330,355,156123,1,2
256,272,156480,6,0,B|176:312|88:264,3,160,0|2|0|2
177,167,159330,5,0
177,38,160043,1,2
49,38,160756,1,0
177,38,161469,1,2
256,136,162181,6,0,B|336:96|424:144,3,160,0|2|0|2
333,239,165032,5,0
461,239,165745,1,2
333,239,166458,1,0
335,366,167170,1,2
219,311,167883,6,0,B|128:312|90:223,1,160,0|2
220,231,169308,2,0,B|318:232|355:137,1,160,0|2
256,64,170734,5,0
160,152,171447,1,2
256,64,172159,1,0
344,152,172872,1,2
256,248,173585,5,0
176,152,174297,1,0
256,248,175010,1,0
336,152,175723,1,0
256,48,176436,5,0
384,48,177148,1,0
256,48,177861,1,0
128,48,178574,2,2,B|128:136,1,80,8|8
128,128,179287,1,0
