osu file format v5

[General]
AudioFilename: Hatsune Miku - Poppipo.mp3
AudioLeadIn: 0
PreviewTime: 71643
Countdown: 1
SampleSet: Normal
StackLeniency: 0.7
Mode: 0
LetterboxInBreaks: 0

[Metadata]
Title:Vegetable Juice (Po Pi Po)
Artist:Hatsune Miku
Creator:Kyocciola
Version:Normal
Source:
Tags:

[Difficulty]
HPDrainRate:4
CircleSize:4
OverallDifficulty:5
SliderMultiplier:1.4
SliderTickRate:1

[Events]
//Background and Video events
0,0,"hatsunemiku01.jpg"
1,0,"Video popipo.avi"
//Break Periods
2,20243,25643
2,38843,44843
//Storyboard Layer 0 (Background)
//Storyboard Layer 1 (Failing)
//Storyboard Layer 2 (Passing)
//Storyboard Layer 3 (Foreground)
//Storyboard Sound Samples
//Background Colour Transformations
3,100,163,162,255

[TimingPoints]
9643,400,4,1,0,100,1,0

[Colours]
Combo1 : 235,5,194
Combo2 : 16,175,228
Combo3 : 2,230,104

[HitObjects]
48,336,1243,5,0
48,224,1643,5,0
160,224,2043,5,0
160,112,2443,5,0
272,112,2843,6,8,B|376:112,1,70
368,112,3143,2,8,B|368:248,1,105
368,272,3643,1,8
256,272,4043,1,0
144,272,4443,6,8,B|40:272,1,70
72,240,4743,2,8,B|72:120,1,105
72,80,5243,5,8
184,80,5643,1,0
184,192,6043,5,8
184,304,6443,1,8
296,304,6843,6,0,B|296:256,3,35
376,248,7443,6,0,B|376:208,2,35
488,248,8043,6,8,B|488:128,1,105
488,112,8443,5,8
488,56,8643,1,8
432,56,8843,1,8
320,56,9243,6,8,B|224:56,1,70
224,56,9543,6,8,B|304:168,1,105
312,192,10043,5,2
312,248,10243,1,2
256,224,10443,1,2
144,224,10843,5,2
144,112,11243,1,2
256,112,11643,5,8
256,56,11843,1,8
312,56,12043,1,8
424,56,12443,6,8,B|424:152,1,70
424,152,12743,6,8,B|296:152,1,105
320,208,13243,5,2
264,208,13443,1,2
208,208,13643,1,2
208,320,14043,5,2
320,320,14443,1,2
432,320,14843,5,8
432,264,15043,1,8
432,208,15243,1,8
432,96,15643,6,8,B|328:96,1,70
336,96,15943,6,8,B|200:96,1,105
176,96,16443,5,2
128,96,16643,1,2
128,152,16843,1,2
128,264,17243,5,2
240,264,17643,1,2
352,264,18043,5,8
408,264,18243,1,8
376,216,18443,1,8
376,104,18843,6,8,B|288:104,1,70
280,104,19143,6,8,B|280:240,1,105
224,208,19643,5,2
224,152,19843,1,2
224,96,20043,1,2
480,344,26843,6,8,B|480:272,1,70
424,272,27243,6,8,B|424:200,1,70
424,144,27643,6,0,B|424:96,3,35
424,80,28043,6,8,B|344:80,1,70,0|0
296,80,28443,6,8,B|224:80,1,70
168,80,28843,6,8,B|72:80,1,70
40,80,29243,6,0,B|40:120,3,35
40,144,29643,6,0,B|128:144,1,70
168,144,30043,6,8,B|168:216,1,70
168,272,30443,6,8,B|256:272,1,70
296,272,30843,6,0,B|344:272,3,35
360,272,31243,6,0,B|448:272,1,70
432,216,31643,6,8,B|432:144,1,70
376,144,32043,6,8,B|288:144,1,70
248,136,32443,6,0,B|248:96,3,35
248,72,32843,6,0,B|336:72,1,70
320,16,33243,5,8
264,16,33443,2,8,B|208:16,1,35
168,16,33743,6,0,B|216:16,7,35
88,16,34843,5,8
88,128,35243,1,8
88,240,35643,1,8
200,240,36043,5,0
312,240,36443,5,8
312,296,36643,1,0
368,296,36843,1,8
424,296,37043,1,0
424,240,37243,2,8,B|472:240,1,35
464,184,37543,1,0
464,96,37843,6,8,B|368:96,1,70
392,40,38243,6,8,B|288:40,1,70
264,40,38643,5,2
32,32,46043,5,2
88,32,46243,6,8,B|192:32,1,70
160,88,46643,6,8,B|248:88,1,70
288,88,47043,6,0,B|336:88,2,35
288,144,47443,6,8,B|288:216,1,70
288,272,47843,6,8,B|368:272,1,70
416,272,48243,5,0
416,216,48443,5,2
416,104,48843,1,2
304,104,49243,5,0
248,104,49443,6,8,B|160:104,1,70
120,104,49843,6,8,B|16:104,1,70
48,160,50243,6,0,B|96:160,2,35
88,192,50643,6,8,B|168:192,1,70
160,248,51043,6,8,B|240:248,1,70
288,248,51443,5,0
344,248,51643,5,2
400,248,51843,1,2
400,192,52043,1,2
400,136,52243,1,2
400,80,52443,5,0
344,80,52643,1,0
288,80,52843,6,8,B|184:80,1,70
160,80,53243,6,0,B|96:80,2,35
160,136,53643,6,0,B|160:216,1,70
160,264,54043,6,8,B|240:264,1,70
232,208,54443,6,8,B|232:128,1,70
232,80,54843,5,2
344,80,55243,1,2
344,136,55443,5,0
344,192,55643,6,8,B|344:296,1,70
344,320,56043,6,8,B|240:320,1,70
216,320,56443,6,0,B|216:280,2,35
160,320,56843,6,8,B|80:320,1,70
88,264,57243,6,8,B|168:264,1,70
160,208,57643,5,8
160,152,57843,1,8
160,96,58043,5,2
216,96,58243,1,2
216,152,58443,1,2
216,208,58643,1,2
272,208,58843,6,8,B|272:64,1,140
384,72,59643,6,2,B|384:232,1,140
384,320,60443,6,8,B|232:320,1,140
240,208,61243,6,2,B|80:208,1,140
96,96,62043,6,8,B|264:96,1,140
240,208,62843,6,2,B|392:208,1,140
384,96,63643,6,8,B|216:96,1,140
128,96,64443,6,2,B|128:248,1,140
240,240,65243,5,0
352,240,65643,1,0
352,128,66043,1,8
352,72,66243,1,8
240,72,66643,5,8
184,72,66843,1,0
128,72,67043,1,8
128,128,67243,1,0
184,128,67443,1,8
240,128,67643,1,0
352,128,68043,2,8,B|416:128|416:128|416:280|416:280|344:280,1,280
296,280,69043,5,0
240,280,69243,1,8
240,224,69443,1,0
240,168,69643,1,8
256,192,69843,12,0,70843
216,192,71143,5,10
296,192,71443,5,14
