osu file format v7

[General]
AudioFilename: VOiCE.mp3
AudioLeadIn: 0
PreviewTime: 78496
Countdown: 1
SampleSet: Soft
StackLeniency: 0.7
Mode: 0
LetterboxInBreaks: 1

[Editor]
DistanceSpacing: 1
BeatDivisor: 4
GridSize: 8

[Metadata]
Title:VOiCE
Artist:Hatsune Miku
Creator:tmokb93
Version:My VOiCE~
Source:Vocaloid
Tags:Card N'FoRcE Kecco

[Difficulty]
HPDrainRate:6
CircleSize:4
OverallDifficulty:7
SliderMultiplier:1.6
SliderTickRate:1

[Events]
//Background and Video events
0,0,"Konachan.com - 66530 hatsune_miku jpeg_artifacts seifuku vocaloid.jpg"
Video,0,"video.avi"
//Break Periods
2,124473,126707
2,152918,156707
//Storyboard Layer 0 (Background)
//Storyboard Layer 1 (Fail)
//Storyboard Layer 2 (Pass)
//Storyboard Layer 3 (Foreground)
//Storyboard Sound Samples
//Background Colour Transformations
3,100,0,128,192

[TimingPoints]
3385,444.444444444444,4,2,0,60,1,0
77607,-100,4,2,0,90,0,1
78051,-100,4,2,0,60,0,0
127829,-100,4,2,0,90,0,1
127829,-100,4,2,0,60,0,0
128051,-100,4,2,0,60,0,0
159829,-100,4,2,0,60,0,0
192273,-100,4,2,0,60,0,0
251829,-200,4,2,0,60,0,0
252273,-100,4,2,0,60,0,0

[Colours]
Combo1 : 255,128,64
Combo2 : 0,166,166
Combo3 : 255,255,0
Combo4 : 128,255,128

[HitObjects]
256,192,3385,1,4
208,112,3829,2,8,B|176:64|136:104,1,80
120,136,4273,1,8
72,200,4496,1,8
144,240,4718,1,8
80,296,4940,1,2
144,336,5162,1,2
304,336,5607,5,2
304,336,5829,1,2
304,336,6051,1,2
208,208,6496,5,8
216,128,6718,1,8
296,144,6940,2,8,B|344:96|344:16|488:16,1,240
480,176,8051,1,2
480,256,8273,1,2
416,208,8496,1,2
336,216,8718,5,2
336,296,8940,1,2
264,256,9162,1,2
264,176,9384,1,2
264,96,9607,2,0,B|264:16,8,40
264,256,10940,5,2
104,256,11384,1,8
152,192,11607,1,2
104,256,11829,1,8
152,192,12051,1,2
152,32,12496,5,8
152,112,12718,1,2
152,32,12940,1,8
152,112,13162,1,2
312,88,13607,5,2
248,136,13829,1,2
312,184,14051,1,2
40,352,14940,1,2
32,32,15829,1,2
256,40,16718,5,8
216,112,16940,1,8
296,112,17162,1,8
256,184,17384,1,8
256,264,17607,1,8
32,32,18496,1,8
480,32,19384,1,8
408,72,19607,6,0,B|408:8,2,40
408,152,20051,1,0
408,232,20273,1,0
256,192,20718,1,0
96,192,21162,5,4
168,336,21607,1,8
216,272,21829,2,8,B|216:184,1,80
376,192,22496,1,2
376,112,22718,1,2
376,192,22940,1,2
256,88,23384,1,8
256,168,23607,1,2
256,248,23829,2,2,B|168:248,3,80
96,248,24718,5,8
96,88,25162,1,8
96,168,25384,1,8
176,168,25607,1,8
336,168,26051,1,8
256,184,26273,5,2
256,184,26384,1,2
256,184,26496,1,2
256,184,26607,1,2
256,184,26718,1,2
256,264,26940,1,4
256,344,27162,1,4
336,344,27384,2,4,B|456:224,1,160
448,72,28273,5,2
288,72,28718,1,2
208,72,28940,2,2,B|208:144,2,40
248,224,29607,1,8
248,144,29829,2,8,B|200:144,2,40
400,192,30496,1,4
400,272,30718,1,4
400,272,30829,1,4
400,272,30940,2,4,B|400:368,3,80
320,352,31829,5,2
160,352,32273,1,2
240,352,32496,1,2
240,272,32718,1,2
240,112,33162,1,2
240,192,33384,1,2
400,192,33829,5,8
320,192,34051,1,8
360,128,34273,1,8
400,192,34496,1,8
240,192,34940,1,4
80,192,35384,1,4
168,64,35829,5,8
328,64,36273,2,8,B|240:64,1,80
168,200,36940,1,2
168,280,37162,1,2
96,240,37384,1,2
96,160,37607,2,4,B|184:72|272:160|400:32,1,320
400,208,38940,5,4
240,208,39384,1,2
240,256,39607,1,2
88,208,40051,1,2
240,256,40496,1,2
320,256,40718,5,4
64,64,41607,1,4
384,64,42496,1,4
256,192,42940,5,8
96,192,43384,1,8
176,192,43607,1,8
16,192,44051,1,8
16,272,44273,2,4,B|104:360|232:232|400:376,1,400
464,312,45829,6,2,B|464:224,1,80
464,152,46496,2,2,B|376:152,1,80
288,152,47162,2,2,B|288:320,1,160
208,312,47829,5,8
40,40,48718,1,8
208,312,49607,1,8
32,192,50051,5,8
112,192,50273,1,2
192,192,50496,1,8
272,192,50718,1,2
352,192,50940,1,8
432,192,51162,1,2
512,192,51384,1,8
472,264,51607,1,2
392,264,51829,1,8
312,264,52051,1,2
232,272,52273,1,8
232,192,52496,5,8
232,192,52718,1,8
232,192,52940,1,8
232,192,53162,1,8
72,192,53607,2,2,B|-16:192,1,80
152,192,54273,1,2
312,192,54718,1,2
152,192,55162,5,2
152,224,55273,1,2
152,256,55384,1,2
152,296,55496,1,2
152,328,55607,1,0
224,352,55829,1,8
256,352,55940,1,8
288,352,56051,1,8
360,352,56273,1,2
392,328,56384,1,2
424,304,56496,1,2
480,256,56718,1,4
480,96,57162,5,2
352,192,57607,1,2
272,192,57829,1,2
272,192,58051,1,2
192,192,58273,1,2
32,192,58718,1,2
32,192,58940,2,2,B|-24:136|32:80|112:80|256:40,1,320
312,192,60273,5,8
256,272,60718,1,2
224,256,60829,1,2
200,232,60940,1,2
176,200,61051,1,2
168,168,61162,1,2
312,192,61607,2,0,B|280:160|240:136,6,80
416,72,63384,1,4
416,72,63607,1,4
416,72,63829,5,2
296,176,64273,1,8
424,272,64718,1,2
296,176,65162,1,8
168,280,65607,1,2
168,280,65718,1,2
168,280,65829,1,2
296,176,66273,2,4,B|240:72|168:184,1,160,4|4
392,280,67384,5,8
232,280,67829,1,2
224,120,68273,1,8
80,192,68718,1,2
256,192,69162,1,0
256,192,69273,1,0
256,192,69384,1,0
256,192,69496,1,0
256,192,69607,1,0
256,192,69718,1,0
224,216,69829,5,0
160,264,70051,1,2
224,304,70273,1,2
304,304,70496,1,2
368,256,70718,1,2
296,216,70940,5,4
296,56,71384,1,8
432,136,71829,1,4
272,136,72273,1,8
112,136,72718,1,8
112,136,72940,1,8
256,80,73384,1,2
256,120,73496,1,2
256,160,73607,1,2
256,200,73718,1,2
256,240,73829,1,2
256,80,74273,5,8
256,80,74384,1,8
256,80,74496,1,8
256,80,74607,1,8
256,80,74718,1,8
256,240,75162,1,2
256,240,75384,1,2
416,240,75829,1,4
256,192,76051,12,4,77607
256,192,78051,5,4
256,32,78496,5,2
256,192,78940,1,4
256,192,79162,1,4
256,352,79607,1,2
408,304,80051,1,2
408,304,80162,1,2
408,304,80273,1,2
408,304,80384,1,2
408,304,80496,1,2
408,304,80607,1,2
408,304,80718,1,2
408,304,80829,1,2
408,304,80940,1,2
408,224,81162,5,8
328,224,81384,1,8
248,224,81607,1,8
8,224,82273,1,2
88,224,82496,1,2
168,224,82718,1,2
168,304,82940,1,2
248,304,83162,1,8
328,304,83384,2,8,B|360:336|408:304,3,80
408,232,84273,5,2
408,192,84384,1,2
408,152,84496,1,2
368,152,84607,1,2
368,192,84718,1,2
368,232,84829,1,2
328,232,84940,1,2
328,192,85051,1,2
328,152,85162,1,2
176,104,85607,5,8
40,192,86051,1,8
120,192,86273,1,8
200,192,86496,1,8
184,272,86718,1,8
344,280,87162,5,2
264,280,87384,1,2
304,208,87607,1,2
304,128,87829,1,2
152,96,88273,5,8
232,96,88496,1,8
192,160,88718,1,4
480,24,89607,1,4
488,344,90496,1,4
256,120,91384,5,8
256,168,91607,1,8
256,216,91829,1,8
256,264,92051,1,8
256,312,92273,1,4
96,40,93162,1,4
416,40,94051,1,4
424,280,94718,5,0
424,200,94940,1,0
184,200,95607,1,0
264,200,95829,1,0
24,200,96496,1,0
104,200,96718,1,0
256,200,97162,1,0
416,200,97607,1,4
344,344,98051,5,8
344,184,98496,1,2
344,264,98718,1,2
424,264,98940,1,2
344,264,99162,1,2
184,264,99607,1,8
264,264,99829,1,8
344,264,100051,1,8
344,184,100273,1,8
344,264,100496,1,8
344,344,100718,1,8
480,264,101162,5,4
480,104,101607,1,2
400,104,101829,1,2
344,256,102273,1,4
304,104,102718,1,2
352,168,102940,1,2
288,216,103162,5,8
248,216,103273,1,8
208,216,103384,1,8
168,216,103496,1,8
128,216,103607,1,8
128,136,103829,5,2
168,136,103940,1,2
208,136,104051,1,2
288,136,104273,2,4,B|304:120|320:136|320:120|336:136|336:120|352:136|352:120|368:136|368:112|384:128|384:104|448:104,1,160
416,264,105162,5,2
272,344,105607,1,2
336,296,105829,1,2
176,296,106273,1,4
272,168,106718,1,2
192,168,106940,2,2,B|192:272|96:272,3,160
96,112,108718,5,2
176,112,108940,1,2
96,336,109607,1,4
96,256,109829,1,2
136,256,109940,1,2
176,256,110051,1,2
216,256,110162,1,2
256,256,110273,1,2
296,256,110384,1,10
336,256,110496,1,8
376,256,110607,1,8
416,256,110718,1,8
456,256,110829,1,8
496,256,110940,1,8
496,96,111384,1,4
336,96,111829,5,2
256,256,112273,1,8
184,96,112718,1,2
104,256,113162,1,8
72,96,113607,1,8
72,96,113718,1,8
72,96,113829,1,8
104,256,114273,1,2
256,256,114718,1,4
264,96,115162,1,4
184,88,115384,5,8
184,248,115829,1,2
328,176,116273,1,8
168,176,116718,1,2
328,176,117162,1,8
184,248,117607,1,2
168,176,117829,1,8
168,112,118051,2,2,B|136:80|88:120,3,80
96,192,118940,5,4
256,192,119384,1,8
416,192,119829,1,4
256,192,120273,1,12
256,32,120718,2,8,B|320:96,1,80
328,248,121384,5,0
296,272,121496,1,0
256,296,121607,1,0
216,272,121718,1,0
184,248,121829,1,0
256,104,122273,2,0,B|256:192,2,80
96,104,123162,1,2
176,104,123384,1,2
416,104,123829,1,2
336,104,124051,1,2
256,104,124273,1,0
256,192,127607,5,4
256,192,127829,1,4
256,32,128273,5,2
256,192,128718,1,2
256,192,128940,1,2
256,352,129384,1,2
112,272,129829,1,8
112,192,130051,1,8
112,112,130273,1,8
256,112,130496,1,0
384,112,130940,5,2
384,192,131162,1,2
384,272,131384,1,2
256,192,131829,2,2,B|256:288,2,80
256,32,132718,5,8
256,112,132940,1,8
216,184,133162,1,8
296,184,133384,1,8
256,256,133607,1,8
256,336,133829,1,8
256,256,134051,1,8
256,192,134273,2,0,B|256:128,6,40
96,192,135384,5,8
416,192,135829,1,8
416,272,136051,1,8
96,272,136496,1,8
256,192,136940,1,4
320,232,137162,2,4,B|256:320|184:224,1,160
256,88,138051,5,2
176,88,138273,1,2
216,160,138496,1,2
480,344,139384,1,4
472,24,140273,1,4
176,192,141162,5,2
256,192,141384,1,2
336,192,141607,1,2
256,112,141829,2,4,B|256:200,1,80
24,24,142940,1,4
496,24,143829,1,4
256,192,144051,12,4,146940
256,192,147384,5,2
200,192,147533,1,2
200,136,147681,1,2
256,136,147829,1,2
256,80,147977,1,2
200,80,148125,1,2
200,24,148273,1,2
256,24,148422,1,10
256,80,148570,1,10
200,80,148718,1,10
200,136,148866,1,10
256,136,149014,1,10
256,192,149162,1,10
312,192,149310,5,10
368,192,149459,1,10
368,248,149607,1,10
312,248,149755,1,10
312,304,149903,1,10
368,304,150051,1,8
368,360,150199,1,8
312,360,150347,1,8
368,360,150496,1,8
368,304,150644,1,8
256,192,150940,12,4,152718
256,192,157607,5,2
256,192,158051,12,4,159384
256,192,159829,6,2,B|208:80|144:192,2,160
256,192,161162,1,2
256,352,161607,1,8
256,272,161829,1,8
256,192,162051,1,8
256,112,162273,1,8
256,32,162496,1,8
256,192,162940,5,2
256,192,163051,1,2
256,192,163162,1,2
176,192,163384,5,8
176,112,163607,1,8
104,152,163829,1,8
104,312,164273,1,8
264,312,164718,1,8
264,152,165162,5,2
344,152,165384,1,2
344,152,165496,1,2
344,152,165607,1,2
344,152,165718,1,2
344,152,165829,1,2
304,224,166051,1,2
144,224,166496,5,4
184,152,166718,1,4
224,224,166940,2,2,B|224:56,2,160
384,224,168273,1,2
264,224,168718,5,2
264,184,168829,1,2
264,144,168940,1,2
264,104,169051,1,2
288,72,169162,1,2
320,104,169273,1,2
320,144,169384,1,2
320,184,169496,1,2
320,224,169607,1,2
184,304,170051,5,2
184,304,170162,1,2
184,304,170273,1,2
184,304,170384,1,2
184,304,170496,1,2
104,304,170718,5,8
144,232,170940,1,8
304,232,171384,2,4,B|424:112,1,160
224,232,172273,2,2,B|224:144,6,80
224,72,174051,1,4
384,72,174496,5,4
224,72,174940,1,2
80,144,175384,1,2
320,144,176051,1,8
320,304,176496,1,8
256,192,176940,1,8
256,192,177162,1,8
256,192,177384,1,0
256,112,177607,5,8
256,112,177718,1,8
256,112,177829,1,8
256,112,177940,1,8
256,112,178051,1,8
256,272,178496,2,8,B|136:152,1,160
256,272,179384,5,2
256,112,179829,1,2
256,192,180273,1,2
256,192,180384,1,2
256,192,180496,1,2
256,192,180607,1,2
256,192,180718,1,2
96,192,181162,5,8
256,192,181607,1,8
416,192,182051,1,8
336,192,182273,1,8
296,120,182496,1,8
216,120,182718,1,8
176,192,182940,1,8
216,264,183162,1,8
304,264,183384,1,8
256,192,183829,5,8
256,192,183940,1,8
256,192,184051,1,8
256,192,184162,1,8
256,192,184273,1,8
256,192,184384,1,8
256,192,184496,1,8
256,112,184718,6,2,B|256:80,9,20
192,144,185607,2,4,B|192:312,1,160
352,296,186496,5,2
352,216,186718,1,8
352,176,186829,1,8
312,176,186940,1,8
312,136,187051,1,8
312,96,187162,1,8
232,96,187384,1,2
232,56,187496,1,2
232,16,187607,1,2
312,16,187829,1,10
344,16,187940,1,10
376,16,188051,1,8
456,24,188273,5,4
408,88,188496,1,2
368,88,188607,1,2
408,160,188829,1,2
408,160,188940,1,2
408,240,189162,1,2
328,240,189384,1,2
328,240,189496,1,2
208,240,189829,1,2
128,240,190051,1,12
328,104,190273,5,8
328,104,190384,1,8
328,104,190496,1,8
328,184,190718,1,8
256,144,190940,1,2
256,144,191051,1,2
256,104,191162,1,2
176,104,191384,1,2
176,184,191607,1,4
96,184,191829,1,4
96,24,192273,5,2
256,32,192718,1,2
336,32,192940,1,2
296,104,193162,1,2
296,184,193384,1,2
296,344,193829,1,2
296,312,193940,1,2
296,280,194051,1,2
352,280,194273,1,2
352,312,194384,1,2
352,344,194496,1,2
360,184,194940,5,8
360,104,195162,1,8
288,136,195384,2,8,B|120:136,3,160
264,56,197162,1,8
264,216,197384,1,8
264,136,197607,1,8
184,136,197829,1,8
104,136,198051,2,2,B|176:136,8,40
104,296,199384,5,4
264,296,199829,1,8
184,296,200051,1,8
224,232,200273,1,8
224,152,200496,1,8
384,152,200940,1,8
304,152,201162,1,8
344,224,201384,1,8
344,80,201607,1,8
416,224,202051,5,4
480,176,202273,1,4
416,128,202496,1,4
376,128,202607,1,4
336,128,202718,1,4
296,128,202829,1,4
256,128,202940,1,0
152,176,203162,1,4
216,128,203384,5,2
256,128,203496,1,2
288,128,203607,1,2
320,128,203718,1,2
352,128,203829,1,2
416,176,204051,1,6
256,192,204273,12,0,206051
256,192,206496,5,4
256,32,206940,1,2
256,112,207162,1,2
256,192,207384,1,2
256,272,207607,1,2
120,192,208051,1,2
120,112,208273,2,2,B|120:24,3,80
120,112,209162,5,8
120,192,209384,1,8
184,144,209607,1,8
424,144,210273,1,4
304,248,210718,1,8
264,184,210940,1,8
344,184,211162,1,8
304,112,211384,1,8
264,40,211607,1,8
344,40,211829,1,8
424,40,212051,1,8
424,120,212273,5,2
424,120,212384,1,2
424,120,212496,1,2
424,120,212607,1,2
424,120,212718,1,2
424,120,212829,1,2
424,120,212940,1,2
424,120,213051,1,2
424,120,213162,1,4
424,280,213607,5,8
256,192,214051,2,8,B|320:128,1,80
256,288,214718,2,8,B|320:352,1,80
256,288,215162,1,8
256,192,215384,1,8
176,192,215607,1,8
96,192,215829,1,8
184,56,216273,5,2
256,96,216496,1,2
328,56,216718,1,2
472,344,217607,1,2
40,344,218496,1,2
256,192,219384,6,2,B|256:280,4,80
32,40,221162,1,2
472,40,222051,5,2
424,104,222273,1,0
400,136,222384,1,0
312,216,222718,1,0
312,136,222940,1,0
152,136,223384,1,0
240,0,223829,5,4
240,160,224273,1,8
240,80,224496,1,8
240,160,224718,1,8
240,320,225162,1,8
240,240,225384,1,8
168,272,225607,1,8
168,112,226051,1,8
168,192,226273,1,8
88,192,226496,2,4,B|88:280,3,80
168,272,227384,5,8
328,272,227829,1,8
328,272,227940,1,8
328,272,228051,1,8
328,272,228162,1,8
328,272,228273,1,8
248,272,228718,1,8
248,192,228940,2,0,B|248:112,7,40,2|2|2|2|2|2|2|0
32,192,230051,5,0
480,192,230496,1,0
256,72,230940,5,8
256,232,231384,1,8
256,152,231607,1,8
328,192,231829,1,8
184,192,232273,1,8
256,232,232496,1,8
328,192,232718,1,8
256,72,233162,1,2
256,152,233384,1,2
296,120,233607,2,2,B|208:120,3,80
136,120,234496,5,8
136,280,234940,1,8
192,224,235162,1,8
248,280,235384,1,8
248,128,235829,1,8
328,128,236051,1,8
328,128,236162,1,8
328,128,236273,1,8
328,128,236384,1,8
328,128,236496,1,8
408,128,236718,1,8
368,200,236940,1,8
368,280,237162,1,8
208,280,237607,1,8
368,280,238051,6,0,B|288:280|288:144,3,160
128,160,239829,1,0
208,160,240051,1,0
288,160,240273,1,0
208,160,240496,1,0
288,160,240718,1,0
208,296,241162,1,0
368,296,241607,5,0
288,296,241829,1,0
328,224,242051,1,0
328,64,242496,1,0
208,160,242940,1,0
368,160,243384,1,0
288,160,243607,1,0
288,160,243718,1,0
288,160,243829,1,0
288,80,244051,1,0
288,160,244273,1,0
128,160,244718,5,0
128,240,244940,1,0
208,240,245162,2,0,B|264:296|368:240,3,160
208,184,246940,1,0
208,104,247162,1,0
208,104,247384,1,0
288,104,247607,1,0
288,184,247829,1,0
248,336,248273,1,0
88,336,248718,5,0
88,256,248940,1,0
160,296,249162,1,0
160,136,249607,1,0
160,296,250051,1,0
320,304,250496,6,0,B|288:336|248:296,1,80
256,216,250940,2,0,B|288:184|328:224,1,80,0|0
408,224,251384,1,0
368,160,251607,1,0
368,80,251829,2,0,B|344:56|312:56|288:88,1,80
