osu file format v7

[General]
AudioFilename: VOiCE.mp3
AudioLeadIn: 0
PreviewTime: 78496
Countdown: 1
SampleSet: Soft
StackLeniency: 0.7
Mode: 0
LetterboxInBreaks: 1

[Editor]
DistanceSpacing: 0.800000011920929
BeatDivisor: 4
GridSize: 8

[Metadata]
Title:VOiCE
Artist:Hatsune Miku
Creator:tmokb93
Version:Friends~
Source:Vocaloid
Tags:Card N'FoRcE Kecco

[Difficulty]
HPDrainRate:5
CircleSize:4
OverallDifficulty:5
SliderMultiplier:1.2
SliderTickRate:1

[Events]
//Background and Video events
0,0,"Konachan.com - 66530 hatsune_miku jpeg_artifacts seifuku vocaloid.jpg"
Video,0,"video.avi"
//Break Periods
2,20918,34629
2,74250,76407
2,124473,126407
//Storyboard Layer 0 (Background)
//Storyboard Layer 1 (Fail)
//Storyboard Layer 2 (Pass)
//Storyboard Layer 3 (Foreground)
//Storyboard Sound Samples
//Background Colour Transformations
3,100,0,128,192

[TimingPoints]
3385,444.444444444444,4,2,0,60,1,0
77607,-100,4,2,0,90,0,1
78051,-100,4,2,0,60,0,0
121384,-200,4,2,0,60,0,0
121829,-100,4,2,0,60,0,0
127607,-100,4,2,0,90,0,1
127829,-100,4,2,0,60,0,0

[Colours]
Combo1 : 255,128,64
Combo2 : 0,166,166
Combo3 : 255,255,0
Combo4 : 128,255,128

[HitObjects]
256,288,3829,5,2
160,288,4273,2,2,B|160:224,3,60
160,128,5384,1,8
160,80,5607,2,8,B|192:48|216:88,2,60
208,176,6496,5,2
208,176,6718,1,2
208,224,6940,2,2,B|280:224|280:304|376:304,1,180
376,208,8051,5,8
376,160,8273,1,8
368,112,8496,1,8
320,112,8718,2,8,B|256:112,1,60
216,112,9162,2,0,B|216:176,6,60,8|8|8|2|2|2|4
120,112,10940,5,0
200,56,11384,1,8
248,56,11607,1,8
296,56,11829,1,8
344,56,12051,1,8
264,112,12496,1,2
296,144,12718,1,2
328,184,12940,1,2
360,224,13162,1,2
304,296,13607,5,2
264,320,13829,1,2
216,328,14051,2,2,B|152:264|224:192|144:112|96:112,3,240
72,120,16940,1,8
72,72,17162,2,8,B|104:24|128:96,1,60
256,192,17607,12,4,20718
256,200,35829,5,8
256,296,36273,1,8
208,296,36496,2,8,B|176:264|152:304|96:256,1,120,8|4
96,160,37384,1,2
96,160,37607,2,4,B|184:72|272:160|376:56,1,300
370,61,38940,5,4
376,160,39384,1,8
376,208,39607,1,8
376,304,40051,1,8
280,304,40496,1,8
232,304,40718,2,4,B|112:184|8:320,2,240
232,208,42940,5,2
304,144,43384,2,2,B|304:208,1,60
392,176,44051,1,4
376,48,44496,1,2
328,48,44718,2,4,L|240:136|152:48,1,240
112,56,45829,1,4
112,104,46051,1,4
112,200,46496,2,2,B|144:168|168:208,1,60
304,200,47384,2,2,B|304:264,1,60
304,312,47829,5,4
456,192,48718,1,4
304,80,49607,1,4
256,160,50051,5,2
168,192,50496,2,2,B|168:256,1,60
72,248,51162,1,2
72,152,51607,1,4
96,112,51829,2,4,L|144:64|176:120,1,120
216,112,52496,5,8
216,160,52718,1,8
216,208,52940,1,8
216,256,53162,1,8
312,256,53607,1,8
312,208,53829,1,8
312,112,54273,1,4
400,160,54718,1,4
400,256,55162,5,8
352,256,55384,2,8,L|288:256,6,60
256,256,57162,5,2
160,256,57607,2,2,L|112:208,1,60
120,168,58051,2,2,L|168:120,1,60
240,64,58718,1,4
240,112,58940,2,4,B|240:240|416:240,1,240
408,336,60273,5,4
312,336,60718,2,2,B|240:264|144:344,1,180
152,288,61607,1,8
152,240,61829,2,4,B|256:240|256:72|472:72,1,360
456,120,63384,1,4
456,168,63607,1,4
456,216,63829,5,2
400,296,64273,1,8
344,216,64718,1,2
288,296,65162,1,8
232,216,65607,2,2,B|232:144,1,60
152,216,66273,2,8,B|152:352,1,120
72,216,67384,5,4
136,144,67829,1,8
200,216,68273,1,4
256,144,68718,1,8
320,216,69162,1,4
384,144,69607,1,8
384,96,69829,2,4,B|200:96,1,180
104,96,70940,5,8
104,192,71384,1,4
104,288,71829,1,8
176,352,72273,1,4
248,288,72718,2,8,B|248:216,1,60
248,136,73384,2,4,B|432:136,1,180
256,192,77607,5,4
256,192,78051,1,4
256,96,78496,5,2
184,160,78940,2,2,B|184:224,1,60
256,280,79607,1,2
328,224,80051,2,8,B|328:160,3,60
424,168,81162,5,8
424,120,81384,1,8
424,72,81607,1,8
320,168,82273,2,2,B|272:216|208:168,1,120
208,120,82940,2,2,B|240:88|264:128,1,60
304,120,83384,1,2
352,120,83607,1,2
400,120,83829,1,2
448,120,84051,1,2
448,168,84273,2,8,B|448:232,4,60
376,232,85607,5,2
280,232,86051,2,2,B|216:232,1,60
168,232,86496,2,2,B|168:160,1,60
168,80,87162,2,2,B|168:152,3,60
264,136,88273,5,2
312,136,88496,1,2
360,136,88718,1,4
256,296,89607,1,4
152,136,90496,1,4
256,192,91384,12,4,95829
256,200,96273,5,8
256,104,96718,1,8
256,200,97162,1,8
256,296,97607,1,4
176,240,98051,5,0
256,200,98496,1,8
256,200,98718,1,8
336,152,99162,1,0
424,112,99607,1,4
424,160,99829,2,4,B|424:344|136:344,1,360
64,344,101607,5,0
64,296,101829,2,0,B|64:168,1,120
64,80,102718,1,0
64,128,102940,1,0
112,128,103162,2,8,B|112:192,4,60
160,128,104273,2,8,B|160:168|208:168|208:120|264:120,1,120
256,216,105162,5,0
256,312,105607,2,0,B|320:312,1,60
408,312,106273,1,0
408,216,106718,1,8
408,216,106940,1,8
352,136,107384,1,0
304,216,107829,1,0
256,136,108273,5,4
160,136,108718,2,8,B|160:208,1,60
160,344,109607,2,4,B|160:280,1,60
288,344,110496,1,8
384,344,110941,1,8
336,264,111385,1,8
336,168,111829,5,4
248,208,112273,1,8
168,160,112718,1,4
232,88,113162,1,8
328,88,113607,1,4
328,88,114051,1,8
328,184,114496,1,2
328,184,114718,1,2
232,184,115162,1,2
232,184,115384,5,4
160,128,115829,1,8
224,56,116273,1,2
288,128,116718,1,8
384,128,117162,1,2
456,72,117607,2,8,B|456:152,1,60,8|2
424,320,118718,5,4
424,320,118940,1,4
328,320,119384,1,0
232,320,119829,1,0
136,320,120273,1,0
40,320,120718,2,0,B|40:256,1,60
40,160,121384,2,4,B|72:128|104:176,1,60,0|0
240,160,122496,5,2
240,256,122940,1,2
320,208,123384,1,2
320,304,123829,1,2
400,256,124273,1,2
256,192,127607,5,4
256,192,127829,1,4
256,96,128273,5,8
160,96,128718,2,8,B|216:152,1,60
200,232,129384,1,8
296,232,129829,2,2,B|368:232,4,60
296,184,130940,5,8
296,136,131162,1,8
296,88,131384,1,8
200,88,131829,2,8,B|200:152,2,60
120,144,132718,6,2,B|120:216,1,60
120,248,133162,2,0,B|184:248,8,60,8|8|8|0|2|2|2|2|4
120,344,135384,5,2
200,288,135829,2,2,B|248:240,1,60
312,184,136496,1,2
384,120,136940,2,8,B|384:192,6,60
336,120,138496,1,4
256,296,139384,1,4
168,120,140273,1,4
256,296,141162,6,2,B|256:232,3,60,0|0|0|0
256,240,142051,1,4
72,192,142940,1,4
256,240,143829,1,4
