osu file format v7

[General]
AudioFilename: VOiCE.mp3
AudioLeadIn: 0
PreviewTime: 78496
Countdown: 1
SampleSet: Soft
StackLeniency: 0.7
Mode: 0
LetterboxInBreaks: 1

[Editor]
DistanceSpacing: 1
BeatDivisor: 4
GridSize: 8

[Metadata]
Title:VOiCE
Artist:Hatsune Miku
Creator:tmokb93
Version:Fairytail~
Source:Vocaloid
Tags:Card N'FoRcE Kecco

[Difficulty]
HPDrainRate:0
CircleSize:3
OverallDifficulty:0
SliderMultiplier:1.2
SliderTickRate:1

[Events]
//Background and Video events
Video,0,"video.avi"
0,0,"Konachan.com - 66530 hatsune_miku jpeg_artifacts seifuku vocaloid.jpg"
//Break Periods
2,20918,34030
2,110029,120696
//Storyboard Layer 0 (Background)
//Storyboard Layer 1 (Fail)
//Storyboard Layer 2 (Pass)
//Storyboard Layer 3 (Foreground)
//Storyboard Sound Samples
//Background Colour Transformations
3,100,0,128,192

[TimingPoints]
3385,444.444444444444,4,2,0,60,1,0
77607,-100,4,2,0,90,0,1
78051,-100,4,2,0,60,0,0
127607,-100,4,2,0,60,0,1
127829,-100,4,2,0,60,0,0

[Colours]
Combo1 : 255,128,64
Combo2 : 0,166,166
Combo3 : 255,255,0
Combo4 : 128,255,128

[HitObjects]
256,192,3829,1,0
256,72,4273,1,0
376,72,4718,1,0
376,192,5162,1,0
376,312,5607,2,4,B|304:312,2,60
472,240,6496,5,0
472,120,6940,1,0
312,192,7607,1,4
192,192,8051,5,4
72,192,8496,2,8,B|104:224|128:184,9,60,8|8|8|8|8|8|2|2|2|4
200,288,10940,5,0
320,288,11384,1,4
424,224,11829,1,0
496,128,12273,1,4
384,80,12718,1,0
312,176,13162,1,4
264,64,13607,5,0
264,184,14051,2,4,B|160:272|40:184,2,240
256,192,16718,12,4,20718
256,192,35830,6,2,B|200:136|136:208,1,120
144,312,36718,1,8
264,312,37162,1,8
272,192,37607,2,0,B|320:192|360:160|360:112|328:48|248:16|248:16,1,240
152,80,38940,5,4
72,168,39384,1,8
192,168,39829,1,8
144,280,40273,1,8
264,280,40718,1,4
488,192,41607,1,4
320,24,42496,1,4
256,120,42940,5,2
152,184,43384,1,2
192,72,43829,1,2
312,80,44273,1,2
312,200,44718,2,4,B|312:336|480:336,1,240
472,216,46051,5,8
440,104,46495,1,8
320,104,46940,1,8
200,104,47384,1,8
80,104,47829,2,4,B|192:216|80:328,2,240
200,104,50051,5,0
256,208,50495,1,0
352,144,50940,1,0
288,40,51384,1,0
408,40,51829,1,0
472,144,52273,1,0
352,144,52718,5,0
352,144,53162,1,0
352,264,53607,1,0
256,336,54051,1,0
136,336,54496,1,0
256,192,54940,12,4,56717
256,40,57162,5,0
336,136,57607,1,0
416,224,58051,1,0
344,320,58496,1,0
224,320,58940,1,0
176,208,59384,1,0
224,96,59829,1,0
344,96,60273,5,4
344,216,60718,2,4,B|256:216,1,60
104,216,61607,1,8
160,320,62052,1,8
280,320,62496,1,8
344,216,62941,1,8
216,16,63829,5,4
216,136,64273,1,0
216,256,64718,1,4
112,200,65162,1,0
216,136,65607,2,4,B|216:216,1,60
320,264,66273,2,0,B|376:320|432:256,1,120
440,112,67384,5,8
320,112,67829,1,0
200,112,68273,1,8
80,112,68718,1,0
80,232,69162,1,8
200,232,69607,1,0
200,112,70051,2,8,B|264:112,3,60
320,112,70940,5,0
328,232,71384,1,4
256,328,71829,1,0
184,232,72273,1,4
184,112,72718,2,0,B|184:184,1,60
88,112,73384,2,4,B|88:248,1,120
256,192,74273,12,0,77162
256,320,77607,5,4
256,200,78051,1,4
376,200,78496,5,4
376,80,78940,2,8,B|448:80,1,60
312,80,79607,1,4
288,200,80051,2,8,B|264:224|216:192,3,60
256,80,81162,2,2,B|256:144,2,60
256,264,82273,6,4,B|200:208|200:144,1,120
144,160,82940,1,2
40,96,83384,1,8
144,40,83829,1,8
264,40,84273,1,8
264,160,84718,1,8
336,256,85162,1,8
456,256,85607,5,8
456,136,86051,2,2,B|456:72,3,60
352,136,87162,2,8,B|288:136,3,60
352,240,88273,1,4
256,192,88718,12,8,91384
256,192,91829,5,8
256,192,92273,12,4,95829
256,72,97607,5,4
256,192,98051,1,0
256,312,98496,1,0
376,312,98940,1,0
376,192,99384,2,0,B|288:104|136:104|32:208,1,360
56,312,101162,5,4
96,200,101607,1,0
200,136,102051,1,4
320,136,102496,1,0
424,200,102940,1,4
360,296,103384,5,8
240,296,103829,1,8
120,296,104273,2,4,B|152:264|96:264|144:216|72:216|128:160,1,120
112,64,105162,5,0
232,64,105607,1,0
232,184,106051,1,0
112,184,106496,1,0
112,304,106940,2,0,B|216:392|344:296,1,240
344,184,108273,5,4
344,64,108718,2,8,B|264:64,1,60
152,192,109607,2,4,B|224:192,1,60
256,192,122496,12,4,127607
160,120,128273,5,4
160,240,128718,2,8,B|192:272|232:272,1,60
328,240,129384,1,4
328,120,129829,2,2,B|328:56,3,60
224,120,130940,5,8
104,136,131384,1,8
104,256,131829,2,8,B|176:256,2,60
224,256,132718,1,2
224,136,133162,2,2,B|224:64,8,60
344,136,135384,5,0
352,256,135829,2,0,B|272:256,1,60
168,256,136496,1,0
48,256,136940,2,8,B|24:232|56:192,3,60
112,104,138051,6,8,B|176:104,1,60
232,104,138496,1,4
232,344,139384,1,4
48,200,140273,1,4
256,72,141162,6,2,B|256:136,4,60
88,240,142940,1,4
328,240,143829,1,4
