osu file format v9

[General]
AudioFilename: utanikatachiwanaikeredo.mp3
AudioLeadIn: 2000
PreviewTime: 93292
Countdown: 0
SampleSet: Soft
StackLeniency: 0.7
Mode: 0
LetterboxInBreaks: 1

[Editor]
Bookmarks: 201966,206864,43461
DistanceSpacing: 1.2
BeatDivisor: 4
GridSize: 8

[Metadata]
Title:Uta ni Katachi wa nai keredo
Artist:Hatsune Miku
Creator:Nymph_
Version:Yuki
Source:Vocaloid
Tags:air_kannabi doriko

[Difficulty]
HPDrainRate:5
CircleSize:4
OverallDifficulty:5
ApproachRate:7
SliderMultiplier:1.6
SliderTickRate:1

[Events]
//Background and Video events
0,0,"63050_1500x1000_733836.jpg"
//Break Periods
2,28304,33021
2,91365,93327
2,182590,201082
2,204631,205061
//Storyboard Layer 0 (Background)
//Storyboard Layer 1 (Fail)
//Storyboard Layer 2 (Pass)
//Storyboard Layer 3 (Foreground)
//Storyboard Sound Samples
//Background Colour Transformations
3,100,163,162,255

[TimingPoints]
1166,612.244897959184,4,2,1,40,1,0
6370,-100,4,2,1,50,0,0
6676,-100,4,2,1,60,0,0
6982,-100,4,2,1,70,0,0
7594,-100,4,2,1,80,0,0
7900,-100,4,2,1,90,0,0
8206,-100,4,2,1,100,0,0
8512,-100,4,1,1,50,0,0
9125,-100,4,1,1,55,0,0
9431,-100,4,1,1,60,0,0
9737,-100,4,1,1,65,0,0
10043,-100,4,1,1,70,0,0
10349,-100,4,1,1,75,0,0
10655,-100,4,1,1,80,0,0
10961,-100,4,1,1,60,0,0
18614,-100,4,1,1,65,0,0
18921,-100,4,1,1,70,0,0
19227,-100,4,1,1,75,0,0
19533,-100,4,1,1,80,0,0
19839,-100,4,1,1,85,0,0
20145,-100,4,1,1,90,0,0
20451,-100,4,1,1,95,0,0
20757,-100,4,1,1,60,0,0
28104,-100,4,2,1,60,0,0
33921,-100,4,2,1,30,0,0
53512,-100,4,2,1,40,0,0
71880,-100,4,2,1,50,0,0
94227,-100,4,2,1,100,0,1
132492,-100,4,2,1,80,0,1
133717,-100,4,2,1,100,0,1
138308,-100,4,1,1,45,0,0
138614,-100,4,1,1,50,0,0
138921,-100,4,1,1,55,0,0
139227,-100,4,1,1,60,0,0
139533,-100,4,1,1,65,0,0
139839,-100,4,1,1,70,0,0
140145,-100,4,1,1,75,0,0
140451,-100,4,1,1,80,0,0
140757,-100,4,2,1,100,0,0
142594,-100,4,1,1,100,0,0
142900,-100,4,2,1,90,0,0
161574,-100,4,1,1,40,0,0
162798,-100,4,2,1,90,0,0
201982,-100,4,2,1,40,0,0
204431,-100,4,2,1,100,0,0
205961,-100,4,2,1,70,0,0
206268,-100,4,2,1,80,0,0
206574,-100,4,2,1,90,0,0
206880,-100,4,2,1,100,0,1
245451,-100,4,1,1,60,0,0
246063,-100,4,1,1,60,0,1
280349,-100,4,2,1,85,0,0
282798,-100,4,2,1,70,0,0
285247,-100,4,2,1,70,0,1
285248,-100,4,2,1,70,0,0

[Colours]
Combo1 : 170,85,255
Combo2 : 179,217,255
Combo3 : 142,255,255
Combo4 : 255,164,255

[HitObjects]
72,80,1166,2,0,B|104:48|184:48|232:80,1,160
272,160,2084,2,0,B|232:186|152:186|120:154,1,160
120,154,3002,1,2
288,248,3614,6,0,B|319:216|399:216|439:242,1,160
400,328,4533,2,0,B|360:354|280:354|248:322,1,160
248,322,5451,1,2
88,120,6063,6,0,B|111:80|165:78,1,80
248,56,6676,1,0
344,72,6982,1,0
424,120,7288,1,0
456,208,7594,1,0
432,304,7900,1,0
344,344,8206,1,0
248,352,8512,6,0,B|200:360|171:330,1,80
104,272,9125,1,0
88,176,9431,1,0
128,88,9737,1,0
224,64,10043,1,0
320,72,10349,1,0
320,72,10502,1,0
320,72,10655,1,0
368,152,10961,6,0,B|395:124|443:140,2,80,4|0|0
272,128,11880,2,0,B|232:88|144:88|104:144,1,160
40,160,12798,1,2
120,216,13104,5,0
120,216,13257,1,0
120,216,13410,1,0
152,304,13717,2,0,B|176:344|248:320,1,80
280,248,14329,2,0,B|248:208|184:232,2,80
336,328,15247,2,0,B|360:320|376:288,1,40,2|0
384,160,15859,6,0,B|422:162|454:126,2,80
384,64,16778,2,0,B|336:48|264:64|240:128,1,160
216,208,17696,2,0,B|192:256|225:290,1,80,2|0
296,344,18308,5,0
384,312,18614,1,0
432,224,18921,1,0
416,128,19227,1,0
352,56,19533,1,0
256,48,19839,1,0
160,64,20145,1,0
96,136,20451,1,0
120,232,20757,6,0,B|79:271|127:319,2,80
208,280,21676,2,0,B|232:320|205:355,2,80
208,184,22594,1,2
288,232,22900,5,0
288,232,23053,1,0
288,232,23206,1,0
360,312,23512,2,0,B|408:328|448:256,1,80
376,200,24125,2,0,B|328:184|288:256,1,80
264,312,24737,1,0
192,256,25043,2,0,B|168:248|152:264,1,40,2|0
160,120,25655,6,0,B|123:77|83:83,2,80
152,216,26574,2,0,B|243:225|267:129,1,160
336,192,27492,2,0,B|373:182|389:206,3,53.3333333333333
136,96,33921,6,0,B|104:64|56:48,2,80,0|0|0
216,144,34839,1,0
136,192,35145,1,0
136,288,35451,2,0,B|168:384|272:392|368:360,1,240,0|0
416,312,36676,2,0,B|473:317|497:253,1,80,0|0
424,208,37288,2,0,B|367:203|343:267,1,80,0|0
355,241,37900,1,4
376,96,38819,6,0,B|392:48|448:49,2,80,0|0|0
440,168,39737,1,0
344,192,40043,1,0
408,264,40349,2,0,B|324:346|183:309,1,240
152,216,41574,2,0,B|184:176|240:200,1,80
320,192,42186,2,0,B|368:200|408:144,2,80,0|0|4
248,88,43104,5,0
168,32,43410,1,0
168,128,43717,1,0
88,88,44023,1,4
48,176,44329,1,0
48,176,44482,1,0
48,176,44635,2,0,B|32:224|64:264,1,80
80,296,45094,5,0
120,328,45247,1,4
168,248,45553,1,0
216,328,45859,1,0
264,248,46165,1,0
328,320,46472,2,0,B|376:344|424:312,1,80,4|0
448,240,47084,2,0,B|400:216|352:248,1,80
280,224,47696,1,0
336,96,48002,5,0
336,96,48308,1,0
336,96,48614,2,0,B|256:56|152:96,1,160
120,160,49533,2,0,B|152:200|216:200,1,80
288,192,50145,5,0
384,184,50451,1,0
408,272,50757,1,0
312,288,51063,2,0,B|264:312|208:280,1,80
234,292,51676,1,0
144,328,51982,1,0
152,232,52288,1,0
152,232,52441,1,0
152,232,52594,1,4
376,288,53512,6,0,B|408:320|456:336,2,80
296,240,54431,1,2
376,192,54737,1,0
392,96,55043,2,0,B|448:88|472:120,2,80,0|0|2
296,136,55961,2,0,B|240:144|216:112,2,80
296,136,56880,5,2
392,136,57186,1,0
392,136,57339,1,0
392,136,57492,1,4
424,224,57798,2,0,B|368:248|328:216,1,80,0|2
240,296,58410,6,0,B|210:334|168:343,2,80,0|0|0
200,208,59329,1,2
136,280,59635,1,0
104,192,59941,2,0,B|104:144|160:112,2,80,0|0|2
200,208,60859,2,0,B|200:256|144:288,2,80
264,144,61778,1,2
176,112,62084,1,0
176,112,62237,1,0
176,112,62390,1,4
264,208,62696,5,0
288,304,63002,1,2
360,240,63308,1,0
384,336,63614,1,4
456,272,63921,1,0
456,272,64074,1,0
456,272,64227,1,2
440,176,64533,1,0
344,160,64839,5,4
400,80,65145,1,0
304,72,65451,1,2
208,72,65757,1,0
208,72,66063,2,0,B|160:48|112:80,1,80,4|0
96,160,66676,2,0,B|144:184|192:152,1,80,2|0
224,160,67135,1,0
200,200,67288,5,0
152,280,67594,1,0
240,304,67900,1,2
336,304,68206,2,0,B|373:334|409:305,2,80
392,224,69125,2,0,B|360:184|296:184,1,80,2|0
224,192,69737,5,0
128,200,70043,1,0
104,112,70349,1,2
200,96,70655,2,0,B|248:72|304:104,1,80
277,91,71268,1,0
368,56,71574,1,4
280,16,71880,5,0
184,16,72186,2,0,B|136:8|88:40,1,80
64,112,72798,1,2
80,208,73104,1,0
80,208,73257,2,0,B|104:272|200:296,1,120
264,320,74023,1,2
264,320,74329,1,0
360,320,74635,6,0,B|400:352|448:312,1,80
496,248,75247,1,2
400,248,75553,2,0,B|368:232|344:264,2,40
448,160,76165,1,0
432,64,76472,1,2
352,120,76778,5,0
352,120,76931,1,0
352,120,77084,1,4
264,80,77390,2,0,B|224:56|184:80,1,80,0|2
112,128,78002,1,0
152,160,78155,2,0,B|184:184|240:184|280:152,1,120
272,256,78921,1,0
176,256,79227,1,0
224,336,79533,5,0
320,336,79839,1,0
416,336,80145,1,2
456,248,80451,2,0,B|480:232|520:264,2,40
392,176,81063,1,0
336,248,81370,1,2
336,128,81676,5,0
336,128,81829,1,0
336,128,81982,2,0,B|304:72|240:72,1,80,4|0
192,32,82594,1,2
104,72,82900,1,0
56,72,83053,1,0
80,112,83206,1,0
40,200,83512,2,0,B|56:256|120:280,2,80,0|2|0
128,160,84431,5,0
216,200,84737,2,0,B|200:256|136:280,1,80,0|2
169,263,85349,1,0
169,263,85502,1,0
169,263,85655,1,0
120,344,85961,1,0
216,344,86268,1,0
272,264,86574,5,0
272,264,86727,1,0
272,264,86880,1,4
368,264,87186,2,0,B|408:288|448:264,1,80,0|2
480,176,87798,2,0,B|424:152|376:200,1,80
404,179,88410,1,0
360,96,88717,2,0,B|304:72|256:120,2,80,2|0|0
312,176,89635,5,0
216,176,89941,1,0
264,264,90247,1,0
168,264,90553,1,0
120,344,90859,1,0
64,264,91165,1,2
336,256,94227,6,0,B|312:304|240:296,1,80,4|0
200,232,94839,2,0,B|230:195|271:202,2,80,8|0|0
200,328,95757,2,0,B|160:336|120:296,2,80,0|8|0
200,232,96676,2,0,B|208:192|168:152,2,80,0|0|8
200,232,97594,2,0,B|194:272|231:302,1,80
312,256,98206,2,0,B|347:307|406:298,2,80,0|8|0
256,184,99125,6,0,B|288:136|360:144,2,80,0|0|8
248,280,100043,2,0,B|214:301|172:269,2,80
256,184,100961,1,8
160,184,101268,1,0
208,104,101574,1,0
288,56,101880,1,0
312,96,102033,1,0
360,96,102186,2,0,B|400:80|432:128,1,80,8|0
428,122,102798,2,0,B|451:173|427:226,2,80,0|0|8
328,216,103717,5,0
304,256,103870,1,0
272,288,104023,2,0,B|222:334|182:326,2,80,0|0|8
232,152,104941,1,0
184,168,105094,1,0
144,200,105247,2,0,B|101:232|90:287,2,80,0|0|8
248,112,106165,6,0,B|271:83|329:59,1,80
408,80,106778,2,0,B|462:111|462:176,1,80,0|8
376,208,107390,1,0
376,208,107696,1,0
336,296,108002,1,0
336,296,108155,1,0
336,296,108308,1,8
240,296,108614,5,0
240,296,108768,1,0
240,296,108921,2,0,B|144:312|80:248,1,160,0|8
64,168,109839,1,0
80,72,110145,2,0,B|110:46|171:32,1,80
152,136,110757,2,0,B|202:162|241:154,1,80,8|0
232,56,111370,6,0,B|288:58|318:84,1,80,0|0
400,112,111982,1,8
448,192,112288,1,0
424,288,112594,1,0
336,336,112900,1,0
288,336,113053,1,0
240,336,113206,1,0
144,312,113512,1,0
96,232,113819,6,0,B|96:168|136:152,2,80,4|0|8
184,192,114737,2,0,B|216:240|264:224,2,80
224,104,115655,2,0,B|240:72|320:72,1,80,8|0
392,64,116268,2,0,B|424:112|400:176,1,80
409,140,116880,2,0,B|361:140|313:172,1,80,8|0
332,160,117492,1,0
332,160,117645,1,0
332,160,117798,1,0
240,168,118104,2,0,B|192:136|144:184,1,80,8|0
208,248,118717,6,0,B|176:272|144:264|128:256|112:240,2,80,0|0|8
208,248,119635,1,0
304,232,119941,1,0
304,232,120094,1,0
304,232,120247,1,0
368,304,120553,2,0,B|400:336|464:336,2,80,8|0|0
304,232,121472,5,0
256,248,121625,1,0
272,200,121778,2,0,B|232:176|240:120,1,80,8|0
208,48,122390,2,0,B|164:40|132:56|116:72,2,80,0|0|8
304,48,123308,5,0
304,48,123461,1,0
304,48,123614,2,0,B|354:42|371:59|388:87,2,80,0|0|8
232,112,124533,1,0
232,112,124686,1,0
232,112,124839,2,0,B|175:120|140:156,2,80,0|0|8
344,128,125757,5,0
280,56,126063,1,0
184,72,126370,1,0
144,160,126676,1,8
144,256,126982,1,0
144,256,127288,1,0
208,328,127594,1,0
208,328,127747,1,0
208,328,127900,1,8
336,312,128206,6,0,B|368:344|336:376,2,40
240,312,128819,1,0
208,224,129125,1,8
240,136,129431,1,0
328,168,129737,2,0,B|312:208|328:248,1,80
408,200,130349,2,0,B|424:240|408:280,2,80,8|0|0
456,120,131268,5,0
360,120,131574,1,8
288,184,131880,1,0
288,184,132033,1,0
288,184,132186,1,0
312,280,132492,1,0
312,280,132798,1,0
384,216,133104,5,0
360,120,133410,1,4
272,88,133717,2,0,B|240:64|208:64|176:88,1,80,0|8
208,168,134329,2,0,B|197:179|165:179|134:156,1,80
136,64,134941,1,0
136,64,135094,1,0
136,64,135247,2,0,B|72:48|32:80,1,80,8|0
32,104,135706,1,0
40,152,135859,5,0
40,248,136165,2,0,B|28:258|28:290|56:320,1,80,0|8
136,272,136778,2,0,B|159:302|159:334|147:345,1,80
232,296,137390,1,0
248,200,137696,1,8
320,264,138002,1,0
360,232,138155,1,0
392,192,138308,5,0
376,96,138614,1,0
288,56,138921,1,0
192,56,139227,1,0
104,96,139533,1,0
80,192,139839,1,0
80,240,139992,2,0,B|96:328|176:328,1,120
256,192,140757,12,2,142594
144,88,143206,6,0,B|64:88,2,80,0|0|8
336,88,144431,2,0,B|424:88,2,80,0|0|8
176,192,145655,6,0,B|96:192,4,80,0|0|8|0|0
272,192,147186,1,0
368,192,147492,1,8
272,360,148104,6,0,B|184:360,1,80
216,264,148717,2,0,B|136:264,1,80,8|0
160,168,149329,2,0,B|80:168,2,80,0|0|8
328,80,150553,6,0,B|416:80,1,80
360,160,151165,2,0,B|272:160,1,80,8|0
360,160,151778,2,0,B|440:160,1,80
440,160,152390,1,8
384,336,153002,5,0
288,336,153308,2,0,B|208:336,1,80,0|8
72,200,154227,2,0,B|160:200,1,80
248,200,154839,1,8
424,128,155451,6,0,B|504:128,1,80
424,72,156063,2,0,B|328:72,1,80,8|0
264,128,156676,2,0,B|184:128,1,80
88,128,157288,1,8
216,264,157900,6,0,B|312:264,1,80
304,360,158512,2,0,B|384:360,1,80,8|0
376,264,159125,2,0,B|456:264,1,80
456,264,159737,1,8
312,136,160349,6,0,B|232:136,1,80
264,48,160961,2,0,B|176:48,1,80,8|0
112,112,161574,5,0
112,136,161727,1,0
112,160,161880,1,0
112,184,162033,1,0
112,208,162186,1,0
112,232,162339,1,0
112,256,162492,1,0
112,280,162645,1,0
160,280,162798,6,0,B|248:280,2,80,4|0|8
328,192,164023,2,0,B|248:192,2,80,0|0|8
176,80,165247,6,0,B|256:80,2,80,0|0|8
80,80,166165,1,0
104,176,166472,2,0,B|16:176,2,80,0|0|8
296,176,167696,6,0,B|384:176,2,80,0|0|8
200,176,168614,1,0
232,264,168921,2,0,B|128:264,2,80,0|0|8
424,264,170145,6,0,B|344:264,1,80
288,344,170757,1,8
192,344,171063,1,0
240,264,171370,1,0
240,264,171523,1,0
240,168,171829,1,0
240,144,171982,1,0
240,120,172135,1,0
336,120,172594,6,0,B|424:120,1,80,4|0
416,120,173206,1,8
472,304,173819,2,0,B|392:304,1,80
296,304,174431,1,8
104,304,175043,6,0,B|24:304,2,80,0|0|8
200,304,175961,1,0
151,220,176268,2,0,B|151:193,12,26.6666666666667
56,216,177798,1,0
72,120,178104,1,8
256,72,178717,2,0,B|344:72,1,80
432,72,179329,1,8
360,248,179941,6,0,B|448:248,1,80
360,248,180553,2,0,B|272:248,1,80
184,248,181165,1,0
184,248,181319,1,0
184,248,181472,1,0
88,248,181778,1,0
88,248,181931,1,0
88,248,182084,1,0
136,168,182390,1,4
256,192,201982,12,2,204431
416,320,205961,5,0
464,240,206268,1,0
368,240,206574,1,0
304,312,206880,6,0,B|240:352|128:344,1,160,4|8
80,280,207798,2,0,B|110:243|151:250,1,80
224,192,208410,2,0,B|191:158|151:166,2,80,0|8|0
224,288,209329,2,0,B|264:296|304:256,2,80,0|0|8
128,288,210247,2,0,B|91:258|97:218,1,80
96,120,210859,2,0,B|103:73|141:58,2,80,0|8|0
168,184,211778,5,0
264,184,212084,1,0
264,184,212390,2,0,B|352:184,1,80,8|0
432,224,213002,2,0,B|448:168|424:128,1,80
392,56,213614,1,8
328,128,213921,1,0
264,56,214227,5,0
168,56,214533,1,0
168,56,214839,1,0
168,56,215145,2,0,B|96:56,2,40
264,56,215757,1,0
216,136,216063,1,8
216,264,216370,5,0
216,264,216523,1,0
216,264,216676,2,0,B|166:310|126:302,2,80,0|0|8
312,264,217594,1,0
312,264,217747,1,0
312,264,217900,2,0,B|364:250|394:203,2,80,0|0|8
264,184,218819,6,0,B|241:155|183:131,1,80
104,160,219431,2,0,B|50:191|50:256,1,80,0|8
120,296,220043,1,0
120,296,220349,1,0
200,352,220655,1,0
200,352,220808,1,0
200,352,220961,1,8
264,280,221268,5,0
264,280,221421,1,0
264,280,221574,2,0,B|317:334|413:318,1,160,0|8
488,264,222492,1,0
408,216,222798,2,0,B|378:190|317:176,1,80
260,161,223410,2,0,B|310:187|349:179,1,80,8|0
400,112,224023,5,0
320,56,224329,1,0
224,48,224635,1,8
128,72,224941,1,0
80,160,225247,1,0
120,248,225553,1,0
144,288,225706,1,0
184,312,225859,1,0
280,312,226165,1,0
376,304,226472,6,0,B|432:288|456:240,2,80,4|0|8
280,312,227390,2,0,B|224:296|200:256,2,80
280,216,228308,2,0,B|296:184|376:184,1,80,8|0
280,216,228921,2,0,B|264:184|184:184,1,80,0|0
176,96,229533,2,0,B|120:120|120:168,1,80,8|0
120,248,230145,1,0
120,248,230298,1,0
120,248,230451,1,0
176,328,230757,2,0,B|202:358|250:326,1,80,8|0
232,232,231370,6,0,B|264:208|296:216|312:224|328:240,2,80,0|0|8
136,232,232288,1,0
88,152,232594,1,0
88,152,232747,1,0
88,152,232900,1,0
136,72,233206,2,0,B|168:40|232:40,2,80,8|0|0
184,152,234125,5,0
224,176,234278,1,0
224,128,234431,2,0,B|248:88|296:96,1,80,8|0
384,96,235043,2,0,B|428:88|460:104|476:120,2,80,0|0|8
384,192,235961,5,0
384,192,236114,1,0
384,192,236268,2,0,B|434:186|451:203|468:231,2,80,0|0|8
336,272,237186,1,0
336,272,237339,1,0
336,272,237492,2,0,B|279:280|244:316,2,80,0|0|8
336,176,238410,5,0
296,88,238717,1,0
208,56,239023,1,0
120,88,239329,1,8
72,176,239635,1,0
72,176,239788,1,0
72,176,239941,1,0
136,248,240247,2,0,B|136:296|168:336,1,80,0|8
256,304,240859,6,0,B|272:336|256:376,2,40
352,304,241472,1,0
304,224,241778,1,8
400,224,242084,1,0
464,152,242390,2,0,B|480:112|464:72,1,80
376,40,243002,2,0,B|360:80|376:120,1,80,8|0
400,208,243614,5,0
344,288,243921,1,0
296,208,244227,1,8
248,288,244533,1,0
248,288,244686,1,0
248,288,244839,1,0
152,296,245145,1,0
72,240,245451,1,2
72,144,245757,1,0
152,88,246063,5,4
248,64,246370,2,0,B|280:40|312:40|344:64,1,80,0|10
397,64,246982,2,0,B|386:75|354:75|323:52,1,80
320,144,247594,2,0,B|289:120|257:120|246:132,1,80,0|10
320,144,248206,2,0,B|351:120|383:120|394:132,1,80,0|0
401,227,248819,6,0,B|413:237|413:269|390:300,1,80,0|10
304,296,249431,2,0,B|281:266|281:234|293:223,1,80
352,144,250043,1,0
288,72,250349,1,10
224,144,250655,1,0
288,216,250961,6,0,B|304:240|304:272|280:296,2,80,0|0|10
200,264,251880,2,0,B|182:283|182:315|198:339,2,80
200,168,252798,1,10
112,208,253104,1,0
112,112,253410,5,0
200,72,253717,1,0
200,72,253870,2,0,B|240:40|288:40|328:64,1,120
360,56,254482,1,0
360,56,254635,2,0,B|408:40|448:80,2,80,0|0|10
304,136,255553,5,0
304,136,255706,1,0
304,136,255859,1,4
208,136,256165,2,0,B|168:136|144:160|128:192,1,80,0|10
208,240,256778,1,0
208,240,256931,1,0
208,240,257084,1,0
304,240,257390,2,0,B|344:240|368:264|384:296,1,80,0|10
304,344,258002,5,0
304,344,258155,1,0
304,344,258308,1,0
304,344,258614,2,0,B|263:327|240:298,1,80,0|10
152,264,259227,2,0,B|183:210|248:210,1,80
312,224,259839,1,0
272,136,260145,1,10
272,40,260451,5,0
272,40,260604,1,0
272,40,260757,1,0
176,40,261063,2,0,B|128:56|112:88,1,80,0|10
176,152,261676,2,0,B|142:189|144:225,1,80
192,304,262288,1,0
288,304,262594,2,0,B|328:296|368:264,1,80,10|0
312,192,263206,2,0,B|342:165|361:117,1,80
360,32,263819,5,10
440,88,264125,1,0
432,184,264431,1,0
392,272,264737,1,0
312,320,265043,1,2
216,320,265349,1,2
216,320,265502,1,0
216,320,265655,1,4
160,240,265961,5,0
120,152,266268,2,0,B|80:96|120:56,1,80,10|0
192,40,266880,1,0
280,80,267186,2,0,B|304:98|264:154,2,80,0|10|0
280,80,268104,6,0,B|312:40|376:48,1,80
400,128,268717,2,0,B|448:104|499:148,1,80,10|0
400,192,269329,1,0
320,248,269635,1,0
400,296,269941,1,10
320,352,270247,1,0
320,352,270400,1,0
320,352,270553,1,0
232,296,270859,5,0
232,296,271165,2,0,B|208:328|168:320|152:312|136:288,2,80,10|0|0
232,296,272084,2,0,B|256:264|296:272|312:280|328:304,2,80,0|10|0
232,200,273002,5,0
232,200,273308,2,0,B|232:96,1,80,0|10
312,64,273921,1,0
232,16,274227,1,0
152,64,274533,1,0
232,120,274839,1,10
232,216,275145,1,0
232,216,275298,1,0
232,216,275451,1,0
176,288,275757,5,0
176,288,276063,2,0,B|126:293|109:276|92:248,2,80,10|0|0
264,320,276982,1,0
264,320,277288,2,0,B|321:328|356:364,2,80,10|0|0
184,264,278206,5,0
272,232,278512,1,10
352,176,278819,1,0
272,120,279125,1,0
272,24,279431,1,0
192,72,279737,1,10
112,120,280043,1,0
112,120,280196,1,0
112,120,280349,5,0
96,216,280655,1,0
144,296,280961,1,0
232,328,281268,1,0
328,328,281574,1,0
416,288,281880,1,0
432,192,282186,1,0
392,104,282492,1,0
256,192,282798,12,4,285247
