osu file format v9

[General]
AudioFilename: uta ni katachi wa nai keredo.mp3
AudioLeadIn: 0
PreviewTime: 96734
Countdown: 0
SampleSet: Soft
StackLeniency: 0.4
Mode: 0
LetterboxInBreaks: 0
StoryFireInFront: 0
EpilepsyWarning: 1

[Editor]
Bookmarks: 4897,36734,75918,97959,137142,176326,198061
DistanceSpacing: 1
BeatDivisor: 4
GridSize: 8

[Metadata]
Title:Uta ni Katachi wa nai Keredo
Artist:Hatsune Miku
Creator:JoJo
Version:Hard
Source:Vocaloid
Tags:vocaloid2 doriko sorda s_o_r_d_a kanpakyin kodomonoyume kayesara joshua lost

[Difficulty]
HPDrainRate:6
CircleSize:4
OverallDifficulty:7
ApproachRate:7
SliderMultiplier:1.5
SliderTickRate:0.5

[Events]
//Background and Video events
0,0,"BG.jpg"
//Break Periods
2,34485,36753
//Storyboard Layer 0 (Background)
Sprite,Background,Centre,"BG.jpg",320,240 S,0,0,,0.625 F,0,200000,200300,1,0
Sprite,Background,Centre,"SB\BG_Scale.jpg",320,240 F,0,117551,118163,1,0 S,0,117551,118163,0.99364,1.23056 F,0,137142,137755,1,0 S,0,137142,137755,0.9936401,1.25104
Sprite,Background,Centre,"SB\BG_Flash.jpg",320,240 F,0,14540,14693,0,1 F,0,15918,20816,1,0 F,0,75765,75918,0,1 F,0,75918,77142,1,0 F,0,97806,97959,0,1 F,0,97959,99183,1,0 F,0,136989,137142,0,1 F,0,137142,138367,1,0 F,0,141887,142040,0,1 F,0,142040,143265,1,0
Sprite,Background,Centre,"SB\BG_Foggy.jpg",320,240 F,0,4744,4897,0,1 F,0,4897,6122,1,0 F,0,24336,24489,0,1 F,0,24489,25714,1,0 F,0,99030,99183,0,1 F,0,99183,100408,1,0 F,0,107602,107755,0,1 F,0,107755,108979,1,0 F,0,118622,118775,0,1 F,0,118775,120000,1,0 F,0,127193,127346,0,1 F,0,127346,128571,1,0 F,0,138214,138367,0,1 F,0,138367,139591,1,0 F,0,143112,143265,0,1 F,0,143265,144489,1,0 F,0,146785,146938,0,1 F,0,146938,148163,1,0 F,0,156581,156734,0,1 F,0,156734,157959,1,0 F,0,161479,161632,0,1 F,0,161632,162857,1,0 F,0,166377,166530,0,1 F,0,166530,167755,1,0
//Storyboard Layer 1 (Fail)
//Storyboard Layer 2 (Pass)
//Storyboard Layer 3 (Foreground)
Sprite,Foreground,Centre,"SB\Flashball.png",320,240 S,0,97959,,2.16736 F,0,97959,99183,0,1 M,0,97959,171428,272,227 R,0,97959,171428,0,-26.17344 F,0,170204,171428,1,0
Sprite,Foreground,Centre,"SB\Star.png",320,240 F,0,171428,172040,0,1 M,2,171428,173877,598,161,219,14 R,2,171428,173877,0,-8.74 S,0,172653,173877,1,0.1 F,0,173724,173877,1,0
Sprite,Foreground,Centre,"SB\a01.png",320,240 F,0,37959,39183,0,1 M,0,37959,46530,551,168,551,210 F,0,45306,46530,1,0
Sprite,Foreground,Centre,"SB\a02.png",320,240 F,0,46530,47755,0,1 M,0,46530,52653,503,313,503,287 F,0,51428,52653,1,0
Sprite,Foreground,Centre,"SB\a03.png",320,240 F,0,51428,52653,0,1 M,0,51428,57551,551,129,552,167 F,0,55102,57551,1,0
Sprite,Foreground,Centre,"SB\b01.png",320,240 F,0,57551,58775,0,1 M,0,57551,62449,551,355,551,324 F,0,61224,62449,1,0
Sprite,Foreground,Centre,"SB\b02.png",320,240 F,0,61224,62449,0,1 M,0,61224,67346,502,119,503,157 F,0,66122,67346,1,0
Sprite,Foreground,Centre,"SB\b03.png",320,240 F,0,66122,67346,0,1 M,0,66122,71020,551,317,551,292 F,0,69795,71020,1,0
Sprite,Foreground,Centre,"SB\b04.png",320,240 F,0,69795,71020,0,1 M,0,69795,75918,503,147,504,173 F,0,73469,75918,1,0
Sprite,Foreground,Centre,"SB\c01.png",320,240 F,0,75918,77142,0,1 M,0,75918,80816,552,211,551,236 F,0,79591,80816,1,0
Sprite,Foreground,Centre,"SB\c02.png",320,240 F,0,79591,80816,0,1 M,0,79591,85714,503,292,503,270 F,0,84489,85714,1,0
Sprite,Foreground,Centre,"SB\c03.png",320,240 F,0,84489,85714,0,1 M,0,84489,90612,551,211,551,237 F,0,89387,90612,1,0
Sprite,Foreground,Centre,"SB\c04.png",320,240 F,0,89387,90612,0,1 M,0,89387,96734,503,345,503,318 F,0,94285,96734,1,0
Sprite,Foreground,Centre,"SB\d01.png",320,240 F,0,96734,97959,0,1 M,0,96734,102857,551,85,551,112 F,0,101632,102857,1,0
Sprite,Foreground,Centre,"SB\d01.png",551,89 F,0,97959,98571,1,0 S,0,97959,98571,1,3
Sprite,Foreground,Centre,"SB\d02.png",320,240 F,0,99183,100408,0,1 M,0,99183,105306,503,317,503,289 F,0,104081,105306,1,0
Sprite,Foreground,Centre,"SB\d03.png",320,240 F,0,104081,105306,0,1 M,0,104081,112653,551,214,550,244 F,0,111428,112653,1,0
Sprite,Foreground,Centre,"SB\d04.png",320,240 F,0,111428,112653,0,1 M,0,111428,117551,503,368,503,334 F,0,116326,117551,1,0
Sprite,Foreground,Centre,"SB\e01.png",320,240 F,0,116326,117551,0,1 M,0,116326,122449,551,110,551,142 F,0,121224,122449,1,0
Sprite,Foreground,Centre,"SB\e01.png",551,115 F,0,117551,118163,1,0 S,0,117551,118163,1,2.5
Sprite,Foreground,Centre,"SB\e02.png",320,240 F,0,118775,120000,0,1 M,0,118775,127346,503,270,503,229 F,0,126122,127346,1,0
Sprite,Foreground,Centre,"SB\e03.png",320,240 F,0,126122,127346,0,1 M,0,126122,132244,551,176,551,209 F,0,131020,132244,1,0
Sprite,Foreground,Centre,"SB\e04.png",320,240 F,0,131020,132244,0,1 M,0,131020,137142,503,342,503,304 F,0,135918,137142,1,0
Sprite,Foreground,Centre,"SB\f01.png",320,240 F,0,135918,137142,0,1 M,0,135918,144489,551,163,551,203 F,0,143265,144489,1,0
Sprite,Foreground,Centre,"SB\f01.png",551,168 F,0,137142,137755,1,0 S,0,137142,137755,1,2.34
Sprite,Foreground,Centre,"SB\f02.png",320,240 F,0,143265,144489,0,1 M,0,143265,151836,503,269,502,242 S,0,143265,151836,0.86 F,0,150612,151836,1,0
Sprite,Foreground,Centre,"SB\f03.png",320,240 F,0,150612,151836,0,1 M,0,150612,157959,551,145,551,178 F,0,155510,157959,1,0
Sprite,Foreground,Centre,"SB\g01.png",320,240 F,0,156734,157959,0,1 M,0,156734,162857,503,327,503,300 F,0,161632,162857,1,0
Sprite,Foreground,Centre,"SB\g02.png",320,240 F,0,161632,162857,0,1 M,0,161632,167755,551,147,551,173 F,0,166530,167755,1,0
Sprite,Foreground,Centre,"SB\g03.png",320,240 F,0,166530,167755,0,1 M,0,166530,176326,503,349,503,308 F,0,173877,176326,1,0
Sprite,Foreground,Centre,"SB\g04.png",320,240 F,0,170204,171428,0,1 M,0,170204,176326,551,140,551,169 F,0,173877,176326,1,0
Sprite,Foreground,Centre,"SB\title.png",320,240 F,0,4897,6122,0,1 M,0,4897,13469,530,184,530,222 F,0,12244,13469,1,0
Sprite,Foreground,Centre,"SB\artist.png",320,240 F,0,7346,8571,0,1 M,0,7346,13469,475,353,475,335 F,0,12244,13469,1,0
Sprite,Foreground,Centre,"SB\Feather_1.png",320,240 M,0,137142,146938,446,-51,147,556 R,0,137142,146938,0,-8.4 M,0,147551,156734,568,-77,341,557 R,0,147551,156734,-8.4,-15
Sprite,Foreground,Centre,"SB\Feather_2.png",320,240 M,0,137142,150612,196,-38,-25,510 R,0,137142,150612,0.3,-9.1 M,0,151224,160408,159,-53,-54,412 R,0,151224,160408,-9.1,-15.5
Sprite,Foreground,Centre,"SB\Feather_3.png",320,240 M,0,137142,151836,537,-40,393,517 R,0,137142,151836,0,-7.7
Sprite,Foreground,Centre,"SB\Feather_4.png",320,240 M,0,143265,157959,342,-39,204,519 R,0,143265,157959,0,-11.8
//Storyboard Sound Samples
//Background Colour Transformations
3,100,113,187,255

[TimingPoints]
2449,612.244897959184,4,2,1,20,1,0
5357,-100,4,2,2,20,0,0
5663,-100,4,2,1,20,0,0
6581,-100,4,2,2,20,0,0
6887,-100,4,2,1,25,0,0
7806,-100,4,2,2,25,0,0
8112,-100,4,2,1,25,0,0
10255,-100,4,2,2,25,0,0
10561,-100,4,2,1,25,0,0
11479,-100,4,2,2,25,0,0
11785,-100,4,2,1,25,0,0
12091,-100,4,2,1,40,0,0
37346,-100,4,2,2,25,0,0
73316,-100,4,2,1,40,0,0
75918,-80,4,2,1,40,0,0
97959,-80,4,2,1,40,0,1
137066,-80,4,2,1,40,0,0
137142,-66.6666666666667,4,2,1,40,0,1
171428,-100,4,2,1,40,0,0
176020,-100,4,2,2,40,0,0
186887,-100,4,2,2,25,0,0
187806,-100,4,2,2,40,0,0
189336,-100,4,2,2,25,0,0
190255,-100,4,2,2,40,0,0
193010,-100,4,2,2,25,0,0
193469,-100,4,2,2,40,0,0
194081,-100,4,2,1,25,0,0
195918,-100,4,2,1,10,0,0
197755,-100,4,2,1,5,0,0

[Colours]
Combo1 : 190,142,255
Combo2 : 32,177,255
Combo3 : 0,117,162
SliderBorder : 255,255,255

[HitObjects]
145,72,4897,2,0,B|158:153|89:214,1,150,4|2
66,138,5816,2,0,B|145:130|224:176|268:265,1,225,0|2
397,279,7346,6,0,B|337:222|341:144,1,150,0|2
413,166,8265,2,0,B|353:253|261:277|195:279|196:279,1,225,0|8
99,192,9795,6,0,B|120:153|156:136,1,75,0|0
215,101,10408,1,2
280,138,10714,1,0
281,212,11020,1,0
215,249,11326,1,0
148,214,11632,1,2
149,139,11938,1,0
214,101,12244,6,0,B|228:153|266:178,1,75,2|0
311,121,12857,1,8
320,195,13163,1,0
293,265,13469,2,4,B|255:284,1,37.5,12|4
161,227,14081,2,4,B|200:212,1,37.5,12|4
446,285,14693,6,0,B|456:248|435:213,2,75,4|0|8
375,258,15612,2,0,B|317:319|224:325,1,150,4|0
170,304,16530,1,8
222,250,16836,1,0
222,250,16989,1,0
222,250,17142,5,4
222,174,17449,2,0,B|268:174|293:220,1,75,0|8
305,280,18061,2,0,B|337:208|415:185,1,150,2|0
412,110,18979,2,0,B|456:99,1,37.5,8|0
142,119,19591,6,0,B|66:135,2,75,4|0|8
170,49,20510,2,0,B|226:72|229:145|192:177,1,150,0|0
140,225,21428,2,0,B|169:258|221:246,1,75,8|0
269,205,22040,5,4
329,249,22346,1,0
389,204,22653,1,8
389,129,22959,1,0
330,82,23265,1,0
270,127,23571,1,0
210,81,23877,1,8
152,128,24183,1,8
86,296,24489,6,0,B|125:264|189:277,2,75,4|0|8
121,229,25408,2,0,B|201:244|263:197,1,150,0|2
312,140,26326,1,8
340,209,26632,1,0
340,209,26785,1,0
340,209,26938,5,4
317,280,27244,2,0,B|340:247|382:251,1,75,0|8
439,300,27857,2,0,B|466:265|448:220|448:220|476:201|473:164,1,150
461,88,28775,2,0,B|451:38,1,37.5,8|0
87,292,29387,6,0,B|106:331|147:327,1,75,4|0
154,253,30000,1,8
153,253,30306,2,0,B|184:252|183:232|183:232|238:228|282:190,1,150
256,192,31224,12,8,33673
256,192,34285,5,4
369,81,37653,6,0,B|344:46|305:37,2,75,0|0|0
417,138,38571,1,0
343,152,38877,1,0
391,208,39183,6,0,B|356:238|312:220|312:220|276:249|232:222|232:222|220:248|188:253,1,225,2|0
170,180,40408,2,0,B|133:162|133:162|131:186|97:138|97:138|83:156|73:96|73:96|54:114|64:37,1,225
134,13,41632,5,2
358,35,42551,2,0,B|313:31|285:59,2,75
343,108,43469,1,0
331,182,43775,1,0
386,231,44081,6,0,B|342:251|312:287|312:287|315:264|315:264|272:299|216:308,1,225,2|0
141,310,45306,2,0,B|81:310|81:310|81:318|81:318|81:302|81:302|81:310|81:310|23:310,2,150,0|0|2
256,72,46836,5,0
317,115,47142,1,0
248,147,47449,2,0,B|262:193|232:220,1,75,0|2
177,169,48061,1,0
177,169,48214,2,0,B|118:178|76:222,1,112.5
139,263,48979,6,0,B|95:289|83:338,2,75,2|0|0
170,330,49897,1,0
170,330,50204,2,0,B|186:322|186:322|202:330|202:330|218:322|218:322|234:330|234:330|250:322|250:322|266:330|266:330|282:322|282:322|298:330|298:330|314:322|314:322|330:330|330:330|346:322|346:322|362:330|362:330|378:322|378:322|394:330|394:330|410:322|410:322|426:330|426:330|442:322,1,300,2|2
328,48,51734,5,0
256,26,52040,1,0
184,47,52346,2,0,B|212:127|153:187,1,150
99,134,53265,1,0
82,207,53571,1,0
256,192,53877,12,2,56326
256,41,57244,5,0
286,109,57551,2,0,B|257:143|216:151,1,75
224,224,58163,2,0,B|252:262|296:266,1,75,8|0
292,189,58775,6,0,B|357:201|389:267|350:338|286:337,1,225,2|0
210,337,60000,2,0,B|135:324|84:258,1,150,0|8
131,201,60918,2,0,B|104:182|91:140,1,75,0|2
424,129,62142,6,0,B|399:159|403:199,2,75
395,59,63061,1,8
349,118,63367,1,0
317,49,63673,6,0,B|205:54|263:157|136:165,1,225,2|0
149,90,64897,2,0,B|208:135|222:223,1,150,0|0
148,237,65816,1,0
148,237,65969,1,0
148,237,66122,5,12
200,290,66428,2,0,B|165:317|163:361,2,75
242,351,67346,2,0,B|278:332|316:345,1,75,2|0
314,344,67806,2,0,B|362:305|362:248,1,112.5
355,56,68571,6,0,B|398:57|422:90,2,75,6|0|2
360,130,69489,1,0
428,161,69795,2,0,B|402:212|343:221|301:177,1,150,2|0
285,105,70714,1,0
255,81,70867,1,0
218,70,71020,6,0,B|169:132|86:143,1,150,6|0
56,209,71938,1,0
56,209,72091,1,0
56,209,72244,1,2
131,210,72551,2,0,B|140:251|180:265,2,75
256,192,73469,12,8,75306
338,158,75612,6,0,B|299:142|291:102,1,75,0|4
381,78,76224,1,0
434,154,76530,2,0,B|424:208|456:244|455:244,1,93.7499986030162,8|0
500,248,76989,2,0,B|426:233|359:275,1,140.624997904524
270,275,77755,2,0,B|263:222|309:192,1,93.7499986030162,8|0
303,100,78367,6,0,B|256:81|213:99,2,93.7499986030162,2|0|8
256,181,79285,1,0
256,181,79438,2,0,B|256:320,1,140.624997904524
175,273,80204,1,8
102,213,80510,1,0
102,213,80663,1,0
102,213,80816,6,0,B|134:171|185:179,2,93.7499986030162,2|0|8
47,136,81734,1,0
47,136,81887,2,0,B|98:83|174:86,1,140.624997904524
190,178,82653,2,0,B|243:169|258:119,1,93.7499986030162,8|0
474,194,83265,6,0,B|373:181|313:268,1,187.499997206032,2|8
255,341,84183,1,0
255,341,84336,1,0
255,341,84489,1,0
167,308,84795,2,0,B|169:260|210:229,1,93.7499986030162,0|8
304,227,85408,2,0,B|345:258|347:306,1,93.7499986030162,0|4
347,306,85867,5,0
347,306,86020,2,0,B|363:356|411:366,1,93.7499986030162,0|8
434,275,86632,1,0
434,275,86785,2,0,B|434:116,1,140.624997904524
414,42,87551,2,0,B|364:52|348:102,1,93.7499986030162,8|0
87,194,88163,6,0,B|93:244|140:268,2,93.7499986030162,2|0|8
173,192,89081,1,0
173,192,89234,2,0,B|312:192,1,140.624997904524
313,192,90000,1,8
362,271,90306,1,0
362,271,90459,1,0
362,271,90612,6,0,B|421:238|421:148|364:114,1,187.499997206032,4|8
303,43,91530,1,0
209,43,91836,1,0
129,92,92142,1,0
94,179,92449,1,8
109,271,92755,1,0
183,327,93061,6,0,B|231:321|256:275,1,93.7499986030162,2|0
329,326,93673,2,0,B|281:320|256:274,1,93.7499986030162,8|0
256,180,94285,1,8
256,180,94438,1,8
256,180,94591,1,4
256,86,94897,1,8
256,76,95051,1,8
256,66,95204,1,8
256,56,95357,1,8
256,46,95510,1,4
256,192,95663,12,8,96734
170,82,97040,5,0
257,48,97346,1,2
344,82,97653,1,0
346,175,97959,2,0,B|368:273|475:299,1,187.499997206032,4|8
394,350,98877,2,0,B|346:338|304:360,1,93.7499986030162
209,359,99489,2,0,B|166:336|118:348,2,93.7499986030162,0|8|0
257,225,100408,6,0,B|357:204|393:108,1,187.499997206032,0|8
361,20,101326,2,0,B|309:34|303:86,1,93.7499986030162
209,85,101938,2,0,B|203:33|152:19,2,93.7499986030162,0|8|0
188,317,102857,6,0,B|256:346|326:316,2,140.624997904524,4|2|0
102,278,104081,2,0,B|125:230|178:224,1,93.7499986030162
125,144,104693,2,0,B|171:116|218:143,1,93.7499986030162,8|0
256,56,105306,5,0
342,21,105612,1,0
342,21,105765,2,0,B|328:91|404:137,1,140.624997904524
446,219,106530,2,0,B|400:197|353:216,2,93.7499986030162,0|0|8
399,300,107449,1,0
353,310,107602,1,0
307,299,107755,6,0,B|296:248|243:240,2,93.7499986030162,4|0|8
220,334,108673,1,0
178,311,108826,1,0
155,270,108979,2,0,B|137:220|170:181,2,93.7499986030162,4|0|8
254,101,109897,6,0,B|278:58|327:46,1,93.7499986030162
254,101,110510,2,0,B|231:58|182:47,1,93.7499986030162,0|8
170,139,111122,1,0
170,139,111275,2,0,B|140:205|170:275,1,140.624997904524
256,312,112040,1,8
304,231,112346,1,0
257,223,112500,1,0
210,231,112653,6,0,B|200:131|108:84,1,187.499997206032,0|8
83,174,113571,1,0
67,266,113877,2,0,B|119:271|151:236,1,93.7499986030162
173,326,114489,2,0,B|219:305|237:261,1,93.7499986030162,8|0
237,166,115102,5,0
315,115,115408,1,0
393,166,115714,1,8
393,259,116020,1,0
316,313,116326,1,0
295,270,116479,1,0
261,236,116632,1,0
221,210,116785,1,0
176,194,116938,1,8
129,192,117091,1,0
83,202,117244,1,0
41,223,117397,1,0
79,250,117551,6,0,B|142:329|243:323,1,187.499997206032,4|8
302,250,118469,2,0,B|328:206|376:194,2,93.7499986030162
208,250,119387,2,0,B|182:206|134:194,1,93.7499986030162,8|0
135,194,120000,6,0,B|181:182|207:138,1,93.7499986030162
304,138,120612,2,0,B|330:182|377:194,1,93.7499986030162,8|0
300,248,121224,1,0
255,263,121377,1,0
210,248,121530,1,0
256,166,121836,2,0,B|256:73,1,93.7499986030162,8|0
46,256,122449,6,0,B|111:293|132:362,2,140.624997904524,4|2|0
113,191,123673,1,0
113,191,123826,1,0
113,191,123979,1,0
179,256,124285,2,0,B|200:208|247:197,2,93.7499986030162,8|0|0
266,289,125204,5,0
266,289,125357,2,0,B|328:247|400:272,1,140.624997904524
439,186,126122,2,0,B|488:204|528:179,2,93.7499986030162,0|0|8
345,175,127040,1,0
345,175,127193,1,0
345,175,127346,6,0,B|256:219|165:174,1,187.499997206032,4|8
125,259,128265,1,0
125,259,128418,1,0
125,259,128571,2,0,B|173:279|187:324,2,93.7499986030162,4|0|8
214,231,129489,1,0
257,248,129642,1,0
300,230,129795,5,0
256,146,130102,2,0,B|256:47,1,93.7499986030162,0|8
256,145,130714,1,0
256,154,130867,1,0
256,163,131020,2,0,B|256:266,2,93.7499986030162,0|0|8
176,113,131938,1,0
176,113,132091,1,0
176,113,132244,2,0,B|218:58|293:58|336:114,1,187.499997206032,0|8
308,204,133163,1,0
400,186,133469,2,0,B|432:222|432:272,1,93.7499986030162
339,289,134081,2,0,B|321:339|273:352,1,93.7499986030162,8|0
188,32,134693,5,0
102,89,135000,1,8
67,176,135306,1,0
78,274,135612,1,0
154,328,135918,1,0
177,287,136071,1,0
200,327,136224,1,0
224,287,136377,1,0
246,327,136530,1,8
272,288,136683,1,0
296,327,136836,1,0
321,287,136989,1,0
345,327,137142,6,0,B|405:330|442:279,1,112.499996647239,4|0
461,168,137755,2,0,B|404:156|371:102,1,112.499996647239,8|0
276,44,138367,1,0
270,99,138520,1,0
227,62,138673,1,0
202,171,138979,2,0,B|215:225|178:276,1,112.499996647239,8|0
95,200,139591,5,0
95,200,139897,2,0,B|37:180|28:118,2,112.499996647239,0|8|0
167,286,140816,1,0
191,235,140969,1,0
223,280,141122,1,0
333,300,141428,2,0,B|372:348|435:335,1,112.499996647239,8|0
411,224,142040,6,0,B|411:144|411:144|422:160|422:160|422:90,2,168.749994970858,4|2|0
311,170,143265,1,0
256,156,143418,1,0
201,169,143571,1,0
118,245,143877,2,0,B|138:302|200:315,1,112.499996647239,8|0
311,314,144489,6,0,B|372:301|392:244,1,112.499996647239,4|0
394,247,144949,2,0,B|422:158|360:91,1,168.749994970858,0|0
256,136,145714,2,0,B|257:259,2,112.499996647239,0|0|8
159,78,146632,1,0
159,78,146785,1,0
159,78,146938,6,0,B|66:147|184:204|90:275,1,224.999993294478,4|8
181,340,147857,1,0
181,340,148010,1,0
181,340,148163,2,0,B|224:301|285:311,2,112.499996647239,4|0|8
203,229,149081,1,0
203,229,149234,1,0
203,229,149387,6,0,B|264:234|308:196,2,112.499996647239,0|0|8
221,117,150306,1,0
257,73,150459,1,0
201,65,150612,1,0
106,4,150918,2,0,B|66:53|95:109,1,112.499996647239,0|8
10,183,151530,1,0
10,183,151683,1,0
10,183,151836,6,0,B|50:239|136:239|175:184|175:184|220:184,1,224.999993294478,0|8
321,184,152755,1,0
377,86,153061,2,0,B|430:116|430:180,1,112.499996647239
380,279,153673,2,0,B|317:263|280:311,1,112.499996647239,8|0
170,54,154285,5,0
342,54,154591,1,0
103,116,154897,1,8
409,116,155204,1,0
256,192,155510,12,4,156734
299,108,157040,6,0,B|184:108,2,112.499996647239,0|8|0
375,25,157959,2,0,B|420:64|409:126,1,112.499996647239
464,136,158418,2,0,B|463:225|394:283,1,168.749994970858
95,192,159183,6,0,B|208:192,2,112.499996647239,0|0|8
95,192,160102,1,0
153,95,160408,2,0,B|188:42|260:36|297:97|212:148|175:82|215:30|282:23,1,224.999993294478,0|8
351,96,161326,1,0
384,141,161479,1,0
327,144,161632,5,4
361,251,161938,1,0
251,223,162244,2,0,B|196:234|156:280,1,112.499996647239,8|0
207,304,162704,2,0,B|201:213|164:141,1,168.749994970858
203,36,163469,1,8
282,115,163775,1,0
334,95,163928,1,0
323,150,164081,6,0,B|335:207|386:239,2,112.499996647239,0|0|8
434,133,165000,2,0,B|492:92,2,56.2499983236194
365,43,165612,1,0
231,26,165918,1,8
85,87,166224,1,0
40,261,166530,5,4
129,193,166836,2,0,B|162:242|224:248,1,112.499996647239,0|8
124,303,167449,1,0
124,303,167602,2,0,B|202:349|288:325,1,168.749994970858
397,344,168367,2,0,B|412:284|361:241,1,112.499996647239,8|0
38,194,168979,5,0
107,105,169285,1,0
107,105,169438,1,0
107,105,169591,1,8
149,208,169897,1,0
203,306,170204,2,0,B|256:333|310:305,2,112.499996647239,0|0|8
177,196,171122,1,0
177,196,171275,1,0
177,196,171428,6,0,B|276:236|301:180|256:147|210:179|232:236|332:195,1,225,4|0
332,195,172500,1,0
407,111,172959,2,0,B|456:52,2,75
256,192,173877,12,8,175714
256,130,176326,6,0,B|256:204,2,75,2|0|8
319,89,177244,2,0,B|288:43|223:43|192:90,1,150
256,130,178163,1,8
255,204,178469,1,0
255,204,178622,1,0
255,204,178775,5,2
192,245,179081,2,0,B|171:277|169:314,1,75,0|8
239,342,179694,2,0,B|244:296|312:256|356:269,1,150
425,290,180612,2,0,B|460:325,1,50,8|0
86,128,181224,6,0,B|86:53,2,75,2|0|8
37,185,182143,2,0,B|83:222|144:201|158:148,1,150
230,167,183061,2,0,B|221:211|257:237,1,75,8|0
432,83,183673,5,2
288,39,183979,1,0
139,64,184286,1,8
36,173,184592,1,0
476,211,184897,5,0
373,320,185204,1,0
224,345,185510,1,8
80,301,185816,1,0
396,116,186122,6,0,B|491:117,2,75,2|0|8
351,55,187040,1,2
351,55,187193,1,2
280,81,187500,1,2
280,81,187653,1,2
337,128,187959,1,8
120,283,188265,6,0,B|68:284,2,37.5,2|0|0
185,318,188877,2,0,B|203:282|184:246,1,75,0|8
218,179,189489,1,2
218,179,189642,1,2
293,178,189949,1,2
293,178,190102,1,2
256,112,190408,2,0,B|256:56,1,50,8|0
52,168,191020,6,0,B|52:254,1,75,2|0
53,318,191633,1,8
53,318,191938,2,0,B|114:310|125:251|125:251|188:251,1,150
244,251,192857,2,0,B|314:251,2,56.25,8|2|2
256,192,193469,12,0,198061
