osu file format v9

[General]
AudioFilename: uta ni katachi wa nai keredo.mp3
AudioLeadIn: 0
PreviewTime: 96734
Countdown: 0
SampleSet: Soft
StackLeniency: 0.4
Mode: 0
LetterboxInBreaks: 0
StoryFireInFront: 0
EpilepsyWarning: 1

[Editor]
Bookmarks: 36734,75918,97959,137142,176326
DistanceSpacing: 1.5
BeatDivisor: 4
GridSize: 16

[Metadata]
Title:Uta ni Katachi wa nai Keredo
Artist:Hatsune Miku
Creator:JoJo
Version:Easy
Source:Vocaloid
Tags:vocaloid2 doriko sorda s_o_r_d_a kanpakyin kodomonoyume kayesara joshua lost

[Difficulty]
HPDrainRate:2
CircleSize:3
OverallDifficulty:2
ApproachRate:3
SliderMultiplier:1
SliderTickRate:0.5

[Events]
//Background and Video events
0,0,"BG.jpg"
//Break Periods
2,33873,36213
//Storyboard Layer 0 (Background)
Sprite,Background,Centre,"BG.jpg",320,240 S,0,0,,0.625 F,0,200000,200300,1,0
Sprite,Background,Centre,"SB\BG_Scale.jpg",320,240 F,0,117551,118163,1,0 S,0,117551,118163,0.99364,1.23056 F,0,137142,137755,1,0 S,0,137142,137755,0.9936401,1.25104
Sprite,Background,Centre,"SB\BG_Flash.jpg",320,240 F,0,14540,14693,0,1 F,0,15918,20816,1,0 F,0,75765,75918,0,1 F,0,75918,77142,1,0 F,0,97806,97959,0,1 F,0,97959,99183,1,0 F,0,136989,137142,0,1 F,0,137142,138367,1,0 F,0,141887,142040,0,1 F,0,142040,143265,1,0
Sprite,Background,Centre,"SB\BG_Foggy.jpg",320,240 F,0,4744,4897,0,1 F,0,4897,6122,1,0 F,0,24336,24489,0,1 F,0,24489,25714,1,0 F,0,99030,99183,0,1 F,0,99183,100408,1,0 F,0,107602,107755,0,1 F,0,107755,108979,1,0 F,0,118622,118775,0,1 F,0,118775,120000,1,0 F,0,127193,127346,0,1 F,0,127346,128571,1,0 F,0,138214,138367,0,1 F,0,138367,139591,1,0 F,0,143112,143265,0,1 F,0,143265,144489,1,0 F,0,146785,146938,0,1 F,0,146938,148163,1,0 F,0,156581,156734,0,1 F,0,156734,157959,1,0 F,0,161479,161632,0,1 F,0,161632,162857,1,0 F,0,166377,166530,0,1 F,0,166530,167755,1,0
//Storyboard Layer 1 (Fail)
//Storyboard Layer 2 (Pass)
//Storyboard Layer 3 (Foreground)
Sprite,Foreground,Centre,"SB\Flashball.png",320,240 S,0,97959,,2.16736 F,0,97959,99183,0,1 M,0,97959,171428,272,227 R,0,97959,171428,0,-26.17344 F,0,170204,171428,1,0
Sprite,Foreground,Centre,"SB\Star.png",320,240 F,0,171428,172040,0,1 M,2,171428,173877,598,161,219,14 R,2,171428,173877,0,-8.74 S,0,172653,173877,1,0.1 F,0,173724,173877,1,0
Sprite,Foreground,Centre,"SB\a01.png",320,240 F,0,37959,39183,0,1 M,0,37959,46530,551,168,551,210 F,0,45306,46530,1,0
Sprite,Foreground,Centre,"SB\a02.png",320,240 F,0,46530,47755,0,1 M,0,46530,52653,503,313,503,287 F,0,51428,52653,1,0
Sprite,Foreground,Centre,"SB\a03.png",320,240 F,0,51428,52653,0,1 M,0,51428,57551,551,129,552,167 F,0,55102,57551,1,0
Sprite,Foreground,Centre,"SB\b01.png",320,240 F,0,57551,58775,0,1 M,0,57551,62449,551,355,551,324 F,0,61224,62449,1,0
Sprite,Foreground,Centre,"SB\b02.png",320,240 F,0,61224,62449,0,1 M,0,61224,67346,502,119,503,157 F,0,66122,67346,1,0
Sprite,Foreground,Centre,"SB\b03.png",320,240 F,0,66122,67346,0,1 M,0,66122,71020,551,317,551,292 F,0,69795,71020,1,0
Sprite,Foreground,Centre,"SB\b04.png",320,240 F,0,69795,71020,0,1 M,0,69795,75918,503,147,504,173 F,0,73469,75918,1,0
Sprite,Foreground,Centre,"SB\c01.png",320,240 F,0,75918,77142,0,1 M,0,75918,80816,552,211,551,236 F,0,79591,80816,1,0
Sprite,Foreground,Centre,"SB\c02.png",320,240 F,0,79591,80816,0,1 M,0,79591,85714,503,292,503,270 F,0,84489,85714,1,0
Sprite,Foreground,Centre,"SB\c03.png",320,240 F,0,84489,85714,0,1 M,0,84489,90612,551,211,551,237 F,0,89387,90612,1,0
Sprite,Foreground,Centre,"SB\c04.png",320,240 F,0,89387,90612,0,1 M,0,89387,96734,503,345,503,318 F,0,94285,96734,1,0
Sprite,Foreground,Centre,"SB\d01.png",320,240 F,0,96734,97959,0,1 M,0,96734,102857,551,85,551,112 F,0,101632,102857,1,0
Sprite,Foreground,Centre,"SB\d01.png",551,89 F,0,97959,98571,1,0 S,0,97959,98571,1,3
Sprite,Foreground,Centre,"SB\d02.png",320,240 F,0,99183,100408,0,1 M,0,99183,105306,503,317,503,289 F,0,104081,105306,1,0
Sprite,Foreground,Centre,"SB\d03.png",320,240 F,0,104081,105306,0,1 M,0,104081,112653,551,214,550,244 F,0,111428,112653,1,0
Sprite,Foreground,Centre,"SB\d04.png",320,240 F,0,111428,112653,0,1 M,0,111428,117551,503,368,503,334 F,0,116326,117551,1,0
Sprite,Foreground,Centre,"SB\e01.png",320,240 F,0,116326,117551,0,1 M,0,116326,122449,551,110,551,142 F,0,121224,122449,1,0
Sprite,Foreground,Centre,"SB\e01.png",551,115 F,0,117551,118163,1,0 S,0,117551,118163,1,2.5
Sprite,Foreground,Centre,"SB\e02.png",320,240 F,0,118775,120000,0,1 M,0,118775,127346,503,270,503,229 F,0,126122,127346,1,0
Sprite,Foreground,Centre,"SB\e03.png",320,240 F,0,126122,127346,0,1 M,0,126122,132244,551,176,551,209 F,0,131020,132244,1,0
Sprite,Foreground,Centre,"SB\e04.png",320,240 F,0,131020,132244,0,1 M,0,131020,137142,503,342,503,304 F,0,135918,137142,1,0
Sprite,Foreground,Centre,"SB\f01.png",320,240 F,0,135918,137142,0,1 M,0,135918,144489,551,163,551,203 F,0,143265,144489,1,0
Sprite,Foreground,Centre,"SB\f01.png",551,168 F,0,137142,137755,1,0 S,0,137142,137755,1,2.34
Sprite,Foreground,Centre,"SB\f02.png",320,240 F,0,143265,144489,0,1 M,0,143265,151836,503,269,502,242 S,0,143265,151836,0.86 F,0,150612,151836,1,0
Sprite,Foreground,Centre,"SB\f03.png",320,240 F,0,150612,151836,0,1 M,0,150612,157959,551,145,551,178 F,0,155510,157959,1,0
Sprite,Foreground,Centre,"SB\g01.png",320,240 F,0,156734,157959,0,1 M,0,156734,162857,503,327,503,300 F,0,161632,162857,1,0
Sprite,Foreground,Centre,"SB\g02.png",320,240 F,0,161632,162857,0,1 M,0,161632,167755,551,147,551,173 F,0,166530,167755,1,0
Sprite,Foreground,Centre,"SB\g03.png",320,240 F,0,166530,167755,0,1 M,0,166530,176326,503,349,503,308 F,0,173877,176326,1,0
Sprite,Foreground,Centre,"SB\g04.png",320,240 F,0,170204,171428,0,1 M,0,170204,176326,551,140,551,169 F,0,173877,176326,1,0
Sprite,Foreground,Centre,"SB\title.png",320,240 F,0,4897,6122,0,1 M,0,4897,13469,530,184,530,222 F,0,12244,13469,1,0
Sprite,Foreground,Centre,"SB\artist.png",320,240 F,0,7346,8571,0,1 M,0,7346,13469,475,353,475,335 F,0,12244,13469,1,0
Sprite,Foreground,Centre,"SB\Feather_1.png",320,240 M,0,137142,146938,446,-51,147,556 R,0,137142,146938,0,-8.4 M,0,147551,156734,568,-77,341,557 R,0,147551,156734,-8.4,-15
Sprite,Foreground,Centre,"SB\Feather_2.png",320,240 M,0,137142,150612,196,-38,-25,510 R,0,137142,150612,0.3,-9.1 M,0,151224,160408,159,-53,-54,412 R,0,151224,160408,-9.1,-15.5
Sprite,Foreground,Centre,"SB\Feather_3.png",320,240 M,0,137142,151836,537,-40,393,517 R,0,137142,151836,0,-7.7
Sprite,Foreground,Centre,"SB\Feather_4.png",320,240 M,0,143265,157959,342,-39,204,519 R,0,143265,157959,0,-11.8
//Storyboard Sound Samples
//Background Colour Transformations
3,100,113,187,255

[TimingPoints]
2449,612.244897959184,4,2,1,30,1,0
6428,-100,4,2,2,30,0,0
7040,-100,4,2,1,30,0,0
8877,-100,4,2,2,30,0,0
9336,-100,4,2,1,30,0,0
10255,-100,4,2,2,30,0,0
10561,-100,4,2,1,30,0,0
11479,-100,4,2,2,30,0,0
11785,-100,4,2,1,30,0,0
12704,-100,4,2,2,30,0,0
13010,-100,4,2,1,40,0,0
37346,-100,4,2,2,40,0,0
75612,-100,4,2,1,40,0,0
97959,-100,4,2,1,40,0,1
136989,-100,4,2,1,40,0,0
137142,-100,4,2,1,40,0,1
154132,-100,4,1,0,40,0,1
156581,-100,4,2,1,40,0,1
171428,-100,4,2,1,40,0,0
176020,-100,4,2,2,40,0,0
193316,-100,4,2,0,40,0,0
193622,-100,4,2,2,40,0,0
194081,-100,4,2,2,25,0,0
195918,-100,4,2,2,10,0,0
197755,-100,4,2,2,5,0,0

[Colours]
Combo1 : 190,142,255
Combo2 : 32,177,255
Combo3 : 0,117,162
SliderBorder : 255,255,255

[HitObjects]
257,119,4897,2,0,B|325:76|418:109,2,150,0|0|2
255,269,7346,2,0,B|187:312|94:279,2,150,0|0|2
383,347,9795,6,0,B|416:304|403:252,1,100,4|2
477,243,10714,2,0,B|478:186|432:157|432:157|432:110,1,150,0|2
303,31,12244,2,0,B|297:85|252:112,1,100,2|2
193,64,13163,2,0,B|162:111|193:158|193:158|194:217,1,150,0|8
65,285,14693,6,0,B|90:334|140:349,1,100,4|8
175,283,15612,2,0,B|224:309|270:288,1,100,4|0
271,287,16530,1,8
230,142,17142,2,0,B|232:87,2,50,4|0|8
162,174,18061,2,0,B|190:222|247:215,1,100,4|0
246,215,18979,1,8
318,83,19591,6,0,B|377:61|406:96|465:76,2,150,4|0|8
256,192,22040,12,8,23877
184,341,24489,6,0,B|255:383|326:341,1,150,4|2
257,207,26020,2,0,B|256:153,1,50,0|8
303,14,26938,2,0,B|255:-7|206:13,1,100,4|8
205,13,27857,1,0
256,154,28469,2,0,B|256:211,1,50,0|8
324,337,29387,6,0,B|289:373|223:373|188:337,2,150,4|0|8
256,192,31836,12,8,33673
376,73,37653,5,0
376,73,37959,2,0,B|376:172,1,100,0|0
256,263,39183,2,0,B|256:131,1,100,2|0
135,73,40408,2,0,B|135:178,1,100
256,260,41632,5,2
32,229,42551,1,0
32,154,42857,2,0,B|64:115|64:115|113:116,1,100
256,70,44081,2,0,B|256:155|256:155|320:181|320:242,2,200,2|0|2
400,28,47142,5,0
482,153,47755,2,0,B|482:207|482:207|450:241|450:241|450:289,1,150,2|0
402,349,48979,2,0,B|375:305|319:301,1,100,2|0
169,284,50204,2,0,B|100:192|168:97,1,200,2|2
316,97,52040,6,0,B|375:96,1,50
317,238,52959,2,0,B|257:239,1,50
256,192,53877,12,2,56326
256,302,57244,6,0,B|256:359,2,50
310,249,58163,2,0,B|309:192,1,50,8|0
256,145,58775,2,0,B|210:146|210:146|172:192|172:192|127:192,1,150,2|0
64,233,60000,2,0,B|99:276|155:263,1,100,0|8
285,192,61224,5,2
89,81,62142,2,0,B|25:81,2,50
140,136,63061,2,0,B|198:136,1,50,8|0
241,81,63673,2,0,B|313:82|313:82|308:125|348:144,1,150,2|0
330,217,64897,2,0,B|303:319,2,100,0|0|4
402,85,66734,5,0
255,51,67346,1,2
108,83,67959,1,8
41,217,68571,2,0,B|41:279,2,50,4|0|0
41,142,69489,1,0
106,178,69795,2,0,B|195:224,1,100,2|8
256,87,71020,6,0,B|304:66|353:87,1,100,4|0
337,160,71938,2,0,B|410:181|440:261,1,150,0|8
256,192,73469,12,0,75306
138,66,75918,6,0,B|237:66,1,100,4|8
373,131,77142,2,0,B|273:131,1,100,0|8
137,196,78367,2,0,B|236:196,1,100,0|8
275,260,79285,2,0,B|346:259|346:259|346:216|386:193,1,150,0|8
297,71,80816,6,0,B|260:39|204:48,1,100,0|8
216,197,82040,2,0,B|167:187|123:223,1,100,0|8
212,345,83265,2,0,B|292:345|292:345|361:304,1,150
313,245,84489,2,0,B|373:209|373:209|453:209,1,150
453,209,85714,5,4
331,121,86326,1,8
181,121,86938,1,0
58,208,87551,1,8
206,226,88163,2,0,B|254:245|304:225,1,100,0|8
256,82,89387,2,0,B|256:19,2,50,0|0|8
164,201,90612,6,0,B|116:223|68:202,1,100,4|8
115,144,91530,2,0,B|114:324,1,150,0|8
256,342,93061,2,0,B|311:288|322:208,1,150,4|0
247,222,94285,2,0,B|299:280|377:288,1,150,4|0
377,288,95510,1,4
256,192,95816,12,8,97346
110,119,97959,6,0,B|211:119,1,100,4|8
246,53,98877,2,0,B|275:127|361:137,1,150,4|8
460,249,100408,2,0,B|410:250|372:289,1,100,4|8
365,364,101326,2,0,B|339:293|280:243,1,150,4|8
142,181,102857,6,0,B|168:134|219:123,1,100,4|8
257,58,103775,1,0
294,122,104081,2,0,B|345:133|371:180,1,100,0|8
331,324,105306,2,0,B|409:324,2,50,0|0|8
256,324,106224,1,0
181,324,106530,2,0,B|103:324,2,50,0|0|8
54,242,107755,6,0,B|96:175|179:169,1,150,4|0
168,94,108979,2,0,B|244:74|309:125,1,150
354,64,110204,2,0,B|397:92|416:140,1,100,0|8
429,214,111122,1,0
416,287,111428,2,0,B|404:353,2,50,0|0|8
351,151,112653,6,0,B|305:130|252:131,1,100,4|8
211,69,113571,1,0
139,92,113877,2,0,B|96:123,3,50,0|0|8|0
55,182,115102,2,0,B|41:234,3,50,0|0|8|0
56,303,116326,2,0,B|102:355,3,50,0|0|8|0
162,356,117551,6,0,B|203:326|256:320,1,100,4|8
228,249,118469,1,0
197,180,118775,2,0,B|249:173|287:141,1,100,4|8
320,208,119693,1,0
355,274,120000,2,0,B|392:239|442:228,1,100,0|8
411,159,120918,1,0
375,92,121224,2,0,B|429:80|466:49,1,100,0|8
314,47,122449,6,0,B|266:30|216:35,1,100,4|8
125,155,123673,2,0,B|176:158|220:182,1,100,0|8
329,284,124897,1,0
365,139,125510,1,8
248,44,126122,2,0,B|180:44,2,50,0|0|8
108,97,127346,6,0,B|111:146|132:194,1,100,4|8
205,179,128265,1,0
278,162,128571,2,0,B|300:205|309:256,1,100,4|8
186,342,129795,1,0
42,297,130408,1,8
156,199,131020,1,0
42,101,131632,1,8
184,54,132244,6,0,B|228:29|279:23,1,100,0|8
375,137,133469,2,0,B|333:164|282:168,1,100,0|8
166,264,134693,2,0,B|130:228,3,50,0|0|8|0
130,153,135918,2,0,B|165:117,3,50,0|0|8|0
221,68,137142,6,0,B|262:38|315:41,1,100,4|8
389,52,138061,1,0
342,111,138367,2,0,B|313:154|313:204,1,100,4|8
196,110,139591,2,0,B|146:117|100:92,1,100,4|8
45,144,140510,1,0
73,213,140816,2,0,B|131:213,3,50,4|0|8|0
197,214,142040,6,0,B|245:215|245:215|285:247,1,100,4|8
352,213,142959,1,0
336,139,143265,2,0,B|384:138|384:138|424:106,1,100,0|8
288,42,144489,2,0,B|245:21|192:15,1,100,0|8
171,87,145408,2,0,B|161:144|99:158|99:158|85:198,1,150,0|8
212,277,146938,6,0,B|256:301|256:301|301:278,1,100,4|8
301,128,148163,2,0,B|256:105|256:105|212:129,1,100,0|8
82,203,149387,2,0,B|186:204,1,100,0|8
332,203,150612,2,0,B|431:202,1,100,0|8
382,60,151836,5,4
333,202,152449,1,8
183,200,153061,1,0
126,61,153673,1,8
274,83,154285,2,0,B|324:91,3,50,0|0|0|0
387,130,155510,2,0,B|417:171,3,50,0|0|0|0
442,240,156734,5,4
331,341,157346,1,8
186,300,157959,2,0,B|198:248|185:200,1,100,0|8
298,102,159183,2,0,B|339:69,3,50,0|0|8|0
411,79,160408,2,0,B|430:128|477:152,1,100,0|8
391,275,161632,5,4
256,341,162244,1,8
120,275,162857,2,0,B|144:230|147:179,1,100,0|8
172,31,164081,2,0,B|218:17,3,50,0|0|8|0
295,17,165306,2,0,B|342:31,3,50,0|0|8|0
401,78,166530,5,4
402,227,167142,1,8
256,266,167755,2,0,B|212:246|158:246,1,100,0|8
58,134,168979,2,0,B|108:134,3,50,0|0|8|0
183,134,170204,1,0
257,134,170510,1,0
331,134,170816,1,8
256,264,171428,5,4
357,90,172653,1,4
157,90,173877,1,4
256,192,174183,12,0,175714
177,269,176326,6,0,B|227:272|274:289,1,100,0|8
298,218,177244,2,0,B|344:244|398:241|398:241|446:261,1,150,0|8
374,124,178775,2,0,B|322:123|278:102,1,100,0|8
260,174,179693,2,0,B|199:150|179:189|113:165,1,150,0|8
147,311,181224,6,0,B|65:310,2,50,0|0|8
210,270,182142,2,0,B|255:290|255:290|300:271,1,100
365,310,183061,2,0,B|433:310,1,50,8|0
256,192,183673,12,8,185510
256,58,186122,6,0,B|194:58,2,50,0|0|8
330,59,187040,2,0,B|400:59|400:59|377:96|398:134,1,150,0|8
399,284,188571,2,0,B|398:335,2,50,0|0|8
399,209,189489,2,0,B|345:216|329:259|329:259|251:259,1,150,0|8
151,165,191020,6,0,B|151:113|151:113|172:71,1,100,0|8
247,69,191938,2,0,B|76:69,1,150,0|8
10,192,193469,1,2
256,192,193775,12,0,198061
