osu file format v6

[General]
AudioFilename: Uraomote Lovers.mp3
AudioLeadIn: 0
PreviewTime: 18172
Countdown: 0
SampleSet: Soft
StackLeniency: 0.7
Mode: 0
LetterboxInBreaks: 1

[Editor]
DistanceSpacing: 0.899999976158142
BeatDivisor: 2
GridSize: 8

[Metadata]
Title:Uraomote Lovers
Artist:Hatsune Miku
Creator:Shinxyn
Version:Normal
Source:Genjitsutouhi-P
Tags:wowaka vocaloid two faced Nexy

[Difficulty]
HPDrainRate:4
CircleSize:3
OverallDifficulty:6
SliderMultiplier:1
SliderTickRate:2

[Events]
//Background and Video events
0,0,"video snap.png"
Video,-64,"Uraomote Lovers PV.flv"
//Break Periods
2,13845,18633
2,43657,54860
2,92336,109199
2,134223,139388
//Storyboard Layer 0 (Background)
//Storyboard Layer 1 (Fail)
//Storyboard Layer 2 (Pass)
//Storyboard Layer 3 (Foreground)
//Storyboard Sound Samples
//Background Colour Transformations
3,100,163,162,255

[TimingPoints]
3080,377.358490566038,4,2,0,80,1,0
80061,-100,4,2,0,80,0,1
92136,-100,4,2,0,80,0,0
158929,-100,4,2,0,80,0,1
169495,-100,4,2,0,80,0,0
171004,-100,4,2,0,80,0,1
183080,-100,4,2,0,80,0,0

[Colours]
Combo1 : 122,121,132
Combo2 : 248,248,248
Combo3 : 193,192,194

[HitObjects]
160,192,6853,2,0,B|256:120|352:192|352:192,1,200,0|4
424,280,7985,5,0
344,320,8363,1,0
256,328,8740,1,2
168,320,9117,5,0
88,280,9495,1,0
56,192,9872,2,0,B|168:192,1,100,0|2
256,192,10627,6,0,B|256:88,3,100,0|0|0|2
168,64,12136,5,0
256,56,12513,1,0
344,64,12891,1,0
256,56,13268,2,0,B|256:160,1,100,2|4
64,72,19683,6,0,B|152:80|96:192|240:192,1,200
256,272,20815,1,2
300,190,21193,2,0,B|416:192|360:80|448:72,2,200
256,264,23080,5,2
192,320,23457,1,0
104,312,23834,1,0
64,232,24212,1,0
104,152,24589,1,2
192,144,24966,1,0
161,229,25344,2,0,B|281:229,1,100
320,144,26098,5,2
408,152,26476,1,0
448,232,26853,2,0,B|464:304|398:318|398:318,1,100,0|0
320,328,27608,1,2
256,264,27985,1,0
344,232,28363,2,0,B|240:152,1,100
256,80,29117,6,0,B|112:32|80:160|80:160,1,200,2|2
86,242,30249,2,0,B|80:224|112:352|256:304,2,200,0|0|4
168,192,32136,6,0,B|168:120,2,50,2|0|0
256,192,32891,2,0,B|256:256|256:256,2,50,2|0|0
344,192,33646,2,0,B|344:128,2,50,0|0|0
425,242,34400,1,2
425,242,34589,2,0,B|432:224|400:352|256:304,2,200
425,242,36287,5,0
352,192,36664,1,8
336,104,37042,1,0
256,64,37419,1,8
176,104,37796,6,0,B|160:208,1,100,0|2
240,240,38551,2,0,B|160:320|160:320|160:328,1,100
120,240,39306,2,0,B|96:128,1,100,0|2
160,80,40061,2,0,B|248:24|360:80,3,200
256,208,42513,12,4,43457
432,48,55910,6,0,B|432:160,1,100,2|0
344,144,56664,2,0,B|344:40|344:40|352:40,1,100,0|2
256,48,57419,2,0,B|256:152,1,100,0|2
168,144,58174,2,0,B|168:40|168:40|160:40,1,100,0|2
80,48,58929,6,0,B|80:160,1,100,0|2
80,236,59683,2,0,B|80:336,1,100,0|2
168,328,60438,2,0,B|168:216,1,100,0|2
256,232,61193,2,0,B|256:336,1,100,0|2
344,328,61947,6,0,B|344:216,1,100
432,232,62702,2,0,B|432:332,2,100,0|2|0
344,232,63834,1,2
256,232,64212,1,0
168,232,64589,1,4
128,152,64966,6,0,B|176:88,1,50,2|2
200,112,65344,2,0,B|248:168,3,50,2|0|2|0
280,152,66098,2,0,B|320:104,1,50,2|2
360,112,66476,2,0,B|400:168,2,50,2|0|2
280,152,67230,2,0,B|80:120,1,200,0|4
72,200,68363,5,2
104,288,68740,1,0
192,280,69117,1,0
256,216,69495,6,0,B|256:112,2,100,0|2|0
320,280,70627,2,0,B|424:240,1,100
408,152,71381,2,0,B|352:48,1,100,2|0
272,72,72136,2,0,B|168:128,1,100
104,160,72891,5,2
72,248,73268,1,0
144,304,73646,1,0
176,216,74023,6,0,B|280:200,3,100,0|2|0|0
256,112,75532,2,0,B|184:80,1,50,2|2
256,112,75910,2,0,B|328:80,1,50,2|2
256,112,76287,2,0,B|256:216,1,100
166,257,77042,6,0,B|256:344|344:256,2,200
256,208,78929,12,4,79683
352,288,80061,6,0,B|352:184|352:184,1,100,0|8
264,192,80815,2,0,B|200:192,2,50,2|0|8
352,188,81570,6,0,B|304:80|304:80|304:88,1,100,0|8
224,96,82325,2,0,B|112:160,1,100,0|8
160,232,83080,6,0,B|232:336,1,100,0|8
304,312,83834,2,0,B|400:240,1,100,0|8
448,192,84589,5,2
384,128,84966,1,8
320,64,85344,2,0,B|280:24,2,50,2|0|8
384,128,86098,5,4
320,64,86476,1,8
256,128,86853,1,0
192,64,87230,1,8
128,128,87608,6,0,B|128:232,1,100,2|8
208,272,88363,2,0,B|320:272,1,100,0|8
384,228,89117,6,0,B|384:128,1,100,0|8
304,80,89872,2,0,B|204:80,1,100,0|8
160,160,90627,6,0,B|184:216,1,50,2|2
200,248,91004,2,0,B|256:312,1,50,2|0
279,285,91381,2,0,B|312:248,1,50,2|2
332,205,91759,2,0,B|352:160,2,50,2|0|6
208,88,110249,6,0,B|312:88,4,100,0|2|0|0|0
120,112,112136,5,2
80,192,112513,1,0
144,256,112891,1,0
232,248,113268,5,0
272,168,113646,1,2
183,170,114023,2,0,B|240:61,6,100,0|0|0|2|0|0|0
272,168,116664,6,0,B|312:272,2,100,2|0|0
183,170,117796,2,0,B|240:61,1,100,0|2
320,88,118551,2,0,B|416:152|416:152|424:152,1,100
424,232,119306,6,0,B|416:368|264:344,2,200
416,144,121193,1,2
336,192,121570,1,0
256,144,121947,1,0
176,192,122325,5,8
96,144,122702,1,8
176,192,123080,2,0,B|176:304|176:304,2,100
256,144,124212,2,0,B|256:40,2,100,2|0|0
336,192,125344,2,0,B|336:304|336:304,2,100,0|2|0
416,144,126476,5,0
432,232,126853,1,0
376,304,127230,1,2
288,296,127608,1,0
240,216,127985,1,0
336,192,128363,6,0,B|312:144,2,50,2|0|2
240,216,129117,2,0,B|224:272,2,50,2|0|2
152,192,129872,2,0,B|128:128,2,50,2|0|2
240,216,130627,5,0
200,296,131004,1,0
112,312,131381,1,0
40,256,131759,1,2
56,168,132136,1,0
140,223,132513,2,0,B|200:136,1,100,2|0
254,58,133268,2,0,B|196:140,1,100,2|0
120,96,134023,1,0
344,192,140438,6,0,B|344:256,2,50,2|0|2
256,192,141193,2,0,B|256:136,2,50,2|0|2
168,192,141947,2,0,B|168:256,2,50,2|0|2
256,192,142702,2,0,B|368:192|368:192|360:192,1,100,0|2
384,104,143457,6,0,B|352:56,1,50,2|2
312,64,143834,2,0,B|280:112,3,50,2|0|2|0
240,104,144589,2,0,B|200:56,1,50,2|2
160,64,144966,2,0,B|128:112,2,50,2|0|2
240,104,145721,2,0,B|440:144,1,200,0|4
448,232,146853,5,2
392,304,147230,1,0
304,280,147608,1,0
256,200,147985,6,0,B|256:88,2,100,0|2|0
208,280,149117,2,0,B|112:344,1,100
56,272,149872,2,0,B|8:176,1,100,2|0
80,128,150627,2,0,B|168:72,1,100
256,56,151381,5,2
336,96,151759,1,0
360,184,152136,1,0
262,153,152513,6,0,B|166:217,3,100,0|2|0|0
256,272,154023,2,0,B|192:312,1,50,2|2
256,272,154400,2,0,B|320:312,1,50,2|2
256,272,154778,2,0,B|256:144,1,100,0|2
345,125,155532,6,0,B|256:40|160:128,2,200
256,208,157419,12,4,158174
108,64,158929,6,0,B|220:64|220:64,1,100,0|8
208,152,159683,2,0,B|208:216,2,50,2|0|8
208,64,160438,6,0,B|332:64,1,100,0|8
344,144,161193,2,0,B|344:256,1,100,0|8
308,320,161947,6,0,B|208:320,1,100,2|8
168,244,162702,2,0,B|168:144,1,100,0|8
88,104,163457,5,0
56,192,163834,1,8
88,280,164212,2,0,B|96:320|128:320|128:320|128:312,2,50,2|0|8
56,192,164966,5,4
88,104,165344,1,8
176,136,165721,1,0
256,104,166098,1,8
256,104,166476,5,2
336,136,166853,1,8
424,104,167230,1,0
456,192,167608,1,8
408,264,167985,6,0,B|280:264,1,100,0|8
204,264,168740,2,0,B|104:264,1,100,0|8
128,176,169495,6,0,B|160:120,1,50,2|0
184,104,169872,2,0,B|256:88,1,50,8|0
280,96,170249,2,0,B|328:106,1,50,2|0
360,136,170627,2,0,B|384:179,1,50,8|0
392,224,171004,6,0,B|392:328,1,100,4|8
304,224,171759,2,0,B|304:328,1,100,0|8
120,224,172513,6,0,B|120:328,1,100,0|8
208,224,173268,2,0,B|208:328,1,100,0|8
256,144,174023,5,0
136,72,174400,1,8
256,144,174778,1,0
256,8,175155,1,8
256,144,175532,5,0
376,72,175910,1,8
256,144,176287,2,0,B|256:200,2,50,2|0|8
368,192,177042,6,0,B|504:192,1,100,4|8
256,240,177796,2,0,B|256:344,1,100,0|8
144,192,178551,6,0,B|8:192,1,100,0|8
256,144,179306,2,0,B|256:40,1,100,0|8
368,192,180061,5,0
256,304,180438,1,8
144,192,180815,1,0
256,80,181193,1,8
400,192,181570,5,8
256,336,181947,1,8
112,192,182325,1,8
256,48,182702,1,8
256,192,183080,5,4
