osu file format v6

[General]
AudioFilename: uraomote raba^zu.mp3
AudioLeadIn: 0
PreviewTime: -1
Countdown: 0
SampleSet: Normal
StackLeniency: 0.7
Mode: 0
LetterboxInBreaks: 1

[Editor]
Bookmarks: 45352
DistanceSpacing: 0.400000005960464
BeatDivisor: 4
GridSize: 8

[Metadata]
Title:Uraomote LOVERS
Artist:Hatsune Miku
Creator:Utsuho
Version:Hard
Source:
Tags:

[Difficulty]
HPDrainRate:7
CircleSize:5
OverallDifficulty:8
SliderMultiplier:1.6
SliderTickRate:1

[Events]
//Background and Video events
0,0,"123.jpg"
Video,-100,"PV.avi"
//Break Periods
2,4796,6110
2,92436,95920
//Storyboard Layer 0 (Background)
//Storyboard Layer 1 (Fail)
//Storyboard Layer 2 (Pass)
//Storyboard Layer 3 (Foreground)
//Storyboard Sound Samples
//Background Colour Transformations
3,100,163,162,255

[TimingPoints]
3087,377.358490566038,4,1,0,100,1,0
7626,-100,4,2,0,100,0,0
20445,503.14465408805,4,2,0,100,1,0
20822,377.358490566038,4,2,0,100,1,0
34595,-200,4,2,0,100,0,0
35917,-100,4,2,0,100,0,0
54408,-100,4,2,0,50,0,0
54784,-100,4,2,0,50,0,0
54878,-100,4,2,0,50,0,0
55538,-100,4,2,0,50,0,0
55633,-100,4,2,0,50,0,0
55917,-100,4,2,0,100,0,0
77049,503.14465408805,4,2,0,100,1,0
78935,377.358490566038,4,2,0,100,1,0
96670,-100,4,1,0,100,0,0
98180,-100,4,2,0,100,0,0
111010,503.14465408805,4,2,0,100,1,0
111387,377.358490566038,4,2,0,100,1,0
125160,-200,4,2,0,100,0,0
126292,-100,4,2,0,100,0,0
155537,503.14465408805,4,2,0,100,1,0
156669,377.358490566038,4,2,0,100,1,0
158555,-100,4,2,0,0,0,0
158838,-100,4,2,0,100,0,0

[Colours]
Combo1 : 97,97,97
Combo2 : 0,0,0

[HitObjects]
96,64,3086,1,0
96,128,3841,1,0
96,192,4596,1,4
416,64,6860,6,0,B|454:100|415:139,1,80
352,96,7237,1,0
340,96,7332,1,0
328,96,7426,1,0
256,64,7615,6,2,B|218:100|257:139,1,80,2|2
341,166,7992,2,2,B|341:262,2,80,10|6|2
341,246,8558,2,2,B|341:291,2,40,2|2|10
235,204,9124,6,2,B|148:160,1,80
145,176,9407,1,2
127,186,9502,1,10
110,196,9596,1,2
93,207,9690,1,6
235,132,10068,2,2,B|235:32,2,80,2|10|2
299,133,10634,5,2
360,114,10822,1,2
420,134,11011,1,10
420,134,11200,1,6
360,152,11388,1,2
329,143,11483,1,2
299,133,11577,1,2
299,133,11766,1,10
345,252,12143,6,2,B|380:356,1,80
167,252,12520,2,2,B|132:356,1,80,10|6
256,160,12898,2,2,B|256:64,2,80,2|2|10
256,288,13653,6,2,B|256:352,8,40,2|2|2|2|10|2|6|2|2
256,224,14596,2,2,B|256:128,1,80,2|10
384,96,15162,2,2,B|454:123,8,40,2|2|2|2|10|2|6|2|2
384,160,16105,2,2,B|476:189|476:189|480:192,1,80,2|10
128,96,16671,2,2,B|58:123,8,40,2|2|2|2|10|2|6|2|2
128,160,17615,2,2,B|36:189|36:189|32:192,1,80,2|10
416,288,18181,5,2
96,192,18558,1,10
416,96,18936,2,2,B|416:160,4,40,2|2|2|2|10
288,64,19690,6,2,B|342:102|330:175,1,120
330,169,20068,1,10
256,128,20256,1,2
224,64,20445,2,2,B|170:102|182:175,1,120,2|10
181,169,20916,1,2
181,169,21010,1,2
352,256,21576,6,2,B|352:301|397:346,1,80,10|2
384,128,22142,2,2,B|416:96|416:32,1,80,2|10
352,256,22708,1,2
256,96,23086,1,10
192,128,23274,1,2
192,128,23369,1,2
160,192,23557,1,2
160,192,23652,1,2
160,256,23840,1,10
384,256,24218,5,2
384,256,24406,1,2
448,128,24784,1,2
448,128,24878,1,2
416,192,25067,1,2
416,192,25161,1,2
384,256,25350,1,10
256,288,25727,5,2
256,288,25916,1,2
224,224,26105,1,10
288,224,26293,1,2
288,224,26388,1,2
256,160,26576,1,2
256,160,26671,1,2
256,96,26859,1,10
256,288,27425,5,2
416,192,27708,1,2
352,64,27991,1,2
160,64,28274,1,2
96,192,28557,1,2
256,160,28746,5,2
320,128,28935,2,2,B|352:192,2,40,2|2|10
256,96,29312,2,2,B|256:32,1,40,2|2
192,128,29595,2,2,B|160:192,3,40,2|2|2|10
320,224,30255,1,2
320,224,30444,1,2
256,256,30633,1,10
256,256,30822,1,2
192,224,31010,1,2
192,224,31199,1,2
256,192,31388,1,10
256,192,31482,1,2
256,192,31576,1,2
416,128,31765,6,2,B|481:215|313:192|489:220|405:287,1,160,2|10
256,192,32520,1,2
256,192,32708,1,2
256,192,32897,1,10
96,128,33274,2,2,B|31:215|199:192|23:220|107:287,1,160,2|10
204,260,34029,1,2
257,225,34218,1,2
322,218,34406,1,10
377,239,34595,2,2,B|356:302|289:343|217:345|160:287,1,240
180,304,35916,1,10
256,64,36293,1,2
256,64,36671,1,10
332,304,37048,1,2
332,304,37425,1,10
256,64,37803,6,2,B|352:96,1,80
409,115,38180,2,2,B|313:83,1,80,10|6
333,90,38557,2,2,B|301:186,2,80,2|2|10
333,91,39029,1,2
333,91,39123,1,2
333,91,39218,1,2
352,256,39501,2,2,B|224:320|256:192|96:271,1,240
160,192,40255,2,2,B|261:162|220:239|337:199,1,160
276,152,40821,2,2,B|315:130|315:130|376:147,2,80,2|2|10
248,135,41576,2,2,B|237:91|237:91|270:36,2,80,2|2|10
222,154,42331,2,2,B|177:152|177:152|132:107,4,80,2|2|10|2|2
256,288,43463,2,0,B|257:320,2,20,10|0|0
256,208,43840,12,2,44595
96,320,44972,5,10
256,208,45350,12,2,46105
416,320,46482,5,10
256,208,46859,12,2,47614
256,32,47991,5,10
256,208,48369,12,2,49123
256,192,49312,6,0,B|256:224,4,20,0|0|0|0|10
416,64,49878,5,2
417,75,49972,1,2
417,87,50067,1,2
417,98,50161,1,2
417,109,50255,1,10
417,121,50350,1,2
417,132,50444,1,6
417,143,50538,1,2
417,155,50633,1,2
417,218,50821,2,2,B|467:217|467:151,2,80,2|10|0
288,192,51388,5,2
283,201,51482,1,2
275,211,51576,1,2
269,220,51671,1,2
263,229,51765,1,10
255,239,51859,1,2
249,248,51954,1,6
243,256,52048,1,2
235,266,52142,1,2
198,317,52331,2,2,B|240:346|278:292,2,80,2|10|0
128,191,52897,5,2
124,181,52991,1,2
121,169,53086,1,2
118,159,53180,1,2
115,148,53274,1,10
111,136,53369,1,2
108,126,53463,1,6
105,115,53557,1,2
102,104,53652,1,2
85,43,53840,2,2,B|37:58|55:121,2,80,2|10|0
202,138,54406,6,2,B|202:74,1,40
228,116,54595,2,2,B|244:71,1,40
262,102,54784,2,2,B|293:68,1,40,10|0
300,102,54972,2,2,B|353:80,1,40,6|2
337,121,55161,2,2,B|389:129,1,40
361,155,55350,2,2,B|405:162,1,40
380,186,55538,2,2,B|419:218,2,40,10|2|2
352,256,55916,6,2,B|320:352,2,80,2|2|10
288,128,56671,2,2,B|256:32,2,80,2|2|10
224,256,57425,2,2,B|192:320,2,40
160,192,57803,2,2,B|128:128,2,40,10|2|2
96,256,58180,2,2,B|64:320,4,40,2|2|2|2|10
32,192,58746,1,2
32,192,58935,5,2
256,96,59312,1,10
480,192,59689,1,2
256,288,60067,1,10
256,192,60255,1,2
256,192,60444,1,2
256,192,60538,1,2
256,192,60633,1,2
320,224,60821,2,2,B|352:288,1,40,10|2
192,224,61105,2,2,B|160:288,1,40
64,160,61388,1,2
192,96,61576,1,10
352,64,61954,6,2,B|416:64,2,40
352,128,62331,2,2,B|288:128,1,40,10|2
328,224,62708,2,2,B|424:224,3,80,2|2|10|2
352,288,63463,1,2
296,344,63652,1,2
216,344,63840,1,10
160,288,64029,1,2
256,256,64218,2,2,B|256:192,2,40
256,256,64595,1,10
64,160,64972,6,2,B|96:128,1,40,2|2
128,192,65255,2,2,B|160:224,1,40,2|10
192,160,65538,2,2,B|224:128,1,40
256,192,65821,2,2,B|288:224,1,40
320,160,66105,1,10
344,139,66199,1,2
384,192,66388,1,2
405,215,66482,1,2
448,160,66671,1,2
448,160,66765,1,2
448,160,66859,1,10
448,160,66954,1,2
448,160,67048,1,2
256,208,67237,12,2,67803
128,64,67991,5,2
160,128,68180,1,2
160,160,68274,1,2
160,192,68369,1,10
96,144,68557,2,2,B|96:208,5,40
64,256,69312,5,2
64,256,69501,2,2,B|160:288,3,80,2|2|10|2
139,281,70255,1,2
139,281,70444,2,2,B|192:256,1,40
64,64,70821,6,2,B|141:86|66:137|190:137,1,120
256,320,71388,2,2,B|218:260|318:282|233:177,1,120,10|2
448,64,71954,2,2,B|407:133|377:47|344:167,1,120
256,192,72520,1,2
256,128,72708,2,2,B|288:96,2,40,2|2|10
256,160,72991,2,2,B|224:128,2,40,2|2|2
256,192,73274,2,2,B|288:160,2,40
256,256,73652,1,10
160,320,74029,5,2
160,319,74218,2,2,B|98:245,1,80,2|10
108,257,74595,1,6
128,192,74784,1,2
135,182,74878,1,2
142,172,74972,1,2
192,256,75161,2,2,B|192:192,2,40,10|2|2
256,192,75538,1,2
249,182,75633,1,2
242,172,75727,1,2
192,256,75916,2,2,B|192:192,2,40,10|2|6
256,288,76293,5,2
320,256,76482,1,2
384,288,76671,1,10
448,256,76859,1,2
447,158,77049,6,2,B|520:212|429:268,1,120,2|10
202,65,77803,2,2,B|257:-8|313:86,1,120,2|10
65,158,78558,2,2,B|-8:212|83:268,1,120,2|10
327,207,79312,5,2
183,207,79501,1,2
255,326,79689,1,10
352,96,80067,5,2
416,128,80255,1,2
352,160,80444,1,10
416,192,80633,1,6
352,224,80821,1,2
416,256,81010,1,2
352,288,81199,1,10
216,232,81576,6,2,B|251:189|200:144,1,80
152,192,81953,2,2,B|56:192,2,80,10|6|2
216,160,82519,2,2,B|251:203|200:248,1,80,2|10
432,79,83085,5,2
423,88,83180,1,2
415,96,83274,1,2
406,105,83368,1,2
397,114,83463,1,10
389,122,83557,1,2
380,131,83651,1,6
371,140,83746,1,2
364,149,83840,2,2,B|406:184|452:133,2,80,2|2|10
256,288,84595,6,2,B|288:320,2,40
256,96,84972,2,2,B|224:64,2,40,10|2|6
128,192,85350,2,2,B|64:192,2,40
288,224,85727,1,10
288,160,85916,1,2
320,96,86104,6,2,B|416:128,1,80
416,192,86482,2,2,B|320:160,1,80,10|6
360,240,86859,2,2,B|456:272,2,80,2|2|10
192,288,87614,6,2,B|96:256,1,80
96,192,87991,2,2,B|192:224,1,80,10|6
152,144,88368,2,2,B|56:112,2,80,2|2|10
320,96,89123,6,2,B|384:96,1,40
320,160,89406,2,2,B|256:160,1,40,2|10
320,96,89689,1,6
320,160,89878,1,2
320,224,90067,1,2
320,288,90255,1,10
320,288,90444,1,2
191,160,90633,6,2,B|192:268,1,80
296,127,91010,2,2,B|200:127,1,80,10|6
314,236,91387,2,2,B|315:141,1,80
219,268,91765,2,2,B|315:269,1,80,10|2
256,192,92142,2,2,B|256:256,1,40
64,64,96670,5,0
448,320,97048,1,0
448,64,97425,1,0
64,320,97802,1,0
330,255,98180,6,2,B|249:305|159:245,1,160,2|10
178,256,98746,1,6
160,128,99029,1,2
160,144,99123,1,2
160,208,99312,1,10
256,64,99689,5,2
320,96,99878,1,2
256,128,100067,1,10
320,160,100255,1,6
320,288,100633,1,2
256,320,100821,1,10
192,192,101199,2,2,B|111:242|21:182,1,160,2|10
104,160,101765,2,2,B|185:110|275:170,1,160,6|2
320,192,102331,2,2,B|362:222|408:192,1,80,10|2
408,192,102614,1,2
322,265,102897,5,2
322,264,103085,2,2,B|187:265,1,120,10|2
186,264,103463,1,2
256,128,103651,1,2
256,160,103746,1,2
256,192,103840,1,10
96,192,104218,6,2,B|128:160,8,40,2|2|2|2|10|2|6|2|2
96,192,105161,2,2,B|32:256,1,80,2|10
256,192,105727,2,2,B|256:128,8,40,2|2|2|2|10|2|6|2|2
256,192,106670,2,2,B|256:288,1,80,2|10
416,192,107236,2,2,B|384:160,8,40,2|2|2|2|10|2|6|2|2
416,192,108180,2,2,B|480:256,1,80,2|10
320,320,108746,5,2
192,320,109123,1,10
256,128,109689,1,2
256,160,109784,1,2
256,192,109878,1,10
224,320,110255,6,2,B|170:282|182:209,1,120
182,215,110633,1,10
256,256,110821,1,2
288,320,111010,2,2,B|342:282|330:209,1,120,2|10
331,215,111481,1,2
331,215,111575,1,2
128,64,112141,6,2,B|96:96|96:160,1,80,10|2
384,64,112707,2,2,B|416:96|416:160,1,80,2|10
159,128,113273,1,2
160,256,113651,1,10
224,288,113839,1,2
256,288,113934,1,2
320,256,114122,1,2
352,256,114217,1,2
416,288,114405,1,10
416,160,114783,5,2
416,160,114971,1,2
352,64,115349,1,2
352,96,115443,1,2
288,128,115632,1,2
288,160,115726,1,2
224,192,115915,1,10
256,320,116292,5,2
256,320,116481,1,2
288,256,116670,1,10
224,256,116858,1,2
224,256,116953,1,2
256,192,117141,1,2
256,192,117236,1,2
256,128,117424,1,10
256,320,117990,5,2
64,256,118273,1,2
448,224,118556,1,2
160,160,118839,1,2
320,128,119122,1,2
256,224,119311,5,2
192,256,119500,2,2,B|160:192,2,40,2|2|10
256,288,119877,2,2,B|256:352,1,40,2|2
320,256,120160,2,2,B|352:192,3,40,2|2|2|10
192,160,120820,1,2
192,160,121009,1,2
256,128,121198,1,10
256,128,121387,1,2
320,160,121575,1,2
320,160,121764,1,2
256,192,121953,1,10
256,192,122047,1,2
256,192,122141,1,2
186,309,122330,6,2,B|274:374|250:206|279:382|346:298,1,160,2|10
256,192,123085,1,2
256,192,123273,1,2
256,192,123462,1,10
326,75,123839,6,2,B|238:10|262:178|233:2|166:86,1,160,2|10
480,160,124594,1,2
413,160,124783,1,2
376,224,124971,1,10
448,225,125160,2,2,B|448:288|416:320|312:315|302:278|304:214,1,240
303,223,126481,1,10
64,160,126858,1,2
64,160,127236,1,10
303,110,127613,1,2
303,110,127990,1,10
415,191,128368,6,2,B|410:243|355:236,1,80
319,191,128745,2,2,B|267:188|265:243,1,80,10|6
320,192,129122,2,2,B|320:288,2,80,2|2|10
320,192,129594,1,2
320,192,129688,1,2
320,192,129783,1,2
129,302,130066,6,2,B|65:174|193:206|114:46,1,240
193,110,130820,2,2,B|223:211|146:170|186:287,1,160
224,224,131387,6,2,B|320:224,1,80
304,224,131764,1,10
416,192,132141,2,2,B|320:192,1,80
336,192,132519,1,10
224,160,132896,2,2,B|320:160,4,80,2|2|10|2|2
336,192,134028,2,2,B|368:191,2,20,10|0|0
352,96,134405,5,2
352,96,134594,2,2,B|448:128,1,80,2|10
352,288,135160,1,2
352,288,135349,2,2,B|448:256,1,80,2|10
224,256,135915,1,2
224,256,136009,2,2,B|192:320,1,40
160,192,136292,1,10
160,192,136387,2,2,B|128:128,1,40
96,256,136669,2,2,B|64:320,4,40,2|2|2|2|10
32,192,137235,1,2
32,192,137424,5,2
256,96,137801,1,10
480,192,138178,1,2
256,288,138556,1,10
256,192,138744,1,2
256,192,138933,5,2
256,192,139027,1,2
256,192,139122,1,2
320,224,139310,2,2,B|352:288,1,40,10|2
192,224,139594,2,2,B|160:288,1,40
192,64,139877,1,2
320,64,140065,1,10
448,128,140443,6,2,B|532:199|436:275,1,160,2|10
416,197,141009,1,2
384,128,141198,2,2,B|300:199|396:275,1,160,2|10
416,320,141764,1,2
352,288,141953,1,2
288,320,142141,1,2
224,288,142330,1,10
160,320,142519,1,2
96,288,142707,1,2
96,288,142802,1,2
96,288,142896,1,2
32,320,143085,1,10
64,160,143462,6,2,B|96:128,1,40,2|2
128,192,143745,2,2,B|160:224,1,40,2|10
192,160,144028,2,2,B|224:128,1,40
256,192,144311,2,2,B|288:224,1,40
320,160,144595,1,10
344,139,144689,1,2
384,192,144878,1,2
405,215,144972,1,2
448,160,145161,1,2
448,160,145255,1,2
448,160,145349,1,10
448,160,145444,1,2
448,160,145538,1,2
256,208,145726,12,2,146292
384,64,146481,5,2
416,128,146670,2,2,B|488:221,1,80,2|10
384,192,147047,2,2,B|352:256,5,40
288,160,147802,6,2,B|192:160,1,80
248,110,148179,2,2,B|152:110,1,80,2|10
207,59,148556,2,2,B|111:59,1,80
64,64,148934,2,2,B|64:128,1,40
64,255,149311,6,2,B|79:185|135:272|149:137,1,120
223,255,149877,2,2,B|238:185|294:272|308:137,1,120,10|2
383,255,150443,2,2,B|398:185|454:272|468:137,1,120
391,97,151009,6,2,B|353:61|316:102,1,80,2|2
305,97,151292,1,2
288,96,151387,1,10
272,96,151481,1,2
256,96,151575,1,2
239,96,151670,1,2
223,96,151764,1,2
207,96,151858,1,2
190,96,151953,2,2,B|152:60|115:101,1,80,2|10
224,160,152519,5,2
224,160,152708,2,2,B|288:256,1,80,2|10
268,226,153085,1,6
207,268,153274,1,2
200,278,153368,1,2
192,288,153462,1,2
160,224,153651,2,2,B|96:224,2,40,10|2|2
207,182,154028,1,2
200,172,154123,1,2
193,162,154217,1,2
160,224,154405,2,2,B|96:224,2,40,10|2|6
128,288,154783,5,2
64,320,154972,1,2
64,256,155161,1,10
128,224,155349,1,2
65,158,155539,2,2,B|-8:212|83:268,1,120,2|10
447,158,156291,2,2,B|520:212|429:268,1,120,2|10
256,96,157046,6,2,B|256:128,1,20,2|0
160,192,157424,2,2,B|160:224,1,20,2|0
256,288,157801,2,2,B|256:320,1,20,2|0
352,192,158178,2,2,B|352:224,1,20,2|0
256,192,158555,5,0
256,192,158744,1,0
160,288,158933,5,2
256,192,159121,1,2
160,96,159310,1,10
256,192,159499,1,6
352,96,159687,1,2
256,192,159876,1,2
352,288,160065,1,10
440,192,160442,6,2,B|472:224,1,40,2|2
408,160,160725,1,2
408,160,160820,1,10
352,192,161008,2,2,B|352:240,2,40,6|2|2
296,160,161385,1,2
240,128,161574,1,10
240,256,161952,6,2,B|240:312|184:312,1,80,2|2
194,311,162235,1,2
194,311,162329,1,10
128,312,162518,1,6
104,288,162612,1,2
88,256,162706,1,2
104,224,162801,1,2
128,200,162895,1,2
240,256,163084,1,10
415,192,163461,6,2,B|376:184|360:136,1,80,2|2
362,140,163838,1,10
312,96,164027,2,2,B|341:68|390:83,2,80,6|2|2
296,161,164593,2,2,B|256:153|240:105,1,80,10|2
296,240,164970,6,2,B|336:256,2,40,2|2|2
240,200,165348,2,2,B|200:216,2,40,10|2|6
296,160,165725,2,2,B|256:144,2,40,2|2|2
352,200,166102,1,10
160,120,166480,6,2,B|232:48,1,80,2|2
120,136,166857,2,2,B|24:136,1,80,10|6
152,160,167235,2,2,B|200:256,1,80,2|2
144,136,167612,1,8
304,120,167989,5,2
304,80,168084,1,2
368,120,168272,1,2
368,160,168366,1,10
304,208,168555,1,6
304,168,168650,1,2
304,120,168744,1,2
368,160,168933,1,2
368,240,169122,1,10
368,320,169310,1,2
184,328,169499,6,2,B|168:360,1,20,2|0
328,240,169876,2,2,B|344:272,1,20,2|0
184,144,170253,2,2,B|168:176,1,20,2|0
328,56,170631,2,2,B|344:88,1,20,2|0
256,192,171008,5,2
216,264,171197,1,2
200,296,171291,1,2
184,328,171385,1,10
105,310,171574,2,2,B|105:342,4,20,6|2|2|2|2
104,232,171952,2,2,B|104:136,1,80,2|10
248,80,172518,6,2,B|192:96|176:128|176:168,2,120,2|2|6
256,160,173272,2,2,B|312:160,1,40
256,160,173461,2,2,B|256:216,2,40,2|2|10
328,304,174027,6,2,B|304:344,1,40
184,232,174310,2,2,B|208:272,1,40,2|10
256,112,174593,1,6
256,112,174687,1,2
256,112,174782,2,2,B|256:208,2,80,2|2|10
176,208,175536,5,2
120,264,175725,1,2
184,312,175914,1,10
256,344,176102,1,6
328,312,176291,1,2
392,264,176480,1,2
336,208,176669,1,10
256,232,176857,1,2
294,103,177046,6,2,B|251:68|206:119,1,80
256,160,177423,2,2,B|256:256,2,80,10|6|2
220,103,177989,2,2,B|264:68|309:119,1,80,2|10
120,184,178555,6,2,B|120:128,7,40,2|2|2|2|10|2|6|2
104,200,179310,2,2,B|58:237|17:187,2,80,2|2|10
432,72,180065,6,2,B|432:120,2,40,2|2|2
432,192,180442,2,2,B|432:248,2,40,10|2|6
432,312,180819,2,2,B|432:376,2,40,2|2|2
256,264,181197,1,10
256,160,181385,1,2
257,53,181575,6,2,B|257:85,1,20,2|0
416,160,181953,2,2,B|416:192,1,20,2|0
352,320,182330,2,2,B|352:352,1,20,2|0
160,320,182707,2,2,B|160:352,1,20,2|0
96,160,183085,2,2,B|96:192,1,20,2|0
