osu file format v9

[General]
AudioFilename: Unhappy Refrain.mp3
AudioLeadIn: 1500
PreviewTime: 87749
Countdown: 0
SampleSet: Soft
StackLeniency: 0.7
Mode: 0
LetterboxInBreaks: 0

[Editor]
DistanceSpacing: 1
BeatDivisor: 2
GridSize: 8

[Metadata]
Title:Unhappy Refrain
Artist:Hatsune Miku
Creator:NatsumeRin
Version:Normal
Source:wowaka
Tags:vocaloid vocaloid2 climbb65588 impossiblexu Garven

[Difficulty]
HPDrainRate:3
CircleSize:3
OverallDifficulty:3
ApproachRate:5
SliderMultiplier:0.96
SliderTickRate:1

[Events]
//Background and Video events
0,0,"BG.png"
Video,1111,"Unhappy Refrain.flv"
//Break Periods
2,29709,37675
2,118485,121968
//Storyboard Layer 0 (Background)
//Storyboard Layer 1 (Fail)
//Storyboard Layer 2 (Pass)
//Storyboard Layer 3 (Foreground)
//Storyboard Sound Samples
//Background Colour Transformations
3,100,163,162,255

[TimingPoints]
1266,292.682926829268,4,1,1,25,1,0
10631,-100,4,2,2,75,0,0
19558,-100,4,2,1,65,0,0
19851,-100,4,2,2,5,0,0
20144,292.682926829268,4,2,1,40,1,0
28924,-100,4,2,1,60,0,0
29509,-100,4,2,1,80,0,0
38875,-100,4,2,1,85,0,0
78680,-100,4,2,1,75,0,0
81022,-100,4,2,1,85,0,0
83363,-100,4,2,1,80,0,0
85704,-100,4,2,1,85,0,0
90095,-100,4,2,1,90,0,0
92436,-100,4,2,1,95,0,0
95070,-100,4,2,1,100,0,1
113802,-100,4,2,1,80,0,0
123168,-100,4,2,1,70,0,0
132534,-100,4,2,2,70,0,0
133119,-100,4,2,1,70,0,0
137217,-100,4,2,2,70,0,0
137509,-100,4,2,1,70,0,0
139558,-100,4,2,1,80,0,0
141900,-100,4,2,1,90,0,0
162973,-100,4,2,1,80,0,0
165314,-100,4,2,1,90,0,0
167656,-100,4,2,1,80,0,0
169997,-100,4,2,1,90,0,0
177168,-100,4,2,1,70,0,0
178778,-100,4,2,1,100,0,0
179363,-100,4,2,1,100,0,1
197802,-100,4,1,1,55,0,1
198022,-100,4,2,1,100,0,0
198095,-100,4,2,1,100,0,1
216826,-100,4,2,1,80,0,0

[Colours]
Combo1 : 170,10,10
Combo2 : 238,238,238
Combo3 : 183,183,183
Combo4 : 122,122,132
Combo5 : 97,104,2

[HitObjects]
400,80,1266,2,0,B|432:176|392:280|288:304,1,240,2|0
184,288,2436,2,0,B|112:264|72:160|104:80,1,240,2|0
224,16,3607,2,0,B|296:56|296:112|256:128|208:112|208:56|296:8,1,240,2|0
424,56,4778,1,2
488,128,5070,2,0,B|488:272,1,144,2|0
352,328,5948,6,0,B|288:344|176:264|184:176,1,240,2|0
328,192,7119,2,0,B|336:264|224:344|160:328,1,240,2|0
136,184,8290,1,2
376,184,9022,1,0
328,48,9461,1,2
328,48,9753,2,0,B|288:64|216:64|176:48,1,144,2|0
48,16,10631,5,2
104,96,10924,2,0,B|104:240,1,144,10|8
48,368,11802,1,2
136,328,12095,2,0,B|304:328,1,144,10|8
408,256,12973,1,2
312,240,13265,2,0,B|312:72,1,144,10|8
176,48,14144,1,2
176,144,14436,2,0,B|176:312,1,144,10|8
312,344,15314,38,0,B|368:368|440:328,1,96,2|10
456,208,16046,1,8
352,112,16485,2,0,B|296:88|224:128,1,96,2|10
208,248,17217,1,8
72,288,17656,2,0,B|40:240|80:176,1,96,2|10
176,104,18387,1,8
312,56,18826,2,0,B|344:104|304:168,1,96,2|10
248,272,19558,2,0,B|280:304|360:304|416:248,1,144,8|0
256,192,20144,12,6,28924
256,192,29509,5,4
432,208,38875,6,0,B|240:120,1,192,0|2
152,32,39900,2,0,B|104:128|104:128|48:176|64:256,1,240,2|0
256,256,41217,1,2
360,352,41656,2,0,B|400:336|416:272|400:232|400:232|488:232,1,192
456,88,42680,2,0,B|352:88,1,96,2|0
176,40,43558,38,0,B|224:80|208:152|128:176|88:120,1,192,0|2
216,224,44583,2,0,B|256:216|304:152|296:88,1,144,2|0
312,16,45314,1,2
168,144,45900,2,0,B|112:160|72:256|104:320,1,192,2|0
240,272,46924,1,0
384,272,47363,2,0,B|392:320|344:368,1,96,2|0
464,200,48241,6,0,B|432:160|360:152|312:192,3,144,2|0|2|0
208,248,49997,1,2
152,328,50290,1,0
72,272,50583,6,0,B|40:240|40:168|72:128,3,144,2|0|2|0
168,32,52339,1,2
248,80,52631,1,0
336,48,52924,38,0,B|352:88|344:128|304:160|304:160|304:256,1,192,2|0
336,368,53948,1,0
480,336,54387,2,0,B|480:240,1,96,2|0
440,152,54973,1,0
480,64,55265,2,0,B|424:32|336:32|264:80,1,192,2|0
352,192,56290,2,0,B|296:232|168:232|88:184,1,240,2|2
296,120,57607,6,0,B|248:168|264:264|344:280,1,192,0|2
216,360,58631,2,0,B|152:328|112:216|152:128,1,240,2|0
280,16,59948,1,2
456,88,60534,1,0
328,152,60973,1,0
280,16,61412,2,0,B|240:64|152:88|64:64,1,192,2|0
56,152,62290,6,0,B|56:248|56:248|112:280|96:368,1,192,0|2
232,264,63314,2,0,B|264:312|256:360|256:360|344:360|344:360|400:312,1,240,2|0
496,176,64631,2,0,B|448:112|376:112|376:112|328:168,1,192,2|0
408,280,65656,1,0
264,272,66095,2,0,B|160:272,1,96,2|0
80,104,66973,38,0,B|128:104|184:80|216:40,3,144,2|0|2|0
352,24,68729,1,2
424,88,69022,1,0
456,176,69314,6,0,B|464:224|448:288|400:320,3,144,2|0|2|0
280,360,71070,1,2
184,344,71363,1,0
88,360,71656,6,0,B|88:304|120:272|120:272|88:240|88:176,1,192,2|0
232,184,72680,1,0
168,56,73119,2,0,B|208:32|264:40,1,96,2|0
344,88,73704,1,0
384,176,73997,2,0,B|368:232|432:320|496:312,1,192,2|0
352,360,75022,2,0,B|312:344|272:280|280:224,1,144,2|0
280,144,75753,1,2
280,144,76339,38,0,B|240:120|176:120|136:152,1,144,2|2
216,272,77217,1,2
280,344,77509,2,0,B|320:368|384:368|424:336,1,144,2|2
368,112,78680,5,0
176,80,79265,1,0
144,272,79851,1,0
336,304,80436,1,0
368,112,81022,6,0,B|344:152|272:168|224:144,1,144,2|2
104,104,81900,1,2
192,64,82192,2,0,B|216:24|288:8|336:32,1,144,2|2
304,264,83363,37,0
128,336,83948,1,0
56,160,84534,1,0
232,80,85119,1,0
408,160,85704,6,0,B|432:200|432:272|400:320,1,144,0|2
288,232,86583,1,2
208,184,86875,2,0,B|184:144|184:72|216:24,1,144,2|2
440,104,88046,5,4
368,280,88631,1,0
176,304,89217,1,0
216,216,89509,1,2
256,128,89802,1,0
344,176,90095,38,0,B|368:120|336:72,1,96,2|4
168,80,91265,2,0,B|144:136|176:184,1,96,2|4
256,32,92436,2,0,B|256:144,1,96,2|4
256,224,93022,1,2
322,292,93314,2,0,B|289:325|214:327|187:288,2,144,2|2|2
322,292,94485,1,2
448,168,95070,5,2
256,168,95656,1,2
72,120,96241,2,0,B|40:168|80:224,2,96,2|2|4
256,72,97412,1,2
256,168,97704,1,2
304,256,97997,1,0
384,136,98436,2,0,B|424:152|456:216|448:264,1,144,2|0
376,320,99168,2,0,B|344:360|280:352,1,96,2|0
216,296,99753,5,2
24,296,100339,1,2
120,128,100924,2,0,B|120:32,2,96,2|6|4
304,80,102095,2,0,B|368:72|440:96|472:152,1,192,2|0
328,176,103119,2,0,B|384:176|424:232|416:288,1,144,2|0
368,352,103851,1,2
280,320,104143,1,0
192,288,104436,38,0,B|152:264|96:272|96:272|64:312|80:368,1,192,2|2
280,320,105607,1,2
264,224,105900,1,2
176,192,106192,1,4
264,24,106778,2,0,B|320:24|360:56,1,96,2|0
416,128,107363,2,0,B|456:168|360:232|440:280,2,144,2|2|0
328,160,108534,1,2
272,240,108826,1,0
336,312,109119,6,0,B|296:360|208:384|128:352,1,192,2|2
144,168,110290,2,0,B|200:184|248:144,1,96,2|6
288,72,110875,1,4
456,160,111461,1,2
400,240,111753,1,0
320,296,112046,2,0,B|256:336|176:312,2,144,2|2|0
312,200,113217,1,2
160,96,113802,6,0,B|64:96,2,96,2|2|2
328,8,114973,2,0,B|368:96,1,96,2|2
408,184,115558,1,2
240,272,116143,2,0,B|200:184,1,96,2|2
160,96,116728,1,2
160,96,117314,2,0,B|216:80|272:112,2,96,2|2|2
456,232,123168,38,0,B|272:152,1,192,4|0
128,40,124339,2,0,B|88:120|88:120|40:160|56:216,1,192
248,224,125509,2,0,B|264:264|248:320|216:352|216:352|296:352,1,192
360,328,126387,1,0
432,264,126680,2,0,B|448:216|448:168|424:120|424:120|464:88,1,192
280,32,127851,6,0,B|96:120,1,192,4|0
24,160,128729,1,0
104,208,129022,2,0,B|80:256|8:256,2,96
288,160,130192,2,0,B|360:152|440:184|464:256,1,192
264,248,131363,2,0,B|192:256|112:224|88:152,1,192
128,80,132241,1,0
224,80,132534,6,0,B|432:80,1,192,4|0
248,168,133704,2,0,B|456:168,1,192,4|0
272,256,134875,2,0,B|480:256,1,192,4|0
296,344,136046,2,0,B|248:376|144:376|96:328,1,192,4|0
96,152,137217,38,0,B|8:200,1,96,4|0
8,104,137802,2,0,B|96:56,1,96
176,104,138387,2,0,B|224:128|320:120|360:72,1,192,4|0
176,16,139558,1,8
432,248,141900,6,0,B|400:304|312:328|232:288,1,192,0|2
128,344,142924,2,0,B|104:304|112:240|152:208,1,144,2|0
224,152,143656,1,2
296,216,143948,1,0
384,168,144241,2,0,B|424:136|440:80|416:32|416:32|368:32,1,192,2|0
232,32,145265,1,0
112,120,145704,2,0,B|64:160|88:240,1,96,2|0
264,280,146583,6,0,B|368:280,2,96,0|2|2
312,144,147607,1,0
448,96,148046,2,0,B|472:144|448:200,1,96,2|0
304,312,148924,2,0,B|256:344|160:344|112:312,1,192,2|0
16,216,149948,1,0
160,240,150387,2,0,B|208:264|272:232,1,96,2|0
384,104,151265,38,0,B|400:152|384:216|328:248,1,144,2|0
208,272,152143,2,0,B|192:224|208:160|264:128,1,144,2|0
346,234,153022,1,2
296,312,153314,1,0
208,272,153607,6,0,B|176:232|169:166|211:117,1,144,2|0
320,56,154485,2,0,B|351:95|358:161|316:210,1,144,2|0
198,136,155363,1,2
224,40,155656,1,0
320,56,155948,6,0,B|424:56,2,96,2|0|0
320,200,156973,2,0,B|328:256|288:312|224:328,1,144,2|0
160,344,157704,1,0
40,192,158290,1,2
160,40,158875,2,0,B|200:16|280:16|336:48,2,144,0|2|0
96,112,160046,1,2
264,200,160631,38,0,B|304:224|368:224|404:192,1,144,2|2
288,104,161509,1,2
200,136,161802,2,0,B|160:112|96:112|60:144,1,144,2|2
136,368,162973,5,0
328,368,163558,1,0
392,184,164143,1,0
232,72,164729,1,0
80,184,165314,6,0,B|96:232|160:264|216:256,1,144,2|2
328,200,166192,1,2
240,168,166485,2,0,B|224:120|160:88|104:96,1,144,2|2
72,328,167656,37,0
256,264,168241,1,0
440,320,168826,1,0
256,264,169412,2,0,B|256:136,1,96,0|4
188,100,169997,6,0,B|218:70|292:70|323:99,1,144,2|2
440,180,170875,1,2
390,262,171168,2,0,B|360:292|286:292|255:263,1,144,2|2
128,192,172046,6,0,B|128:88,1,96,0|4
88,280,172924,1,0
256,368,173509,1,0
424,280,174095,1,0
464,192,174387,38,0,B|487:141|459:96,1,96,2|4
50,99,175558,2,0,B|28:144|52:193,1,96,2|4
256,144,176729,2,0,B|256:264,1,96,2|4
256,192,177095,12,4,178778
152,128,179363,5,2
256,288,179948,1,2
360,128,180534,2,0,B|416:160|416:224,2,96,2|2|4
272,96,181412,1,0
216,176,181704,2,0,B|176:224|88:248|24:224,1,192,2|0
136,120,182729,1,2
272,96,183168,1,0
312,184,183461,2,0,B|312:280,1,96,2|0
360,368,184046,5,2
496,232,184631,1,2
360,96,185217,2,0,B|312:72|264:96,1,96,2|6
184,144,185802,1,4
104,320,186387,1,2
24,144,186973,1,0
104,24,187412,2,0,B|248:24,1,144,2|0
328,72,188143,2,0,B|360:120|320:176,1,96,2|0
272,240,188729,37,2
80,240,189314,1,2
248,328,189900,2,0,B|352:328,2,96,2|2|4
56,328,191070,2,0,B|96:280|88:184|32:136,1,192,2|0
136,40,192095,1,2
264,96,192534,2,0,B|384:96,2,96,0|2|0
176,128,193412,5,2
176,320,193997,1,2
296,168,194583,2,0,B|320:120|288:72,1,96,2|6
376,32,195168,1,4
376,224,195753,2,0,B|176:224,1,192,2|0
40,224,196778,1,2
184,224,197217,1,0
184,224,197509,22,0,B|304:224,1,96,0|4
376,224,198095,5,6
272,64,198680,1,6
112,168,199265,1,6
216,328,199851,1,6
408,328,200436,54,0,B|464:312|504:224|464:160,1,192,2|0
376,56,201461,1,2
248,120,201900,2,0,B|128:120,1,96,0|2
96,200,202485,1,0
64,288,202778,6,0,B|120:320|200:320|264:280,1,192,2|2
440,288,203948,1,2
496,208,204241,1,6
480,112,204534,1,4
296,48,205119,2,0,B|296:152,2,96,2|0|2
160,96,206143,1,0
72,216,206583,2,0,B|104:256|160:248,1,96,2|0
248,216,207168,1,0
288,304,207461,53,2
208,128,208046,1,2
384,56,208631,2,0,B|416:96|400:152,2,96,2|2|4
440,240,209802,2,0,B|432:304|360:368|280:368,1,192,2|0
176,320,210826,1,2
128,184,211265,2,0,B|176:160|232:184,2,96,0|2|0
56,240,212143,5,2
56,240,212729,1,2
56,48,213314,2,0,B|112:48|152:8,1,96,2|6
232,48,213900,1,4
408,128,214485,2,0,B|448:184|416:288|336:304,1,192,2|0
224,256,215509,1,2
112,168,215948,2,0,B|64:272,1,96,0|2
256,320,216826,54,0,B|304:216,2,96,2|2|2
336,144,217997,1,2
424,184,218290,1,2
464,272,218583,1,2
416,88,219168,5,2
336,144,219461,1,2
240,136,219753,1,2
80,32,220339,2,0,B|32:72|24:168|72:216,1,192,2|2
256,192,221509,5,4
