osu file format v14

[General]
AudioFilename: .mp3
AudioLeadIn: 0
PreviewTime: 127312
Countdown: 0
SampleSet: None
StackLeniency: 0.7
Mode: 0
LetterboxInBreaks: 1
WidescreenStoryboard: 0

[Editor]
DistanceSpacing: 0.8
BeatDivisor: 4
GridSize: 4
TimelineZoom: 2.2

[Metadata]
Title:Umiyuri Kaiteitan
TitleUnicode:ウミユリ海底譚
Artist:Hatsune Miku
ArtistUnicode:初音ミク
Creator:Daylight-
Version:UMIYURI
Source:
Tags:ナブナ n-buna Vocaloid
BeatmapID:716846
BeatmapSetID:322420

[Difficulty]
HPDrainRate:6.6
CircleSize:4
OverallDifficulty:7.5
ApproachRate:9.4
SliderMultiplier:2
SliderTickRate:1

[Events]
//Background and Video events
0,0,"BG.png",0,0
//Break Periods
2,12012,27022
2,44511,226522
//Storyboard Layer 0 (Background)
//Storyboard Layer 1 (Fail)
//Storyboard Layer 2 (Pass)
//Storyboard Layer 3 (Foreground)
//Storyboard Sound Samples

[TimingPoints]
2062,250,4,3,0,15,1,0
2062,-100,4,3,0,100,0,0
62062,-76.9230769230769,4,3,0,100,0,1
69062,-100,4,3,0,100,0,0
70062,-76.9230769230769,4,3,0,100,0,1
78062,-100,4,3,0,100,0,0
94062,-142.857142857143,4,3,0,100,0,0
102062,-142.857142857143,4,3,0,100,0,0
110062,-100,4,3,0,100,0,0
128062,-76.9230769230769,4,3,0,100,0,1
135062,-100,4,3,0,100,0,0
136062,-76.9230769230769,4,3,0,100,0,1
143562,-100,4,3,0,100,0,0
144062,-142.857142857143,4,3,0,100,0,0
160062,-100,4,3,0,100,0,0
176062,-142.857142857143,4,3,0,100,0,0
184062,-142.857142857143,4,3,0,100,0,0
192062,-76.9230769230769,4,3,0,100,0,1
196062,-66.6666666666667,4,3,0,100,0,1
208062,-76.9230769230769,4,3,0,100,0,0
212062,-100,4,3,0,100,0,0

[Colours]
Combo1 : 36,70,132
Combo2 : 0,255,255
Combo3 : 128,128,128
Combo4 : 0,0,255

[HitObjects]
45,190,2062,5,0,0:0:0:0:
256,112,2562,1,0,0:0:0:0:
256,112,3062,2,0,L|368:96,2,100,4|0|4,0:0|0:0|0:0,0:0:0:0:
176,152,3437,1,0,0:0:0:0:
144,176,3562,2,0,L|32:192,2,100,4|0|4,0:0|0:0|0:0,0:0:0:0:
354,97,4062,5,2,0:0:0:0:
428,160,4187,1,0,0:0:0:0:
440,252,4312,2,0,L|416:356,1,100,2|2,0:0|0:0,0:0:0:0:
319,364,4562,5,0,0:0:0:0:
245,301,4687,1,0,0:0:0:0:
233,209,4812,2,0,L|257:105,1,100,2|0,0:0|0:0,0:0:0:0:
176,12,5062,2,0,L|152:116,1,100
36,208,5312,2,0,L|60:104,1,100,2|0,0:0|0:0,0:0:0:0:
176,12,5562,2,0,L|284:48,1,100
364,72,5812,5,2,0:0:0:0:
452,100,5937,1,0,0:0:0:0:
476,244,6062,2,0,L|368:208,1,100
288,184,6312,1,2,0:0:0:0:
192,152,6437,1,2,0:0:0:0:
148,240,6562,2,0,L|208:320,1,100
304,284,6812,2,0,L|408:248,1,100,2|0,0:0|0:0,0:0:0:0:
488,220,7062,1,0,0:0:0:0:
488,216,7312,6,0,L|468:108,1,100,2|0,0:0|0:0,0:0:0:0:
452,32,7562,2,0,L|384:112,1,100,0|2,0:0|0:0,0:0:0:0:
316,180,7812,1,2,0:0:0:0:
204,228,7937,1,2,0:0:0:0:
68,232,8062,1,0,0:0:0:0:
40,220,8187,1,0,0:0:0:0:
72,96,8312,1,2,0:0:0:0:
44,84,8437,1,0,0:0:0:0:
184,144,8562,6,0,L|296:176,1,100
352,244,8812,2,0,L|464:276,1,100,2|0,0:0|0:0,0:0:0:0:
280,171,9062,2,0,L|312:59,1,100
184,144,9312,2,0,L|152:256,2,100,2|0|0,0:0|0:0|0:0,0:0:0:0:
120,344,9812,5,2,0:0:0:0:
400,344,10062,1,0,0:0:0:0:
256,104,10312,2,0,L|256:0,2,100,2|2|0,0:0|0:0|0:0,0:0:0:0:
328,256,10812,6,0,P|248:276|176:248,1,150,2|0,0:0|0:0,0:0:0:0:
128,208,11062,2,0,P|148:144|180:108,1,100,4|0,0:0|0:0,0:0:0:0:
344,118,11312,2,0,P|384:196|380:228,1,100
256,4,11562,6,0,L|256:208,1,200,4|2,0:0|0:0,0:0:0:0:
256,192,27562,5,0,0:0:0:0:
256,304,27812,2,0,B|404:304|404:304|448:248,2,200
80,216,28562,2,0,P|68:160|84:96,1,100
180,28,28812,2,0,P|192:84|176:148,1,100
80,216,29062,2,0,P|72:280|188:352,2,200
336,32,29812,5,0,0:0:0:0:
404,328,30062,5,0,0:0:0:0:
268,288,30312,6,0,L|168:272,1,100
164,176,30562,2,0,L|64:160,1,100
56,64,30812,1,0,0:0:0:0:
336,32,31062,5,0,0:0:0:0:
400,280,31312,6,0,P|368:324|312:332,1,100
204,320,31562,1,0,0:0:0:0:
120,260,31687,1,0,0:0:0:0:
84,168,31812,1,0,0:0:0:0:
428,168,32062,1,0,0:0:0:0:
308,320,32312,5,0,0:0:0:0:
392,260,32437,1,0,0:0:0:0:
428,168,32562,2,0,P|424:104|308:48,1,200
84,168,33062,6,0,P|96:240|120:272,1,100
204,320,33312,2,0,P|260:332|392:256,1,200
256,28,33812,5,0,0:0:0:0:
128,344,34062,1,0,0:0:0:0:
432,160,34312,1,0,0:0:0:0:
80,160,34562,1,0,0:0:0:0:
384,344,34812,1,0,0:0:0:0:
256,192,35062,5,0,0:0:0:0:
224,108,35187,1,0,0:0:0:0:
144,72,35312,1,0,0:0:0:0:
32,232,35562,1,0,0:0:0:0:
64,316,35687,1,0,0:0:0:0:
144,352,35812,1,0,0:0:0:0:
256,192,36062,2,0,P|296:100|384:64,2,200
232,296,36687,1,0,0:0:0:0:
144,352,36812,1,0,0:0:0:0:
372,32,37062,1,0,0:0:0:0:
144,352,37312,5,0,0:0:0:0:
120,88,37562,1,0,0:0:0:0:
192,24,37687,1,0,0:0:0:0:
208,120,37812,2,0,L|268:320,1,200
504,220,38312,2,0,L|444:20,1,200
372,88,38687,1,0,0:0:0:0:
356,0,38812,1,0,0:0:0:0:
144,352,39062,5,0,0:0:0:0:
116,36,39312,1,0,0:0:0:0:
152,120,39437,1,0,0:0:0:0:
240,164,39562,1,0,0:0:0:0:
348,168,39687,1,0,0:0:0:0:
296,68,39812,1,0,0:0:0:0:
240,164,39937,1,0,0:0:0:0:
260,276,40062,6,0,P|332:320|436:272,1,200
296,68,40562,2,0,P|224:24|120:72,1,200
152,328,41062,2,0,L|116:224,2,100
44,8,41562,1,0,0:0:0:0:
119,233,41812,5,0,0:0:0:0:
252,28,42062,1,0,0:0:0:0:
320,104,42187,1,0,0:0:0:0:
424,124,42312,1,0,0:0:0:0:
508,84,42437,1,0,0:0:0:0:
424,24,42562,1,0,0:0:0:0:
424,124,42687,1,0,0:0:0:0:
368,212,42812,2,0,P|272:260|176:236,1,200
52,84,43187,5,0,0:0:0:0:
52,76,43312,2,0,P|148:28|244:52,1,200
312,128,43687,1,0,0:0:0:0:
352,236,43812,1,0,0:0:0:0:
248,276,43937,1,0,0:0:0:0:
208,172,44062,6,0,P|132:88|36:76,1,200
92,68,227062,6,0,L|196:88,1,100
260,168,227312,2,0,L|360:144,1,100
444,72,227562,2,0,P|488:192|436:260,1,200
