osu file format v9

[General]
AudioFilename: Tsurupettan.mp3
AudioLeadIn: 3000
PreviewTime: 48372
Countdown: 2
SampleSet: Soft
StackLeniency: 0.7
Mode: 0
LetterboxInBreaks: 1

[Editor]
DistanceSpacing: 0.7
BeatDivisor: 1
GridSize: 8

[Metadata]
Title:Tsurupettan
Artist:Hatsune Miku
Creator:mi sa
Version:Miku
Source:Vocaloid
Tags:Nharox Silver Forest OnosakiHito Rokodo

[Difficulty]
HPDrainRate:3
CircleSize:4
OverallDifficulty:3
ApproachRate:3
SliderMultiplier:0.8
SliderTickRate:1

[Events]
//Background and Video events
0,0,"miku.jpg"
//Break Periods
2,69572,78932
2,133572,142932
//Storyboard Layer 0 (Background)
//Storyboard Layer 1 (Fail)
//Storyboard Layer 2 (Pass)
//Storyboard Layer 3 (Foreground)
//Storyboard Sound Samples
//Background Colour Transformations
3,100,163,162,255

[TimingPoints]
373,333.333333333333,4,2,0,90,1,0
5706,-100,4,1,0,80,0,0
16372,-100,4,2,0,50,0,0
21039,-100,4,2,0,70,0,0
21706,-100,4,2,0,50,0,0
26372,-100,4,2,0,80,0,0
27039,-100,4,2,0,70,0,0
37706,-100,4,2,0,80,0,0
48372,-100,4,1,0,80,0,1
59039,-100,4,1,0,90,0,1
69706,-100,4,1,0,70,0,0
80372,-100,4,2,0,50,0,0
85706,-100,4,2,0,60,0,0
90372,-100,4,2,0,80,0,0
91039,-100,4,2,0,70,0,0
101696,-100,4,2,0,80,0,0
112372,-100,4,1,0,80,0,1
123039,-100,4,1,0,90,0,1
133706,-100,4,1,0,70,0,0
144372,-100,4,1,0,80,0,0
149706,-100,4,1,0,90,0,0
155039,-100,4,2,0,50,0,0

[HitObjects]
32,192,5706,1,0
144,192,6372,1,0
256,192,7039,1,0
368,192,7706,1,2
480,192,8372,5,0
368,192,9039,1,0
256,192,9706,1,0
144,192,10373,1,2
32,192,11039,5,0
88,288,11706,1,0
144,192,12373,1,0
200,96,13039,1,2
256,192,13706,5,0
312,288,14373,1,0
368,192,15039,1,0
424,96,15706,1,2
440,208,16372,6,0,B|280:208,3,160
232,104,19039,2,0,B|72:104,2,160
232,216,21039,5,0
288,216,21372,1,8
344,216,21706,6,0,B|344:56,3,160
232,88,24372,2,0,B|232:8,2,80
192,128,25372,2,0,B|112:128,2,80
248,144,26372,5,0
288,184,26706,1,8
256,192,27039,12,4,29706
200,192,31039,5,8
312,192,31706,1,8
256,192,32372,12,4,36372
200,96,37706,5,2
312,96,38372,1,2
256,192,39039,1,2
200,288,39706,1,2
312,288,40373,1,2
96,224,41706,5,8
96,112,42373,1,8
192,168,43039,5,2
416,168,44373,1,2
256,320,45706,2,0,B|256:240,7,80,2|2|2|2|2|2|2|6
200,216,48373,5,0
256,120,49039,1,0
312,216,49706,1,0
256,312,50373,1,2
256,200,51039,5,0
256,88,51706,1,0
368,88,52373,1,0
368,200,53039,1,2
256,200,53706,5,0
256,88,54373,1,0
144,88,55039,1,0
144,200,55706,1,2
144,312,56373,5,0
256,312,57039,1,0
368,312,57706,1,0
368,200,58373,1,2
256,192,59039,12,2,61039
256,192,61706,12,2,63706
56,192,64373,1,0
112,192,64706,1,0
168,192,65039,1,0
224,192,65373,1,0
280,192,65706,1,0
336,192,66039,1,0
392,192,66373,1,0
448,192,66706,1,2
448,192,67039,5,0
392,192,67373,1,0
336,192,67706,1,0
280,192,68039,1,0
224,192,68373,1,0
168,192,68706,1,0
112,192,69039,1,0
56,192,69372,1,2
256,80,80372,5,2
256,136,80706,1,2
256,192,81039,1,2
256,248,81372,1,2
256,304,81706,5,2
256,248,82039,1,2
256,192,82372,1,2
256,136,82706,1,2
256,80,83039,6,0,B|176:80,3,80,2|2|2|2
176,24,84372,6,0,B|256:24,3,80,2|0|2|0
256,80,85706,6,0,B|256:240,1,160
360,288,87039,2,0,B|360:128,1,160
464,176,88372,1,0
464,232,88706,1,0
464,288,89039,1,0
352,296,89706,2,0,B|352:376,2,80
352,240,90706,5,8
256,192,91039,12,4,93706
256,152,95039,2,0,B|256:232,3,80,8|8|8|8
256,192,96372,12,4,100372
32,224,101706,5,2
144,224,102372,1,2
256,224,103039,1,2
368,224,103706,1,2
480,224,104372,1,2
256,224,105706,5,8
256,336,106372,1,8
256,224,107039,5,2
256,0,108372,1,2
256,224,109706,2,0,B|256:304,7,80,2|2|2|2|2|2|2|6
200,320,112372,5,0
288,248,113039,1,0
200,176,113706,1,0
288,104,114372,1,2
200,32,115039,5,0
288,104,115706,1,0
376,176,116372,1,0
464,104,117039,1,2
376,176,117706,5,0
288,248,118372,1,0
200,176,119039,1,0
288,104,119706,1,2
200,176,120372,5,0
112,248,121039,1,0
24,176,121706,1,0
112,112,122372,1,2
256,192,123039,12,2,125039
256,192,125706,12,2,127706
216,72,128372,1,0
176,112,128706,1,0
136,152,129039,1,0
96,192,129372,1,2
136,232,129706,5,0
176,272,130039,1,0
216,312,130372,1,0
256,352,130706,1,2
296,312,131039,5,0
336,272,131372,1,0
376,232,131706,1,0
416,192,132039,1,2
376,152,132372,5,0
336,112,132706,1,0
296,72,133039,1,0
256,32,133372,1,2
104,80,144372,5,0
104,136,144706,1,0
160,136,145039,1,0
216,136,145372,1,0
272,136,145706,1,0
328,136,146039,1,0
384,136,146372,1,0
440,136,146706,1,2
440,192,147039,5,0
440,248,147372,1,0
384,248,147706,1,0
328,248,148039,1,0
272,248,148372,1,0
216,248,148706,1,0
160,248,149039,1,0
104,248,149372,1,2
104,192,149706,6,0,B|184:192,7,80,0|0|0|0|0|0|0|2
240,192,152372,6,0,B|320:192,7,80,0|0|0|0|0|0|0|2
