osu file format v9

[General]
AudioFilename: Tsurupettan.mp3
AudioLeadIn: 3000
PreviewTime: 48372
Countdown: 1
SampleSet: Normal
StackLeniency: 0.7
Mode: 0
LetterboxInBreaks: 1

[Editor]
DistanceSpacing: 0.9
BeatDivisor: 4
GridSize: 8

[Metadata]
Title:Tsurupettan
Artist:Hatsune Miku
Creator:mi sa
Version:Gumi
Source:Vocaloid
Tags:Nharox Silver Forest OnosakiHito Rokodo

[Difficulty]
HPDrainRate:4
CircleSize:5
OverallDifficulty:6
ApproachRate:6
SliderMultiplier:1.4
SliderTickRate:1

[Events]
//Background and Video events
0,0,"miku.jpg"
//Break Periods
//Storyboard Layer 0 (Background)
//Storyboard Layer 1 (Fail)
//Storyboard Layer 2 (Pass)
//Storyboard Layer 3 (Foreground)
//Storyboard Sound Samples
//Background Colour Transformations
3,100,163,162,255

[TimingPoints]
373,333.333333333333,4,1,0,90,1,0
5706,-100,4,1,0,80,0,0
16372,-100,4,2,0,50,0,0
16456,-100,4,2,0,50,0,0
18372,-100,4,2,0,60,0,0
18456,-100,4,2,0,60,0,0
19039,-100,4,2,0,50,0,0
21039,-100,4,2,0,70,0,0
21706,-100,4,2,0,50,0,0
26372,-100,4,2,0,80,0,0
27039,-100,4,2,0,70,0,0
37706,-100,4,2,0,80,0,0
48372,-100,4,1,0,80,0,1
59039,-100,4,1,0,90,0,1
69706,-100,4,1,0,70,0,0
80372,-100,4,2,0,50,0,0
85706,-100,4,2,0,60,0,0
85789,-100,4,2,0,60,0,0
87706,-100,4,2,0,70,0,0
87789,-100,4,2,0,70,0,0
88372,-100,4,2,0,60,0,0
90372,-100,4,2,0,80,0,0
91039,-100,4,2,0,70,0,0
101706,-100,4,2,0,80,0,0
112372,-100,4,1,0,80,0,1
123039,-100,4,1,0,90,0,1
133706,-100,4,1,0,70,0,0
144372,-100,4,1,0,80,0,0
149706,-100,4,1,0,90,0,0
155039,-100,4,2,0,50,0,0

[HitObjects]
96,64,373,2,0,B|432:328,2,420
384,64,3039,6,0,B|72:344,2,420
128,128,5706,5,0
256,128,6039,1,0
128,192,6372,1,0
256,192,6706,1,0
192,64,7039,2,0,B|192:208,2,140,0|0|4
320,320,8372,5,0
320,192,8706,1,0
384,320,9039,1,0
384,192,9372,1,0
256,256,9706,2,0,B|400:256,2,140,0|0|4
192,256,11039,5,0
192,128,11372,1,0
256,256,11706,1,0
256,128,12039,1,0
128,192,12373,2,0,B|272:192,2,140,0|0|4
384,320,13706,5,0
256,320,14039,1,0
384,256,14373,1,0
256,256,14706,1,0
320,128,15039,2,0,B|320:272,2,140,0|0|4
32,192,16456,6,0,B|144:192,1,105,2|0
96,64,17039,1,0
224,64,17373,1,0
224,192,17706,1,0
96,192,18039,1,0
96,320,18456,2,2,B|208:320,1,105
384,320,19039,5,0
288,224,19372,1,0
288,96,19706,1,0
192,224,20039,1,0
192,96,20372,1,0
320,96,20706,1,0
320,224,21039,2,0,B|320:296,2,70,2|2|2
224,320,21706,5,2
128,224,22039,1,0
224,128,22372,1,0
320,224,22706,1,0
224,320,23039,1,2
128,224,23372,1,0
224,128,23706,2,0,B|224:56,2,70,2|2|2
352,64,24372,5,2
352,192,24706,1,0
224,192,25039,1,2
96,192,25372,1,0
96,320,25706,1,2
224,320,26039,1,0
224,192,26372,2,0,B|224:120,2,70,2|2|4
80,152,27039,6,0,B|-70:368|96:344,1,280,2|0
160,256,28039,1,2
288,320,28372,2,0,B|224:160|304:48,1,280,2|0
480,208,29539,2,0,B|456:376|352:376|312:64,1,420,2|0
256,224,31039,5,2
128,224,31372,1,2
128,96,31706,1,2
256,96,32039,1,4
160,192,32372,6,0,B|440:192,1,280,2|0
448,320,33372,1,2
320,320,33706,1,2
320,32,34372,1,2
320,320,35039,1,4
64,192,35706,1,4
288,192,36206,1,4
416,320,37706,6,0,B|480:160|408:48,1,280,2|0
352,192,38706,1,2
256,64,39039,2,0,B|320:224|240:336,1,280,2|0
128,160,40206,2,0,B|-109:0|360:112,1,420,2|0
288,192,41706,6,0,B|288:336,1,140,2|2
288,192,42373,2,0,B|288:48,1,140,2|2
160,64,43039,6,0,B|160:344,1,280,2|0
288,320,44039,1,2
160,320,44373,2,0,B|416:160,1,280,2|0
128,192,45706,6,0,B|272:192,1,140,2|2
416,192,46373,2,0,B|416:336,1,140,2|2
288,320,47039,1,2
288,192,47373,1,2
288,64,47706,1,2
160,64,48039,1,4
160,192,48373,5,0
288,192,48706,1,0
288,64,49039,1,0
160,64,49373,1,0
288,64,49706,2,0,B|288:208,2,140,0|0|4
256,352,51039,5,0
256,224,51372,1,0
128,224,51706,1,0
128,85,52039,1,0
128,224,52372,2,0,B|128:80,2,140,0|0|4
416,192,53706,5,0
288,192,54039,1,0
416,192,54372,1,0
288,192,54706,1,0
160,192,55039,2,0,B|16:192,2,140,0|0|4
384,192,56373,5,0
384,64,56706,1,0
256,64,57039,1,0
128,64,57373,1,0
128,192,57706,2,0,B|272:192,2,140,0|0|4
32,32,59039,5,0
32,160,59373,1,0
160,160,59706,2,0,B|232:160,2,70,2|2|2
288,160,60373,5,0
416,160,60706,1,0
416,288,61039,2,0,B|416:360,2,70,2|2|2
416,160,61706,5,0
416,288,62039,1,0
288,288,62372,2,0,B|216:288,2,70,2|2|2
288,160,63039,5,0
160,160,63373,1,0
160,32,63706,2,0,B|232:32,2,70,2|2|2
288,32,64373,5,0
288,160,64706,1,0
288,288,65039,2,0,B|288:360,2,70,2|2|2
160,352,65706,5,0
160,224,66039,1,0
160,96,66373,2,0,B|160:24,2,70,2|2|2
288,64,67039,5,0
416,64,67373,1,0
416,192,67706,2,0,B|344:192,2,70,2|2|2
288,192,68373,5,0
160,192,68706,1,0
32,192,69039,2,0,B|104:192,2,70,2|2|2
160,128,69706,5,0
288,128,70039,1,0
288,256,70373,1,0
160,256,70706,1,0
288,256,71039,2,0,B|360:256,4,70,4|0|4|0|4
160,256,72039,1,2
32,224,72373,5,0
160,224,72706,1,0
160,96,73039,1,0
288,96,73373,1,0
304,224,73706,2,0,B|224:224,4,70,4|0|4|0|4
192,224,74706,1,2
64,224,75039,5,0
64,352,75373,1,0
192,352,75706,1,0
320,352,76039,1,0
320,224,76373,2,0,B|320:152,4,70,4|0|4|0|4
448,192,77373,1,2
320,192,77706,5,0
320,64,78039,1,0
192,64,78373,1,0
192,192,78706,1,0
192,64,79039,2,0,B|192:136,4,70,4|0|4|0|4
192,192,80039,1,2
64,192,80372,5,0
192,192,80706,1,0
320,192,81039,2,0,B|392:192,3,70
256,40,82039,5,0
256,160,82372,1,0
256,288,82706,2,0,B|256:360,1,70
32,352,83372,5,0
32,224,83706,1,0
32,96,84039,2,0,B|32:24,1,70
32,224,84706,5,0
160,224,85039,1,0
288,224,85372,2,0,B|288:296,1,70
416,320,85789,6,0,B|344:240,1,105,2|0
224,256,86372,1,0
224,128,86706,1,0
96,128,87039,1,0
96,256,87372,1,0
224,256,87789,2,0,B|312:312,1,105,2|2
480,320,88372,5,0
480,192,88706,1,0
352,192,89039,1,0
480,192,89372,1,0
352,192,89706,1,0
352,64,90039,1,0
224,64,90372,2,0,B|152:64,2,70,2|2|4
80,144,91039,6,0,B|-70:273|104:360,1,280,2|0
160,224,92039,1,2
288,160,92372,2,0,B|224:320|432:336,1,280,2|0
256,256,93539,2,0,B|416:112|40:8,1,420,2|0
64,224,95039,5,2
192,160,95372,1,2
320,224,95706,1,2
448,160,96039,1,2
448,288,96372,6,0,B|365:326|160:256,1,280,2|0
160,128,97372,1,2
320,224,97706,2,0,B|384:64|176:40,1,280,2|0
448,96,99039,2,0,B|448:240,1,140,2|0
320,224,99706,2,0,B|320:80,1,140,2|0
256,192,100372,12,2,101039
448,352,101706,6,0,B|486:269|424:72,1,280,2|0
352,192,102706,1,2
256,96,103039,2,0,B|96:32|80:240,1,280,2|0
256,288,104206,2,0,B|293:452|544:64,1,420,2|0
480,288,105706,5,2
480,160,106039,1,2
352,160,106372,1,2
224,160,106706,1,2
352,96,107039,6,0,B|192:32|88:128,1,280,2|0
192,192,108039,1,2
192,320,108372,2,0,B|352:384|456:288,1,280,2|0
192,224,109706,6,0,B|336:224,1,140,2|2
352,96,110372,2,0,B|208:96,1,140,2|2
96,160,111039,2,0,B|240:160,1,140,2|2
384,160,111706,2,0,B|240:160,1,140,2|4
256,192,112372,5,0
256,192,112706,1,0
256,192,113039,1,0
256,192,113372,1,0
256,192,113706,2,0,B|256:336,2,140,0|0|4
256,192,115039,5,0
256,192,115372,1,0
256,192,115706,1,0
256,192,116039,1,0
256,192,116372,2,0,B|256:48,2,140,0|0|4
256,192,117706,5,0
256,192,118039,1,0
256,192,118372,1,0
256,192,118706,1,0
256,192,119039,2,0,B|400:192,2,140,0|0|4
256,192,120372,5,0
256,192,120706,1,0
256,192,121039,1,0
256,192,121372,1,0
256,192,121706,2,0,B|112:192,2,140,0|0|4
480,32,123039,5,0
352,32,123372,1,0
416,160,123706,2,0,B|416:232,2,70,2|2|2
416,288,124372,5,0
416,160,124706,1,0
288,224,125039,2,0,B|216:224,2,70,2|2|2
160,288,125706,5,0
288,288,126039,1,0
288,160,126372,2,0,B|288:88,2,70,2|2|2
416,192,127039,5,0
288,192,127372,1,0
160,192,127706,2,0,B|160:120,2,70,2|2|2
224,64,128372,5,0
224,192,128706,1,0
224,64,129039,2,0,B|224:136,2,70,2|2|2
352,96,129706,5,0
224,96,130039,1,0
96,96,130372,2,0,B|96:168,2,70,2|2|2
160,224,131039,5,0
288,224,131372,1,0
288,96,131706,2,0,B|216:96,2,70,2|2|2
256,256,132372,5,0
384,256,132706,1,0
256,256,133039,2,0,B|256:184,2,70,2|2|2
128,288,133706,5,0
128,160,134039,1,0
128,32,134372,1,0
128,160,134706,1,0
128,288,135039,2,0,B|128:360,4,70,4|0|4|0|4
128,160,136039,1,2
256,160,136372,5,0
384,224,136706,1,0
256,224,137039,1,0
384,160,137372,1,0
384,288,137706,2,0,B|384:360,4,70,4|0|4|0|4
256,288,138706,1,2
128,288,139039,5,0
256,288,139372,1,0
256,160,139706,1,0
256,32,140039,1,0
384,32,140372,2,0,B|456:32,4,70,4|0|4|0|4
448,128,141372,1,2
448,256,141706,5,0
320,256,142039,1,0
448,256,142372,1,0
448,128,142706,1,0
320,128,143039,2,0,B|248:128,4,70,4|0|4|0|4
288,256,144039,1,2
160,256,144372,5,0
288,256,144706,1,0
288,128,145039,2,0,B|216:128,2,70,2|2|2
416,64,145706,5,0
416,192,146039,1,0
288,192,146372,2,0,B|288:120,2,70,2|2|2
160,192,147039,5,0
160,320,147372,1,0
288,320,147706,2,0,B|344:264,2,70,2|2|2
384,224,148372,5,0
384,96,148706,1,0
256,96,149039,2,0,B|184:96,2,70,2|2|2
384,96,149706,5,0
384,224,150039,1,0
256,224,150372,2,0,B|200:280,2,70,2|2|2
160,320,151039,5,0
160,192,151372,1,0
160,320,151706,2,0,B|160:248,2,70,2|2|2
288,288,152372,5,0
416,288,152706,1,0
416,160,153039,2,0,B|416:88,2,70,2|2|2
288,128,153706,5,0
160,128,154039,1,0
160,256,154372,2,0,B|216:200,2,70,2|2|4
