osu file format v9

[General]
AudioFilename: Tsumiki no Ningyou.mp3
AudioLeadIn: 3000
PreviewTime: 120555
Countdown: 0
SampleSet: Soft
StackLeniency: 0.7
Mode: 0
LetterboxInBreaks: 1

[Editor]
DistanceSpacing: 0.8
BeatDivisor: 4
GridSize: 8

[Metadata]
Title:Tsumiki no Ningyou
Artist:Hatsune Miku
Creator:NatsumeRin
Version:Normal
Source:wowaka
Tags:vocaloid vocaloid2 eveless

[Difficulty]
HPDrainRate:3
CircleSize:3
OverallDifficulty:3
ApproachRate:5
SliderMultiplier:1.2
SliderTickRate:1

[Events]
//Background and Video events
0,0,"Tsumiki no Ningyou.jpg"
//Break Periods
2,38219,46384
2,73871,82326
//Storyboard Layer 0 (Background)
//Storyboard Layer 1 (Fail)
//Storyboard Layer 2 (Pass)
//Storyboard Layer 3 (Foreground)
//Storyboard Sound Samples
//Background Colour Transformations
3,100,163,162,255

[TimingPoints]
1208,289.855072463768,4,2,2,60,1,0
5777,-100,4,2,1,60,0,0
7729,-100,4,2,2,60,0,0
8309,-100,4,2,1,70,0,0
37150,-100,4,2,1,30,0,0
37439,-100,4,2,1,70,0,0
57077,-100,4,1,1,55,0,0
57294,-100,4,1,1,20,0,0
57439,-100,4,1,1,55,0,0
57584,-100,4,2,1,70,0,0
64758,-100,4,2,2,65,0,0
65700,-100,4,1,1,80,0,0
66135,-100,4,2,1,95,0,1
72947,-100,4,2,1,80,0,1
73671,-100,4,2,1,80,0,0
82367,-100,4,2,1,70,0,0
93092,-100,4,1,1,55,0,0
93526,-100,4,1,1,35,0,0
93671,-100,4,2,1,70,0,0
111860,-100,4,1,1,55,0,0
112077,-100,4,1,1,35,0,0
112222,-100,4,2,1,70,0,0
119251,-100,4,2,2,70,0,0
119976,-100,4,1,1,50,0,0
120193,-100,4,1,1,55,0,0
120338,-100,4,1,1,60,0,0
120628,-100,4,2,1,95,0,1
136860,-100,4,2,1,85,0,0
141207,-100,4,1,1,70,0,0
146063,-100,4,2,1,80,0,0

[Colours]
Combo1 : 140,0,0
Combo2 : 238,238,238
Combo3 : 183,183,183
Combo4 : 122,122,132

[HitObjects]
143,121,1207,2,0,B|199:90|262:101,2,120,0|2|0
221,241,2222,2,0,B|273:259|359:236|400:185,1,180,0|2
440,116,2947,1,0
260,49,3526,2,0,B|273:120|226:159,2,120,0|2|0
119,82,4541,2,0,B|68:123|57:210|100:260,1,180,2|2
159,311,5265,1,0
252,333,5555,1,2
344,306,5845,6,0,B|399:284|469:297,2,120,8|2|0
422,184,6860,2,0,B|351:179|280:194|227:244,1,180,0|2
178,288,7584,1,0
91,245,7874,2,0,B|68:189,1,60,8|8
53,143,8164,2,0,B|59:81|126:44,2,120,4|0|0
149,138,9034,1,0
149,138,9179,2,0,B|183:96|268:82|326:98,1,180,2|0
409,117,9903,1,0
409,117,10193,2,0,B|440:189,1,60,8|0
452,216,10483,5,2
391,290,10773,1,8
294,291,11063,1,10
342,155,11497,2,0,B|286:132|203:153|181:208,1,180,8|10
156,295,12222,1,8
67,124,12802,21,10
137,58,13092,1,8
156,151,13381,1,10
283,84,13816,2,0,B|337:62|432:84|454:136,1,180,10|10
359,163,14541,2,0,B|290:155|238:192,1,120,0|8
320,247,15121,6,0,B|378:257|436:223,2,120,10|8|10
202,164,16135,2,0,B|147:137|81:144,1,120,10|0
37,146,16570,1,10
37,242,16860,1,12
210,323,17439,6,0,B|256:354|331:342,2,120,10|8|10
289,202,18454,2,0,B|321:163|322:69|284:23,1,180,10|8
212,88,19179,1,10
138,148,19468,1,0
66,211,19758,22,0,B|60:274|132:308|132:308|193:274|287:288,1,240,4|8
386,298,20773,1,10
464,177,21208,2,0,B|475:108|421:64,1,120,8|2
337,30,21787,1,8
271,100,22077,5,0
181,66,22367,2,0,B|116:60|70:106,1,120,10|8
33,192,22947,2,0,B|37:231|24:261,1,60,2|8
123,244,23381,2,0,B|108:280|120:312,1,60,2|8
209,274,23816,2,0,B|248:257|296:313|347:277,1,120,2|8
346,193,24396,6,0,B|416:208|423:283,2,120,2|10|10
250,188,25265,1,0
250,188,25410,2,0,B|188:185|113:146|94:91,1,180,10|8
126,10,26135,1,0
222,7,26425,1,10
260,94,26715,21,2
181,149,27005,1,8
145,237,27294,1,8
171,329,27584,2,0,B|217:375|355:363|393:292,1,240,2|8
408,206,28454,2,0,B|411:143|450:93,1,120,2|8
392,16,29034,6,0,B|369:80|312:108|312:108|258:72|200:76,1,240,4|8
59,87,30048,1,10
77,229,30483,2,0,B|120:270|194:264,1,120,8|2
284,257,31063,1,8
367,210,31352,6,0,B|396:269|353:325,2,120,0|10|8
330,120,32222,2,0,B|304:64,1,60,2|8
227,123,32657,2,0,B|201:67,1,60,2|8
125,126,33092,2,8,B|69:179|96:252,1,120,10|8
182,205,33671,21,2
197,299,33961,1,8
106,331,34251,1,10
90,234,34541,1,0
90,234,34686,2,0,B|72:180|123:104|204:118,1,180,10|8
285,128,35410,1,2
351,197,35700,1,8
335,291,35990,6,0,B|263:297|228:249,1,120,2|8
276,248,36425,2,0,B|221:207|224:138,1,120,2|8
261,175,36860,2,0,B|241:132|270:65|337:45,2,120,2|8|8
353,147,37729,1,2
353,147,38019,1,12
155,121,47584,6,0,B|108:172|140:238,1,120,4|8
203,302,48164,2,0,B|250:251|218:185,1,120,2|8
199,147,48599,1,2
239,60,48889,1,0
285,46,49034,2,0,B|348:36|401:62,1,120,10|2
477,122,49613,1,8
438,209,49903,21,0
476,297,50193,2,0,B|423:345|292:354|236:318,1,240,10|10
176,259,51063,1,0
113,186,51352,2,0,B|83:208|83:244,2,60,10|2|0
199,142,51932,1,8
287,103,52222,6,0,B|303:144|295:192|256:220,2,120,2|10|0
226,28,53092,2,0,B|149:65,1,60,8|2
141,145,53526,2,0,B|86:201,2,60,0|10|0
175,235,54106,2,0,B|154:304,1,60,0|10
253,300,54541,5,0
348,312,54831,1,10
485,177,55410,1,10
380,15,55990,2,0,B|319:8|257:42,1,120,10|0
181,87,56570,1,8
181,87,56860,21,4
154,179,57150,2,0,B|132:240,2,60,0|0|4
276,254,57874,2,0,B|283:315|222:369|148:368,1,180,2|8
65,350,58599,1,2
25,262,58889,1,8
43,167,59179,6,0,B|113:156|158:88,1,120,0|10
237,127,59758,1,0
329,152,60048,2,0,B|390:172,1,60,10|0
400,265,60483,2,0,B|461:285,2,60,0|10|2
353,250,60918,2,0,B|286:237|215:273,1,120,0|8
152,312,61497,6,0,B|95:341|19:324,2,120,2|8|0
87,240,62367,1,8
133,226,62512,2,0,B|195:194|216:136,1,120,2|0
255,165,62947,2,0,B|299:100|391:96,1,120,10|0
447,113,63526,1,8
468,206,63816,22,0,B|454:270|388:292,1,120,2|8
411,247,64251,2,0,B|360:285|294:282,1,120,2|0
338,254,64686,1,10
338,254,64831,2,0,B|272:265|216:236,1,120,8|8
179,214,65265,1,8
156,171,65410,1,8
155,122,65555,2,0,B|300:122,1,120,10|4
335,46,66135,6,0,B|392:84|368:162,1,120,2|10
275,122,66715,2,0,B|246:196|324:244,1,120,2|8
343,255,67150,1,2
295,338,67439,1,0
247,345,67584,2,0,B|176:356|102:314,1,120,10|2
61,260,68164,1,8
42,215,68309,6,0,B|26:148|55:94,1,120,2|0
77,56,68744,1,10
162,100,69034,1,2
254,75,69323,1,8
254,75,69468,2,0,B|315:80|386:140|392:207,1,180,2|10
418,273,70193,2,0,B|491:255,2,60,2|0|8
370,283,70628,6,0,B|175:325,1,180,2|10
101,345,71352,1,2
60,257,71642,1,8
60,257,71787,2,0,B|255:215,1,180,2|10
330,202,72512,1,10
330,202,72802,1,10
330,202,73092,6,0,B|330:109,2,60,2|0|2
330,202,73671,5,0
109,224,83526,6,0,B|152:264|233:256,1,120,4|8
193,164,84106,2,0,B|258:177|318:143,1,120,0|8
376,78,84686,1,0
465,113,84976,2,0,B|485:184,2,60,8|0|0
390,173,85555,1,8
348,259,85845,21,0
266,309,86135,1,8
176,273,86425,2,0,B|120:251|55:262,1,120,0|8
112,77,87294,2,0,B|164:103|238:89,1,120,8|0
324,73,87874,1,8
395,137,88164,6,0,B|418:200|381:259,2,120,0|8|0
313,189,89034,2,0,B|247:231,1,60,8|0
216,305,89468,2,0,B|150:347,1,60,0|8
70,318,89903,1,0
26,232,90193,1,8
256,192,90483,12,4,92802
256,192,93381,6,0,B|256:256,1,60,0|4
217,340,93816,22,0,B|165:368|68:348|58:284,1,180,8|8
47,200,94541,1,0
66,105,94831,1,8
159,127,95121,2,0,B|228:118|260:61,2,120,0|8|0
159,127,95990,1,8
349,101,96570,2,0,B|417:118|438:182,1,120,8|0
444,272,97150,1,8
385,347,97439,5,0
288,347,97729,1,8
191,347,98019,2,0,B|60:347,1,120,0|8
22,346,98454,1,0
22,249,98744,1,0
42,205,98889,2,0,B|87:89|86:89,1,120,8|0
175,62,99468,1,8
253,117,99758,5,0
347,102,100048,1,8
324,292,100628,1,8
176,169,101207,1,8
266,201,101497,2,0,B|239:261|171:266,1,120,0|8
89,216,102077,22,0,B|64:148|113:98,1,120,0|8
201,80,102657,2,0,B|268:76|326:134,1,120,2|8
343,155,103092,1,2
427,109,103381,1,0
446,152,103526,2,0,B|472:212|448:274,1,120,10|0
395,348,104106,1,10
311,300,104396,5,0
290,206,104686,1,10
222,273,104976,1,2
243,366,105265,1,8
243,366,105410,2,0,B|172:376|116:322|133:252,1,180,2|10
157,168,106135,2,0,B|185:109|144:50,1,120,0|10
75,119,106715,5,0
157,168,107005,1,10
248,138,107294,2,0,B|317:120|377:124,1,120,0|8
414,127,107729,1,2
453,265,108164,2,0,B|440:328|371:344,2,120,2|0|2
358,247,109034,21,2
268,280,109323,1,8
172,290,109613,1,0
85,248,109903,2,0,B|19:180|51:71|51:71|106:120,1,240,10|8
155,175,110773,2,0,B|184:201|184:201|236:201|272:168,1,120,0|10
346,136,111352,1,4
346,136,111932,6,0,B|416:190|415:190,1,60,0|4
470,230,112367,6,0,B|470:292|411:343|319:336,1,180,10|8
257,301,113092,1,2
163,322,113381,1,8
76,280,113671,2,0,B|38:226|57:143,1,120,0|10
87,75,114251,1,0
132,59,114396,1,2
179,66,114541,2,0,B|206:78|252:80,1,60,8|2
333,72,114976,2,0,B|379:70|423:95,1,60,0|10
461,147,115410,2,0,B|482:186|464:244|421:257,1,120,0|8
368,179,115990,21,2
368,179,116280,1,8
368,179,116570,2,0,B|323:234|252:239,1,120,0|8
218,238,117005,1,2
132,195,117294,2,0,B|112:236|126:274,2,60,0|10|0
214,144,117874,2,0,B|227:115|223:73,1,60,0|10
153,18,118309,6,0,B|85:41|68:116,1,120,0|2
119,88,118744,2,0,B|86:144|104:217,1,120,0|2
130,165,119179,1,0
130,165,119323,2,0,B|128:243|192:280,1,120,8|8
216,298,119758,1,8
261,314,119903,1,8
308,322,120048,2,0,B|405:322,2,60,0|8|4
340,231,120628,6,0,B|407:231|449:184,1,120,2|10
474,93,121207,2,0,B|407:93|365:140,1,120,2|8
344,180,121642,1,2
305,267,121932,1,0
258,253,122077,2,0,B|199:213|204:137,1,120,10|2
182,57,122657,1,8
135,70,122802,22,0,B|79:113|89:179,1,120,2|0
95,221,123236,1,10
157,293,123526,1,2
252,306,123816,1,8
252,306,123961,2,0,B|322:306|372:242,1,120,2|0
385,218,124396,2,0,B|469:229,2,60,10|2|0
439,124,124976,1,8
439,75,125121,6,0,B|388:36|308:48,1,120,2|0
325,45,125555,2,0,B|258:60|190:34,1,120,10|2
119,80,126135,1,8
119,80,126280,2,0,B|124:148|69:188,1,120,2|0
72,185,126715,2,0,B|141:201|168:258,1,120,10|2
221,332,127294,1,8
221,332,127439,2,0,B|302:331|345:279,1,120,2|0
331,293,127874,2,0,B|388:248|468:261,1,120,10|2
497,178,128454,6,0,B|434:165,1,60,8|2
364,103,128889,2,0,B|301:90,1,60,0|10
230,30,129323,2,0,B|167:17,1,60,0|10
83,58,129758,22,0,B|47:113|63:189|122:230,1,180,4|10
174,149,130483,2,0,B|229:192|218:266,1,120,2|8
219,302,130918,1,2
303,346,131207,1,0
341,317,131352,2,0,B|396:282|471:288,1,120,10|2
497,200,131932,1,8
450,186,132077,6,0,B|382:170|355:102,1,120,2|0
350,65,132512,1,10
265,19,132802,1,2
205,94,133092,1,8
205,94,133236,2,0,B|213:160|156:208,1,120,2|0
119,222,133671,1,10
92,314,133961,2,0,B|27:332,2,60,2|0|8
139,303,134396,22,0,B|201:285|268:300,1,120,2|0
305,307,134831,1,10
393,270,135121,2,0,B|380:143,1,120,2|8
333,140,135555,2,0,B|281:178|217:181,1,120,2|0
173,180,135990,1,10
173,180,136280,5,10
173,180,136570,5,10
173,180,136860,5,4
385,120,141497,21,4
206,191,142077,2,0,B|121:227,1,60,8|0
61,251,142512,1,8
88,109,142947,2,0,B|207:68,2,120,0|8|0
53,198,143816,5,0
126,259,144106,1,8
202,318,144396,2,0,B|275:377,1,60,8|0
256,192,144831,12,0,146135
328,256,146425,6,0,B|448:256,2,120,8|0|8
184,128,147584,2,0,B|64:128,2,120,8|0|8
369,78,148744,2,0,B|401:137|365:203,1,120,8|0
310,268,149323,1,8
124,316,149903,2,0,B|92:257|128:192,1,120,8|0
184,127,150483,1,8
358,207,151063,21,8
301,284,151352,2,0,B|250:330|190:329,1,120,0|8
57,192,152222,1,8
114,115,152512,2,0,B|165:69|225:70,1,120,0|8
410,108,153381,1,8
456,192,153671,1,0
410,276,153961,1,8
240,192,154541,1,8
144,192,154831,2,0,B|16:192,1,120,0|8
63,279,155410,6,0,B|102:332|197:327,1,120,4|10
255,284,155990,2,0,B|311:252|394:260,1,120,0|8
418,261,156425,1,2
492,137,156860,2,0,B|439:109|376:123,2,120,8|2|8
425,206,157729,5,0
375,123,158019,2,0,B|325:84|248:92,1,120,10|0
169,114,158599,2,0,B|102:137,1,60,10|0
69,219,159034,2,0,B|2:242,1,60,2|8
62,320,159468,2,0,B|117:352|208:333,1,120,2|8
272,318,160048,21,2
344,254,160338,1,10
386,167,160628,1,0
395,71,160918,2,0,B|349:34,1,60,8|2
264,80,161352,2,0,B|200:55,2,60,0|10|0
228,169,161932,2,0,B|163:176,1,60,0|10
72,186,162367,5,0
127,264,162657,1,10
192,83,163236,1,8
317,228,163816,2,0,B|417:343,2,120,10|2|8
317,228,164686,6,0,B|255:154,2,60,0|0|2
317,228,165265,5,4
