osu file format v9

[General]
AudioFilename: Tsubomi Zakura.mp3
AudioLeadIn: 1000
PreviewTime: 55112
Countdown: 0
SampleSet: Soft
StackLeniency: 0.7
Mode: 0
LetterboxInBreaks: 0

[Editor]
DistanceSpacing: 1
BeatDivisor: 4
GridSize: 4

[Metadata]
Title:Tsubomi Zakura
Artist:Hatsune Miku
Creator:Mythol
Version:Insane
Source:YasuoP
Tags:vocaloid2 vocaloid hoLysoup VOCAROCK collection feat.

[Difficulty]
HPDrainRate:6
CircleSize:4
OverallDifficulty:7
ApproachRate:9
SliderMultiplier:2
SliderTickRate:1

[Events]
//Background and Video events
0,0,"mikubg.jpg"
Video,0,"PV.AVI"
//Break Periods
2,12901,21381
2,79200,87679
2,145498,152652
2,168039,176519
//Storyboard Layer 0 (Background)
//Storyboard Layer 1 (Fail)
//Storyboard Layer 2 (Pass)
//Storyboard Layer 3 (Foreground)
//Storyboard Sound Samples
//Background Colour Transformations
3,100,163,162,255

[TimingPoints]
766,331.491712707182,4,2,1,60,1,0
3417,-133.333333333333,4,2,1,60,0,0
4080,-100,4,2,1,60,0,0
12368,-100,4,1,1,60,0,0
33915,-133.333333333333,4,1,1,50,0,0
44522,-100,4,1,1,60,0,0
53804,-100,4,2,1,60,0,0
54799,-100,4,1,1,60,0,0
55130,-100,4,1,1,70,0,1
78998,-100,4,1,1,60,0,0
100213,-133.333333333333,4,1,1,50,0,0
110821,-100,4,1,1,60,0,0
120103,-100,4,2,1,60,0,0
121097,-100,4,1,1,60,0,0
121428,-100,4,1,1,70,0,1
145296,-100,4,1,1,60,0,0
153252,-133.333333333333,4,1,1,60,0,0
167837,-100,4,1,1,60,0,0
178445,-100,4,1,1,70,0,1
188390,-100,4,1,1,70,0,0
189053,-100,4,1,1,70,0,1
199661,-90.9090909090909,4,1,1,70,0,1
213335,-90.9090909090909,4,1,1,70,0,0
213417,625,4,1,1,70,1,1
213495,-90.9090909090909,4,1,1,70,0,0

[Colours]
Combo1 : 255,155,55
Combo2 : 163,70,255
Combo3 : 134,232,253
Combo4 : 94,255,94

[HitObjects]
96,272,766,2,0,B|152:296|212:240,1,100,2|0
263,138,1097,2,0,B|212:120|168:152,1,100,2|0
328,256,1428,1,2
436,176,1594,1,0
468,300,1760,2,0,B|444:348|380:340,1,100,2|0
328,256,2091,6,0,B|236:208|128:260,1,200,2|0
72,336,2589,1,0
200,336,2754,1,2
140,160,2920,1,0
52,212,3086,2,0,B|84:264|156:256,1,100,2|0
272,176,3417,6,0,B|292:80|400:68,2,149.999995529652,2|2|2
357,261,4246,1,0
272,345,4412,1,2
187,260,4578,1,0
273,176,4743,6,0,B|233:136|161:144,1,100,2|0
305,256,5075,2,0,B|356:232|373:161,1,100,2|0
216,252,5406,2,0,B|220:308|281:348,1,100,2|0
241,168,5738,2,0,B|186:153|128:196,1,100,2|0
80,320,6069,6,0,B|128:352|192:336,1,100,2|0
260,284,6401,2,0,B|316:260|380:292,1,100,2|0
444,228,6732,1,2
312,348,6898,1,0
200,204,7064,2,0,B|196:144|240:104,1,100,2|0
360,40,7395,6,0,B|272:72|160:40,1,200,2|0
44,12,7893,1,0
32,120,8058,2,0,B|96:200,1,100,2|0
74,334,8390,2,0,B|12:256,1,100,2|0
152,264,8721,5,2
256,232,8887,1,0
360,264,9053,2,0,B|416:280|464:240,1,100,2|0
432,144,9384,1,2
328,176,9550,1,0
224,144,9716,2,0,B|168:128|120:168,1,100,2|0
256,192,10047,12,0,12036
256,192,12368,5,8
256,207,12451,1,0
256,221,12533,1,0
256,236,12616,1,0
256,251,12699,1,0
356,136,21981,5,8
256,86,22147,1,0
157,136,22312,1,0
156,248,22478,5,8
256,298,22644,1,0
355,248,22810,1,0
356,136,22975,5,8
356,136,23058,1,0
356,136,23141,1,8
356,136,23224,1,0
356,136,23307,1,12
492,172,23473,5,0
416,264,23638,2,0,B|384:312|320:304,1,100,8|0
212,140,23970,2,0,B|269:143|294:203,1,100,8|0
200,372,24301,2,0,B|174:320|213:268,1,100,8|0
64,316,24633,5,0
12,216,24799,1,0
124,213,24964,2,0,B|180:213|212:141,1,100,8|0
311,113,25296,1,0
392,271,25462,1,0
431,151,25627,1,8
269,232,25793,1,0
431,151,25959,5,0
372,56,26125,2,0,B|332:16|268:40,1,100,0|8
180,24,26456,1,0
220,112,26622,2,0,B|268:144|304:192,1,100
136,256,26953,2,0,B|88:224|52:176,1,100,8|0
260,236,27285,5,0
404,340,27451,1,0
296,340,27616,1,8
448,240,27782,1,0
480,132,27948,5,0
368,32,28114,1,8
368,32,28196,1,0
368,32,28279,1,8
244,116,28445,1,8
244,116,28528,1,0
244,116,28611,1,12
328,288,28777,5,0
256,216,28942,2,0,B|204:188|148:228,1,100,8|0
48,136,29274,2,0,B|96:112|160:124,1,100
224,304,29605,2,0,B|176:328|126:318,1,100,8|0
256,192,29937,5,0
420,152,30103,2,0,B|396:104|340:88,2,100,0|8|0
320,232,30600,1,0
480,256,30765,1,0
320,316,30931,1,8
484,336,31097,1,0
396,276,31263,5,0
248,280,31428,2,0,B|200:304|144:292,1,100,0|8
68,220,31760,1,0
172,188,31926,2,0,B|232:188|264:140,1,100
296,52,32257,1,8
436,80,32423,2,0,B|484:152|468:284,1,200
392,340,32920,1,8
312,280,33086,1,0
216,312,33252,5,8
189,295,33335,1,0
166,272,33417,1,8
148,245,33500,1,0
134,216,33583,1,8
124,185,33666,1,0
118,153,33749,1,8
118,121,33832,1,0
123,89,33915,6,0,B|200:112|272:80,1,149.999995529652,4|0
364,164,34412,2,0,B|287:141|208:180,1,149.999995529652,0|0
148,232,34909,1,8
192,312,35075,1,0
280,332,35241,6,0,B|352:344|420:284,1,149.999995529652,0|0
460,188,35738,2,0,B|388:176|316:240,1,149.999995529652,0|0
417,287,36235,1,8
322,234,36401,1,0
396,148,36567,6,0,B|428:84|416:0,1,149.999995529652
332,32,37064,2,0,B|280:64|184:40,1,149.999995529652
96,24,37561,2,8,B|56:44|52:84,1,74.9999977648259,8|0
40,176,37893,5,0
40,176,38058,2,0,B|105:212,1,74.9999977648259
92,300,38390,2,0,B|164:332|236:288,1,149.999995529652
284,212,38887,2,8,B|320:244|328:296,1,74.9999977648259,8|0
360,360,39219,6,0,B|440:364|492:292,1,149.999995529652
432,224,39716,2,0,B|368:180|356:96,1,149.999995529652
412,28,40213,1,8
412,28,40379,1,0
288,28,40545,6,0,B|248:76|148:88,1,149.999995529652
156,176,41042,2,0,B|250:187|290:235,1,149.999995529652
272,348,41539,1,8
272,348,41705,1,0
164,304,41870,6,0,B|188:216|268:196,1,149.999995529652
328,256,42368,2,0,B|386:243|424:140,1,149.999995529652,0|0
484,48,42865,1,8
360,20,43031,1,0
288,128,43196,6,0,B|232:184|144:176,1,149.999995529652
260,244,43694,2,0,B|316:188|404:196,1,149.999995529652
396,195,44191,1,8
280,48,44522,6,0,B|372:48|468:124,1,200
464,240,45020,2,0,B|448:336|324:368,1,200
352,252,45517,1,8
492,348,45683,1,0
326,367,45848,6,0,B|258:315|136:300,1,200
168,120,46346,2,0,B|236:172|358:187,1,200
452,108,46843,1,8
492,296,47009,1,0
492,192,47174,6,0,B|412:248|300:184,1,200
264,20,47672,2,0,B|167:62|175:188,1,200
296,252,48169,1,8
180,312,48335,1,0
292,376,48500,6,8,B|352:376|388:312,1,100
508,312,48832,1,0
424,212,48998,2,8,B|432:152|496:128,1,100
280,156,49329,2,0,B|272:216|208:240,1,100,0|8
190,247,49578,1,0
156,258,49661,1,8
122,250,49743,1,0
87,241,49826,6,0,B|31:234|-16:260,2,100,12|0|12
316,317,50324,2,0,B|292:360|228:356,1,100
368,144,50655,2,0,B|420:156|444:204,1,100,0|8
464,344,50986,6,0,B|372:336|304:232,1,200
209,35,51484,2,0,B|301:43|369:147,1,200,8|0
308,272,51981,1,0
172,236,52147,2,0,B|220:212|236:152,1,100,8|0
348,112,52478,1,0
424,200,52644,5,8
431,230,52727,1,0
428,260,52810,1,8
324,296,52975,5,8
302,317,53058,1,0
274,328,53141,1,8
220,232,53307,5,8
198,209,53390,1,0
188,180,53473,1,8
176,56,53638,5,0
48,108,53804,2,0,B|104:208,1,100
136,316,54136,2,0,B|92:344,2,50,2|0|2
244,356,54467,1,0
284,228,54633,1,0
404,292,54799,1,8
428,273,54882,1,0
447,249,54964,1,8
462,222,55047,1,0
471,193,55130,6,0,B|494:145|464:92,1,100,4|0
320,44,55462,2,0,B|297:92|327:145,1,100,8|8
174,102,55793,1,0
320,44,55959,1,0
232,176,56125,1,8
225,18,56290,1,0
323,140,56456,6,0,B|425:177|472:272,1,200,0|8
470,268,56953,1,0
364,340,57119,1,0
260,268,57285,1,0
156,340,57451,1,8
52,268,57616,1,0
62,368,57782,6,0,B|122:368|166:332,1,100
160,180,58114,2,0,B|220:176|252:209,1,100,8|0
276,292,58445,1,0
156,276,58611,1,0
240,116,58777,1,8
348,128,58942,1,0
408,220,59108,6,0,B|352:212|304:244,1,100
104,164,59440,2,0,B|160:172|208:140,1,100,8|0
408,164,59771,2,0,B|352:172|304:140,1,100
104,220,60103,1,8
138,226,60185,1,0
172,233,60268,1,8
204,246,60351,1,0
235,262,60434,6,0,B|285:295|309:339,1,100,12|0
292,192,60765,1,8
268,64,60931,1,0
396,76,61097,2,0,B|452:60|504:80,1,100
404,292,61428,2,0,B|452:256|456:204,1,100,8|0
324,168,61760,6,0,B|248:208|124:192,1,200,0|8
92,100,62257,1,0
164,264,62423,1,0
228,120,62589,1,0
296,260,62754,1,8
376,100,62920,1,0
392,216,63086,6,0,B|316:160|316:160|276:208|216:204,1,200,0|8
100,188,63583,1,0
97,35,63749,2,0,B|44:44|24:96,2,100,0|0|8
180,96,64246,1,0
72,277,64412,6,0,B|96:340|96:340|172:384|224:292,1,200,0|8
292,236,64909,1,0
256,144,65075,1,0
160,180,65241,1,8
124,176,65324,1,0
94,156,65406,1,8
70,130,65489,1,0
70,95,65572,1,8
88,64,65655,1,0
120,48,65738,6,0,B|184:40|224:80,1,100,4|0
392,180,66069,2,0,B|328:188|297:156,1,100,0|0
184,240,66401,2,0,B|156:288|164:348,1,100
371,275,66732,2,0,B|399:227|391:167,1,100,8|0
256,44,67064,2,0,B|256:244,1,200,0|8
256,244,67561,1,0
316,348,67727,5,0
399,239,67893,1,0
195,348,68058,1,8
112,239,68224,1,0
256,244,68390,6,0,B|304:220|312:148,1,100
400,239,68721,2,0,B|452:263|464:327,1,100,8|0
340,332,69053,1,0
399,239,69219,1,0
424,72,69384,2,0,B|521:109|509:237,1,200,8|0
372,156,69882,1,0
272,140,70047,1,8
180,184,70213,1,0
192,84,70379,5,0
272,224,70545,1,0
192,84,70710,1,8
173,54,70793,1,0
143,34,70876,1,8
108,26,70959,1,0
73,33,71042,6,0,B|20:48|8:108,1,100,8|0
65,306,71373,2,0,B|114:290|142:246,1,100,8|0
254,107,71705,1,0
147,137,71870,1,0
312,198,72036,1,8
143,247,72202,1,0
246,283,72368,6,0,B|314:375|437:331,1,200,0|8
456,208,72865,1,0
472,108,73031,2,0,B|424:92|372:132,1,100
416,304,73362,2,0,B|464:320|516:280,2,100,8|0|0
336,368,73859,1,0
284,284,74025,2,0,B|368:212|372:100,1,200,8|0
276,52,74522,1,0
192,120,74688,1,8
284,180,74854,1,0
364,256,75020,6,0,B|296:344|176:300,1,200
148,128,75683,2,0,B|216:40|336:84,1,200
256,192,76346,12,4,78998
116,172,88279,5,8
256,104,88445,1,0
396,172,88611,1,0
344,256,88777,5,8
256,104,88942,1,0
168,256,89108,1,0
256,339,89274,5,8
256,303,89357,1,0
256,267,89440,1,8
256,232,89522,1,0
256,196,89605,1,12
388,88,89771,6,0,B|448:76|484:112,1,100,0|8
428,288,90103,1,0
324,232,90268,1,0
388,88,90434,1,0
324,232,90600,1,8
388,88,90765,2,0,B|436:-8,1,100
196,28,91097,5,0
292,52,91263,2,0,B|244:148,1,100,8|0
100,248,91594,2,0,B|207:241,1,100
364,316,91926,2,0,B|304:226,1,100,8|0
368,112,92257,1,0
484,148,92423,5,0
368,112,92589,2,0,B|316:160|240:132,1,100,8|0
132,68,92920,2,0,B|184:20|260:48,1,100
220,200,93252,2,0,B|168:248|92:220,1,100,8|0
152,132,93583,5,0
284,252,93749,1,0
444,244,93915,2,0,B|472:292|460:352,2,100,8|0|0
372,148,94412,5,8
372,148,94495,1,0
372,148,94578,1,8
452,60,94743,1,8
452,60,94826,1,0
452,60,94909,1,12
428,220,95075,6,0,B|476:184|460:116,2,100,0|8|0
288,244,95572,1,0
424,304,95738,1,0
288,332,95904,1,8
428,220,96069,2,0,B|476:184|460:116,1,100
304,32,96401,6,0,B|368:36|412:96,2,100,0|8|0
140,84,96898,1,0
308,120,97064,1,0
196,248,97230,1,8
308,208,97395,2,0,B|360:240|372:296,1,100
204,176,97727,6,0,B|152:144|140:88,1,100,0|8
212,24,98058,1,0
76,128,98224,1,0
204,176,98390,1,0
304,92,98556,1,8
392,160,98721,6,0,B|412:260|324:344,1,200
120,224,99219,2,0,B|100:124|188:40,1,200,8|8
214,26,99633,1,0
248,18,99716,1,8
282,26,99799,1,0
312,44,99882,2,0,B|364:88|432:72,1,100,8|0
464,144,100213,6,0,B|392:184|380:284,1,149.999995529652,4|0
472,248,100710,2,0,B|463:328|391:368,1,149.999995529652
308,292,101207,1,8
204,336,101373,1,0
140,272,101539,6,0,B|184:244|232:256|232:256|272:212,1,149.999995529652
212,148,102036,2,0,B|256:120|304:132|304:132|344:88,1,149.999995529652
456,36,102533,1,8
492,156,102699,1,0
368,124,102865,6,0,B|404:224|304:252,1,149.999995529652
204,280,103362,2,0,B|168:180|268:152,1,149.999995529652
320,247,103859,2,8,B|340:338,1,74.9999977648259,8|0
208,224,104191,6,0,B|136:188,2,74.9999977648259,8|0|0
208,324,104688,2,0,B|136:360,2,74.9999977648259,8|0|0
292,276,105185,1,8
292,276,105268,1,0
292,276,105351,1,8
292,276,105434,1,0
292,276,105517,6,0,B|440:276,1,149.999995529652,8|0
500,172,106014,2,0,B|352:172,1,149.999995529652
292,276,106511,1,8
350,172,106677,1,0
300,64,106843,6,0,B|228:196,1,149.999995529652
278,304,107340,2,0,B|350:172,1,149.999995529652
300,64,107837,1,8
350,172,108003,1,0
308,284,108169,6,0,B|252:304|252:304|200:292|180:216,1,149.999995529652
204,100,108666,2,0,B|260:80|260:80|312:92|332:168,1,149.999995529652
396,208,109163,2,8,B|436:220|468:200,1,74.9999977648259,8|0
393,75,109495,6,0,B|461:123|469:215,1,149.999995529652
471,333,109992,2,0,B|403:285|395:193,1,149.999995529652
336,140,110489,1,8
305,118,110572,1,0
270,103,110655,1,8
235,118,110738,1,0
204,140,110821,6,0,B|140:224|172:336,1,200,12|0
308,244,111318,2,0,B|372:160|340:48,1,200
200,44,111815,2,8,B|144:56|120:116,1,100,8|0
338,243,112147,6,0,B|325:316|243:322|243:322|188:284,1,200
172,138,112644,2,0,B|186:67|268:61|268:61|324:100,1,200
267,226,113141,2,8,B|229:278|167:290,1,100,8|0
32,252,113473,6,0,B|100:272|100:272|120:200|192:192,1,200
356,232,113970,2,0,B|288:212|288:212|268:284|196:292,1,200
116,352,114467,2,8,B|88:304|112:240,1,100,8|0
172,120,114799,5,8
336,152,114964,1,0
336,152,115130,1,0
272,52,115296,5,8
240,216,115462,1,0
240,216,115627,1,0
300,296,115793,5,8
328,315,115876,1,0
360,327,115959,1,8
394,334,116042,1,0
429,334,116125,6,0,B|488:344|516:292,1,100,12|0
428,184,116456,1,0
480,76,116622,2,0,B|372:52|272:104,1,200,0|0
144,192,117119,1,0
32,308,117285,2,0,B|140:332|227:286,1,200,0|0
312,252,117782,2,0,B|388:220|456:260|456:260|508:244,2,200
132,276,118611,1,0
209,309,118777,5,8
68,344,118942,1,0
209,219,119108,1,8
63,236,119274,1,0
212,137,119440,5,8
66,130,119605,1,0
235,49,119771,1,8
91,24,119937,1,0
140,120,120103,6,0,B|128:176|136:224,1,100,2|2
135,219,120351,1,2
135,219,120434,1,8
208,312,120600,1,8
324,348,120765,2,0,B|364:304|424:312,1,100,2|2
468,140,121097,5,8
451,171,121180,1,0
426,195,121263,1,8
395,211,121346,1,0
361,220,121428,6,0,B|300:232|260:200,1,100,12|0
138,53,121760,2,0,B|184:32|236:44,1,100,8|0
36,152,122091,1,0
168,204,122257,1,0
104,352,122423,2,0,B|212:368|288:280,1,200,8|0
344,160,122920,2,0,B|396:124|448:152,2,100,0|8|0
248,56,123417,5,0
344,160,123583,1,0
160,100,123749,1,8
456,72,123915,1,0
356,72,124080,6,0,B|300:68|272:118,1,100
108,224,124412,2,0,B|152:256|204:248,1,100,8|0
236,112,124743,1,0
156,44,124909,2,0,B|200:12|256:4,2,100,0|8|0
76,164,125406,5,0
176,136,125572,1,0
288,176,125738,1,8
400,136,125904,1,0
464,200,126069,5,0
328,112,126235,1,0
196,204,126401,1,8
52,132,126567,1,0
156,36,126732,6,0,B|216:24|264:56,1,100,4|0
409,165,127064,2,0,B|358:160|328:113,1,100,8|0
417,64,127395,1,0
328,220,127561,1,0
500,276,127727,2,0,B|444:360|312:364,1,200,8|0
300,268,128224,2,0,B|260:232|204:248,1,100,0|8
12,256,128556,1,0
116,284,128721,2,0,B|140:344|204:352,2,100,0|0|8
28,148,129219,1,0
140,104,129384,6,0,B|224:132|280:96,1,100
324,184,129716,2,0,B|308:244|336:284,1,100,8|0
424,236,130047,1,0
333,280,130213,1,0
484,300,130379,1,8
324,184,130545,1,0
472,168,130710,5,0
476,56,130876,1,0
392,108,131042,2,0,B|337:111|301:71,1,100,8|0
116,16,131373,1,0
172,116,131539,1,0
28,148,131705,1,8
28,148,131788,1,0
28,148,131870,1,8
28,148,131953,1,0
28,148,132036,6,0,B|56:204|128:208,1,100,12|0
216,212,132368,1,8
196,320,132533,1,0
84,324,132699,2,0,B|28:320|-20:352,2,100
128,224,133196,1,0
252,252,133362,6,0,B|356:280|452:204,1,200,0|8
504,120,133859,1,0
424,60,134025,2,0,B|332:20,1,100
296,116,134357,2,0,B|388:164,1,100,8|0
416,256,134688,6,0,B|384:312|308:304,1,100
232,296,135020,1,8
152,236,135185,1,0
112,144,135351,2,0,B|100:92|44:60,2,100,0|0|8
12,160,135848,1,0
88,252,136014,2,0,B|124:296|180:292,1,100
280,232,136346,2,0,B|321:191|393:205,1,100,8|0
408,59,136677,5,8
374,68,136760,1,0
342,84,136843,1,8
312,103,136926,1,0
287,127,137009,1,8
267,155,137091,1,0
252,186,137174,1,8
242,219,137257,1,0
232,252,137340,6,0,B|226:313|178:337,1,100,12|0
60,340,137672,2,0,B|66:279|114:255,1,100,8|0
208,192,138003,1,0
320,240,138169,1,0
416,172,138335,2,0,B|472:180|512:152,1,100,8|0
452,72,138666,6,0,B|532:160|464:300,1,200,0|8
368,352,139163,1,0
484,332,139329,5,0
385,263,139495,1,0
268,284,139661,1,8
160,336,139826,1,0
64,312,139992,6,0,B|84:252|156:244,1,100,0|0
276,360,140324,2,0,B|328:360|352:292,1,100,8|0
348,144,140655,2,0,B|312:96|240:96,2,100,0|0|8
432,200,141152,1,0
332,240,141318,6,0,B|272:268|256:340|256:340|160:280,1,200,0|0
180,144,141981,2,0,B|240:116|256:44|256:44|352:104,1,200,0|0
256,192,142644,12,4,145296
324,328,153252,6,0,B|400:296|420:200,1,149.999995529652,0|8
460,140,153749,1,0
384,92,153915,2,0,B|304:128|212:96,1,149.999995529652,0|8
237,103,154412,1,0
164,52,154578,5,0
116,128,154743,1,0
148,212,154909,1,8
88,280,155075,1,0
88,280,155241,2,0,B|128:316|188:296|188:296|232:340,1,149.999995529652,0|8
304,356,155738,1,0
404,300,155904,6,0,B|328:268|308:168,1,149.999995529652,0|8
260,116,156401,1,0
348,104,156567,2,0,B|384:128|444:104,2,74.9999977648259
316,20,157064,1,0
404,44,157230,6,0,B|464:112|384:192,1,149.999995529652,0|8
316,252,157727,1,0
408,304,157893,2,0,B|448:284|508:312,2,74.9999977648259,0|0|8
284,352,158390,5,8
284,352,158473,1,0
284,352,158556,2,0,B|212:356|152:276,1,149.999995529652,12|8
68,268,159053,1,0
132,368,159219,2,0,B|220:364|248:244,1,149.999995529652,0|8
188,192,159716,1,0
183,95,159882,6,0,B|280:96|304:200,1,149.999995529652,0|8
296,175,160296,1,0
296,175,160379,1,0
356,344,160545,5,0
476,208,160793,1,0
392,48,161042,1,0
304,72,161207,6,0,B|332:160|440:136,1,149.999995529652,0|8
488,64,161705,1,0
421,139,161870,2,0,B|357:195|393:307,1,149.999995529652,0|8
468,332,162368,1,0
385,277,162533,2,0,B|320:221|214:272,1,149.999995529652,0|8
180,332,163031,1,0
244,260,163196,2,0,B|293:191|233:90,1,149.999995529652,0|8
256,192,163859,12,4,167837
256,28,177119,5,8
256,42,177202,1,0
256,57,177285,1,0
256,72,177368,1,0
256,87,177451,1,8
256,102,177533,1,0
256,117,177616,1,0
256,132,177699,1,0
256,147,177782,5,8
256,162,177865,1,0
256,177,177948,1,0
256,192,178031,1,0
256,208,178114,1,8
256,222,178196,1,0
256,237,178279,1,0
256,252,178362,1,0
256,272,178445,6,0,B|256:372,1,100,4|0
364,352,178777,1,8
476,312,178942,1,0
436,200,179108,2,0,B|380:224|316:200,1,100
244,116,179440,2,0,B|300:140|364:116,1,100,8|0
496,52,179771,6,0,B|408:0|296:28,1,200,0|8
332,128,180268,1,0
180,72,180434,5,0
260,223,180600,1,0
332,128,180765,1,8
152,188,180931,1,0
32,280,181097,5,0
140,328,181263,1,0
248,276,181428,2,0,B|316:256|372:272,1,100,8|0
444,340,181760,2,0,B|496:320|496:248,2,100
308,352,182257,1,0
256,192,182423,12,0,183417
256,192,183583,5,8
256,192,183666,1,0
256,192,183749,2,0,B|284:240|344:256,1,100,12|0
412,328,184080,1,8
312,340,184246,5,0
432,248,184412,1,0
340,128,184578,1,0
404,40,184743,2,0,B|352:16|292:40,1,100,8|0
168,100,185075,6,0,B|172:216|72:284,1,200,0|8
12,352,185572,1,0
148,312,185738,1,0
232,200,185904,1,8
88,100,186069,5,0
64,196,186235,1,0
152,236,186401,2,0,B|212:252|228:320,1,100
324,364,186732,2,0,B|380:360|420:304,1,100,8|0
472,216,187064,2,0,B|448:164|380:156,2,100,0|0|8
488,336,187561,1,0
380,284,187727,2,0,B|272:260|168:316,1,200,0|8
84,244,188224,1,0
140,140,188390,1,0
101,25,188556,2,0,B|201:57,1,100,0|8
416,52,189053,6,0,B|352:48|312:112,1,100,4|0
384,184,189384,2,0,B|348:232|280:220,1,100,8|0
192,184,189716,1,0
84,212,189882,1,0
152,364,190047,2,0,B|255:350|323:251,1,200,8|0
384,184,190545,1,0
456,256,190710,1,8
316,260,190876,1,0
464,176,191042,5,0
304,184,191207,1,0
392,316,191373,1,8
232,336,191539,1,0
204,240,191705,6,0,B|192:184|236:136,1,100
328,104,192036,2,0,B|364:56|360:8,1,100,8|0
252,24,192368,1,0
144,44,192533,1,0
68,124,192699,2,0,B|124:140|144:200,1,100,8|0
244,228,193031,5,0
280,355,193196,1,0
407,317,193362,1,0
371,190,193528,1,0
236,300,193694,5,0
351,364,193859,1,0
414,247,194025,1,0
298,183,194191,1,0
200,232,194357,6,0,B|144:220|117:161,2,100,4|0|8
292,292,194854,1,0
204,360,195020,2,0,B|148:376|107:346,1,100
96,172,195351,1,0
52,264,195517,1,8
294,293,195683,2,0,B|330:197|294:93,1,200,0|8
412,60,196180,1,0
480,160,196346,5,0
412,260,196511,1,0
296,232,196677,1,8
184,272,196843,1,0
72,228,197009,2,0,B|96:172|168:168,1,100
244,272,197340,2,0,B|268:324|328:332,1,100,8|0
464,188,197672,2,0,B|412:176|356:212,1,100
244,140,198003,2,0,B|184:128|152:64,1,100,8|0
256,44,198335,5,8
288,33,198417,1,0
323,33,198500,1,0
356,42,198583,1,0
384,61,198666,1,8
408,85,198749,1,0
424,115,198832,1,0
430,149,198915,1,0
430,184,198998,5,8
422,217,199080,1,0
408,249,199163,1,0
383,273,199246,1,0
350,286,199329,1,8
314,286,199412,1,0
276,275,199495,1,0
245,258,199578,1,0
213,242,199661,6,0,B|156:220|88:248,1,109.999996721745,12|0
172,344,199992,2,0,B|228:368|284:344,1,109.999996721745,8|0
404,240,200324,2,0,B|347:218|284:240,1,109.999996721745,8|0
363,342,200655,2,0,B|419:366|472:340,1,109.999996721745,8|0
368,192,200986,6,0,B|260:192,1,109.999996721745,8|0
258,302,201318,2,0,B|258:186,1,109.999996721745,8|0
148,192,201649,2,0,B|256:192,1,109.999996721745,8|0
258,82,201981,2,0,B|258:194,1,109.999996721745,0|0
320,256,202312,6,0,B|400:336,1,109.999996721745,8|0
192,256,202644,2,0,B|112:336,1,109.999996721745,0|0
192,128,202975,2,0,B|112:48,1,109.999996721745,8|0
320,128,203307,2,0,B|400:48,1,109.999996721745,0|0
472,116,203638,5,8
457,130,203721,1,0
443,144,203804,1,0
429,158,203887,1,0
415,172,203970,1,8
401,186,204053,1,0
387,200,204136,1,0
373,214,204219,1,0
359,228,204301,5,8
345,242,204384,1,0
331,256,204467,1,0
317,270,204550,1,0
302,284,204633,2,0,B|264:336|204:324,1,109.999996721745,8|0
100,332,204964,6,0,B|60:280|80:204,1,109.999996721745,8|0
190,179,205296,2,0,B|254:171|286:99,1,109.999996721745,8|0
340,40,205627,1,8
492,128,205793,1,0
380,132,205959,2,0,B|320:156|268:112,1,109.999996721745,8|0
128,44,206290,2,0,B|76:144|112:260,1,219.999993443489,8|8
212,328,206788,1,0
304,264,206953,2,0,B|352:296|420:280,2,109.999996721745,8|0|8
148,152,207451,1,0
128,260,207616,6,0,B|188:268|236:216,1,109.999996721745,8|0
280,128,207948,2,0,B|319:84|379:92,1,109.999996721745,8|0
388,200,208279,2,0,B|432:236|448:312,2,109.999996721745,8|0|8
320,288,208777,1,0
256,192,208942,12,0,210268
256,192,210351,12,4,213417
