osu file format v9

[General]
AudioFilename: Tsubomi Zakura.mp3
AudioLeadIn: 1000
PreviewTime: 55112
Countdown: 0
SampleSet: Normal
StackLeniency: 0.7
Mode: 0
LetterboxInBreaks: 0

[Editor]
DistanceSpacing: 1
BeatDivisor: 4
GridSize: 4

[Metadata]
Title:Tsubomi Zakura
Artist:Hatsune Miku
Creator:Mythol
Version:Hard
Source:YasuoP
Tags:vocaloid2 vocaloid hoLysoup VOCAROCK collection feat.

[Difficulty]
HPDrainRate:5
CircleSize:4
OverallDifficulty:5
ApproachRate:7
SliderMultiplier:1.5
SliderTickRate:1

[Events]
//Background and Video events
0,0,"mikubg.jpg"
Video,0,"PV.AVI"
//Break Periods
2,12899,22573
2,79198,88871
2,145496,152352
2,168037,176219
//Storyboard Layer 0 (Background)
//Storyboard Layer 1 (Fail)
//Storyboard Layer 2 (Pass)
//Storyboard Layer 3 (Foreground)
//Storyboard Sound Samples
//Background Colour Transformations
3,100,163,162,255

[TimingPoints]
766,331.491712707182,4,2,1,60,1,0
12368,-100,4,1,1,60,0,0
33915,-133.333333333333,4,1,1,50,0,0
44522,-100,4,1,1,60,0,0
55130,-100,4,1,1,70,0,1
78998,-100,4,1,1,60,0,0
100213,-133.333333333333,4,1,1,50,0,0
110821,-100,4,1,1,60,0,0
121428,-100,4,1,1,70,0,1
145296,-100,4,1,1,60,0,0
153252,-133.333333333333,4,1,1,50,0,0
177119,-100,4,1,1,60,0,0
178445,-100,4,1,1,70,0,1
188390,-100,4,1,1,70,0,0
189053,-100,4,1,1,70,0,1
213335,-100,4,1,1,70,0,0
213417,625,4,1,1,70,1,1
213495,-100,4,1,1,70,0,0

[Colours]
Combo1 : 255,155,55
Combo2 : 163,70,255
Combo3 : 134,232,253
Combo4 : 94,255,94

[HitObjects]
96,112,766,2,0,B|176:72|260:120,1,150,2|0
300,268,1428,1,2
348,336,1594,1,2
428,312,1760,2,0,B|472:288|472:220,1,75,2|0
388,228,2091,6,0,B|360:144|364:60,1,150,2|0
428,28,2589,1,0
472,100,2754,2,0,B|428:136|372:124,1,75,2|0
324,100,3086,2,0,B|268:100|244:152,1,75,2|0
148,164,3417,6,0,B|60:128|56:32,2,150,2|0|2
212,108,4246,1,2
222,192,4412,2,0,B|234:248|194:288,1,75,2|0
120,264,4743,2,0,B|120:339,1,75,8|0
212,340,5075,2,0,B|212:265,1,75,8|0
304,265,5406,2,0,B|304:340,1,75,8|0
396,344,5738,2,0,B|396:269,1,75,8|0
430,185,6069,6,0,B|504:216|487:309,2,150,2|0|2
352,156,6898,1,2
284,200,7064,2,0,B|200:240|124:180,1,150,2|0
76,140,7561,1,0
124,72,7727,2,0,B|168:48|228:80,1,75
248,132,8058,2,0,B|300:120|320:72,2,75,2|0|2
180,180,8556,1,0
152,256,8721,6,0,B|236:300|320:280,1,150,2|0
356,228,9219,1,0
352,144,9384,2,0,B|268:100|184:120,2,150,2|0|2
256,192,10213,12,4,12699
356,116,23473,6,0,B|380:76|432:76,2,75,0|8|0
296,172,23970,1,0
220,140,24136,1,0
144,172,24301,1,8
68,140,24467,1,0
156,268,24799,6,0,B|132:308|80:308,2,75,0|8|0
216,212,25296,1,0
292,248,25462,1,0
364,212,25627,1,8
436,248,25793,1,0
312,352,26125,6,0,B|360:368|408:340,2,75,0|8|0
248,300,26622,2,0,B|220:256|236:196,1,75
288,168,26953,1,8
368,196,27119,1,0
436,152,27285,2,0,B|472:136|516:152,2,75,0|0|8
400,76,27782,5,0
236,52,28114,2,0,B|156:84|156:200,1,150
104,236,28611,1,4
104,236,28777,6,0,B|52:232|36:180,2,75,0|8|0
168,288,29274,1,0
252,292,29440,2,0,B|296:304|316:344,2,75,0|8|0
248,128,30103,6,0,B|196:132|180:184,2,75,0|8|0
328,108,30600,1,0
412,116,30765,2,0,B|428:80|480:68,2,75,0|8|0
468,272,31428,6,0,B|496:304|496:348,2,75,0|8|0
372,284,31926,2,0,B|296:324|196:288,1,150,0|8
152,236,32423,2,0,B|228:196|328:232,1,150
380,204,32920,2,0,B|452:144|432:48,2,150,0|0|8
284,92,33915,6,0,B|192:60|108:104,1,168.749994970858,4|0
72,280,34909,1,8
172,332,35241,2,0,B|268:360|352:296,1,168.749994970858
400,64,36235,1,8
468,152,36567,6,0,B|496:252|444:332,1,168.749994970858
280,284,37561,1,8
164,332,37893,2,0,B|116:364,2,56.2499983236194
204,284,38390,2,0,B|224:208|196:148,1,112.499996647239
164,128,38887,1,8
76,216,39219,6,0,B|160:252|256:216,1,168.749994970858,4|0
412,288,40213,1,8
480,172,40545,2,0,B|396:136|300:172,1,168.749994970858
104,88,41539,1,8
76,208,41870,6,0,B|160:244|256:208,1,168.749994970858
428,228,42865,1,8
348,324,43196,2,0,B|412:352,2,56.2499983236194,8|0|0
284,324,43694,2,0,B|220:352,2,56.2499983236194,8|0|0
316,272,44191,1,8
432,152,44522,6,0,B|444:60|352:8|260:56,1,225,4|0
24,92,45517,1,8
104,236,45848,2,0,B|92:328|184:380|276:332,1,225,0|0
448,188,46843,1,8
284,216,47174,6,0,B|148:228|140:388,1,225
364,340,48169,2,0,B|408:336|432:280,1,75,8|0
440,212,48500,2,0,B|496:264,2,75,8|0|0
432,128,48998,2,0,B|488:76,2,75,8|0|0
360,168,49495,2,0,B|276:168,1,75,8|0
232,64,49826,6,0,B|188:28|132:36,2,75
164,116,50324,2,0,B|132:144|88:136,1,75
28,200,50655,2,0,B|8:260|44:328,1,112.5
64,340,50986,2,0,B|140:304|220:344,1,150
292,344,51484,5,0
442,279,51815,1,0
378,127,52147,1,0
226,191,52478,1,0
256,192,52644,12,8,54799
76,84,55130,6,0,B|140:44|232:80,1,150,4|8
376,132,55793,1,0
452,96,55959,1,0
444,180,56125,2,0,B|460:232|428:280,1,75,8|0
384,312,56456,6,0,B|308:272|228:304,1,150,0|8
160,324,56953,1,0
88,280,57119,2,0,B|20:240,1,75
52,164,57451,2,0,B|140:216,1,75,8|0
188,244,57782,6,0,B|268:204|276:112,1,150,0|8
428,72,58445,1,0
484,132,58611,1,0
404,148,58777,2,0,B|368:184|308:180,1,75,8|0
220,152,59108,6,0,B|200:116|160:100,1,75,2|0
216,228,59440,2,0,B|180:248|164:288,1,75,2|0
292,232,59771,2,0,B|312:268|352:284,1,75,2|0
296,156,60103,2,0,B|332:136|348:96,1,75,2|0
420,60,60434,6,0,B|480:120|460:224,1,150,4|8
416,268,60931,1,0
364,332,61097,1,0
292,292,61263,1,0
220,332,61428,2,0,B|164:352|120:308,1,75,8|0
84,256,61760,6,0,B|168:236|196:148,1,150,0|8
188,80,62257,1,0
108,68,62423,2,0,B|36:32,1,75
4,108,62754,2,0,B|76:144,1,75,8|0
152,152,63086,5,0
376,152,63417,1,8
300,300,63749,1,0
372,344,63915,1,0
448,308,64080,2,0,B|496:288|504:236,1,75,8|0
408,204,64412,2,0,B|332:164|244:200,3,150,2|10|2|10
92,288,65738,6,0,B|128:320|196:292,1,75,4|0
152,220,66069,2,0,B|192:208|236:236,1,75,8|0
256,304,66401,1,0
332,336,66567,1,0
412,348,66732,2,0,B|456:354|491:322,1,75,8|0
496,248,67064,6,0,B|432:192|432:108,1,150,0|8
388,48,67561,1,0
432,117,67727,2,0,B|476:128|516:96,2,75,0|0|8
348,116,68224,1,0
276,72,68390,5,0
117,230,68721,1,8
340,272,69053,1,0
276,324,69219,1,0
196,312,69384,2,0,B|144:296|112:352,1,75,8|0
36,296,69716,6,0,B|36:216,1,75,2|0
104,152,70047,2,0,B|104:232,1,75,10|0
172,296,70379,2,0,B|172:216,1,75,2|0
240,152,70710,2,0,B|240:232,1,75,10|0
304,300,71042,6,0,B|388:320|456:236,1,150,4|8
476,180,71539,1,0
468,96,71705,2,0,B|460:40|488:0,2,75,0|0|8
228,76,72368,6,0,B|296:116|400:84,1,150,0|8
452,120,72865,1,0
388,172,73031,2,0,B|340:168|312:216,2,75,0|0|8
460,212,73528,1,0
384,248,73694,6,0,B|356:288|284:276,1,75
236,196,74025,2,0,B|248:152|280:116,1,75
336,68,74357,5,0
256,44,74522,1,0
176,68,74688,1,0
124,132,74854,1,8
104,212,75020,6,2,B|152:284|264:268,1,150,2|0
408,172,75683,2,2,B|360:100|248:116,1,150,2|0
256,192,76346,12,4,78998
376,100,89771,6,0,B|424:92|444:44,2,75,0|8|0
293,100,90268,1,0
210,100,90434,2,0,B|162:92|142:44,2,75,0|8|0
112,232,91097,6,0,B|80:256|76:308,1,75,0|8
136,352,91428,1,0
212,320,91594,1,0
288,356,91760,2,0,B|332:352|360:304,2,75,0|8|0
448,240,92423,5,0
384,184,92589,2,0,B|340:160|332:104,1,75,8|0
372,52,92920,1,0
436,104,93086,2,0,B|464:76|456:20,2,75,0|8|0
336,128,93583,5,0
248,148,93749,1,0
300,220,93915,2,0,B|324:256|328:324,1,75
136,240,94412,6,0,B|184:236|216:284,1,75,0|8
136,328,94743,1,8
136,328,94826,1,0
136,328,94909,1,12
252,364,95075,6,0,B|304:380|352:336,2,75,0|8|0
136,328,95572,1,0
248,280,95738,1,0
132,244,95904,1,8
244,200,96069,1,0
260,20,96401,6,0,B|208:4|160:48,2,75,0|8|0
376,56,96898,1,0
264,104,97064,1,0
380,140,97230,1,8
268,188,97395,1,0
420,328,97727,6,0,B|464:328|488:296,2,75,0|8|0
324,288,98224,2,0,B|280:276|248:308,2,75,0|0|8
420,244,98721,2,0,B|464:184|456:72,1,150
400,28,99219,2,0,B|348:80|364:200,1,150,8|0
420,328,99882,1,8
300,276,100213,6,0,B|256:252|216:276|216:276|172:308|124:260,1,168.749994970858,4|0
40,120,101207,1,8
152,120,101539,2,0,B|196:96|236:120|236:120|280:152|328:104,1,168.749994970858
472,212,102533,1,8
364,244,102865,6,0,B|318:269|318:269|302:342|223:355,1,168.749994970858
40,172,103859,1,8
148,112,104191,2,0,B|200:60,2,56.2499983236194,8|0|0
88,112,104688,2,0,B|36:60,2,56.2499983236194,8|0|0
120,164,105185,1,8
120,287,105517,6,0,B|292:287,1,168.749994970858,4|0
448,196,106511,1,8
396,84,106843,2,0,B|224:84,1,168.749994970858
48,40,107837,1,8
48,152,108169,6,0,B|48:324,1,168.749994970858
232,344,109163,1,8
328,284,109495,2,0,B|328:112,1,168.749994970858,0|0
328,115,110489,1,8
168,84,110821,6,0,B|252:88|300:20,2,150,4|8|0
16,152,111815,1,8
144,256,112147,2,0,B|232:268|264:368,2,150,0|8|0
16,360,113141,1,8
176,324,113473,6,0,B|264:300|284:204,2,150,0|8|0
136,164,114467,1,8
272,72,114799,2,0,B|320:8,2,75,0|0|8
188,72,115296,2,0,B|140:8,2,75
228,144,115793,2,0,B|228:244,1,75,8|0
284,280,116125,6,0,B|328:276|368:244,1,75
432,284,116456,1,8
496,232,116622,2,0,B|516:184|500:80,1,150
436,19,117119,1,8
340,28,117285,2,0,B|312:112|196:108,1,150
148,100,117782,2,0,B|104:160|140:252,2,150
256,192,118777,12,0,120103
484,224,121097,6,0,B|448:280,3,37.5,0|0|0|0
440,288,121428,2,0,B|360:316|280:256,1,150,4|8
188,144,122091,1,0
260,100,122257,1,0
328,148,122423,2,0,B|380:160|424:128,1,75,8|0
444,56,122754,6,0,B|360:72|276:24,1,150,0|8
216,32,123252,1,0
144,72,123417,2,0,B|80:112,1,75
124,184,123749,2,0,B|200:136,1,75,8|0
284,108,124080,6,0,B|352:157|338:245,2,150,0|8|0
200,112,124909,1,0
236,188,125075,2,0,B|256:228|248:272,1,75,8|0
208,332,125406,2,0,B|136:304|48:336,3,150,2|10|2|10
52,168,126732,6,0,B|140:144|176:52,1,150,4|8
236,36,127230,1,0
312,68,127395,1,0
324,148,127561,1,0
284,220,127727,2,0,B|236:236|224:296,1,75,8|0
328,312,128058,6,0,B|420:296|428:188,1,150,0|8
476,148,128556,1,0
452,68,128721,2,0,B|400:12,1,75
336,64,129053,2,0,B|392:124,1,75,8|0
384,200,129384,6,0,B|316:236|228:192,2,150,0|8|0
460,232,130213,1,0
476,312,130379,2,0,B|468:360|424:372,1,75,8|0
392,296,130710,2,0,B|316:264|228:300,3,150,2|10|2|10
80,304,132036,6,0,B|92:260|144:240,1,75,4|0
176,316,132368,2,0,B|210:303|222:259,1,75,8|0
272,196,132699,1,0
319,125,132865,1,0
400,149,133031,1,8
403,233,133196,1,0
324,262,133362,6,0,B|272:336|184:328,1,150,0|8
148,260,133859,1,0
56,256,134025,2,0,B|-8:304,1,75
48,368,134357,2,0,B|112:320,1,75,8|0
188,344,134688,5,0
398,344,135020,1,8
236,232,135351,1,0
164,192,135517,1,0
112,128,135683,2,0,B|72:92|88:36,1,75,8|0
168,64,136014,2,0,B|248:36|340:68,3,150,2|10|2|10
388,104,137174,1,0
452,48,137340,6,0,B|480:80|472:128,1,75,4|0
424,184,137672,2,0,B|400:240|432:280,1,75,8|0
468,324,138003,1,0
392,356,138169,1,0
316,320,138335,2,0,B|264:304|228:332,1,75,8|0
132,340,138666,6,0,B|184:276|164:184,1,150,0|8
132,124,139163,1,0
84,192,139329,2,0,B|48:216|8:204,2,75,0|0|8
168,200,139826,1,0
256,116,139992,6,0,B|336:132|372:220,1,150,0|8
312,280,140489,1,0
396,284,140655,1,0
456,228,140821,1,0
484,152,140986,2,0,B|508:108|492:68,1,75,8|0
416,104,141318,6,2,B|336:132|256:100,1,150,2|0
96,280,141981,2,2,B|176:252|256:284,1,150,2|0
256,192,142644,12,4,145296
328,80,153252,6,0,B|392:100|408:176,1,112.499996647239
428,280,153915,2,0,B|492:280,2,56.2499983236194,8|0|0
312,328,154578,2,0,B|248:356|184:324,1,112.499996647239
160,288,155075,1,0
116,332,155241,2,0,B|52:360|-12:328,1,112.499996647239,8|0
68,228,155904,6,0,B|116:192|136:124,1,112.499996647239
60,36,156567,2,0,B|4:20,2,56.2499983236194,8|0|0
180,60,157230,2,0,B|244:36|304:68,1,112.499996647239
344,92,157727,1,0
396,56,157893,2,0,B|460:32|520:64,1,112.499996647239,8|0
436,160,158556,6,0,B|424:224|364:252,1,112.499996647239
256,208,159219,1,8
164,288,159550,2,0,B|112:316,2,56.2499983236194
280,328,160213,1,0
400,304,160545,2,8,B|456:304|484:348,2,84.3749974854291,8|0|0
368,252,161207,6,0,B|328:184|328:184|352:92|460:116,1,224.999993294478
144,132,162533,2,0,B|184:200|184:200|160:292|52:268,1,224.999993294478
74,271,163528,1,0
256,192,163859,12,4,167837
136,100,177119,6,0,B|180:116,3,37.5
209,112,177451,2,0,B|253:96,3,37.5,0|0|0|0
281,99,177782,2,0,B|325:115,3,37.5,0|0|0|0
354,111,178114,2,0,B|398:95,3,37.5,0|0|0|0
426,98,178445,6,0,B|464:164|432:252,1,150,4|8
316,340,179108,1,0
248,292,179274,1,0
320,252,179440,2,0,B|352:224|360:160,1,75,8|0
428,112,179771,6,0,B|364:68|280:100,1,150,0|8
204,104,180268,1,0
128,68,180434,2,0,B|44:32,1,75
28,116,180765,2,0,B|112:148,1,75,8|0
148,212,181097,5,0
356,192,181428,1,8
396,264,181594,1,0
440,332,181760,2,0,B|464:351|512:331,2,75,0|0|8
356,332,182257,1,0
280,364,182423,2,0,B|192:364|120:292,3,150,10|2|10|2
256,192,183749,5,4
404,116,184080,1,8
408,280,184412,2,0,B|452:272|480:224,2,75,0|0|8
344,332,184909,1,0
268,300,185075,2,0,B|192:268|120:304,1,150,0|8
44,324,185572,1,0
28,244,185738,2,0,B|76:160,1,75
140,212,186069,2,0,B|100:284,1,75,8|0
192,324,186401,6,0,B|268:356|352:320,2,150,0|8|0
216,244,187230,1,0
296,248,187395,2,0,B|344:248|368:224,1,75,8|0
432,276,187727,2,0,B|472:200|412:104,2,150,0|8|0
432,276,188556,2,0,B|432:360,1,75,0|8
297,261,189053,6,0,B|361:213|373:129,1,150,4|8
492,20,189716,1,0
412,40,189882,1,0
336,12,190047,2,0,B|304:44|312:92,1,75,8|0
372,136,190379,6,0,B|352:192|256:192|240:112,1,150,0|8
204,72,190876,1,0
120,68,191042,2,0,B|76:52|64:4,2,75,0|0|8
156,140,191539,1,0
240,144,191705,6,0,B|320:152|360:236,1,150,0|8
224,328,192368,1,0
292,284,192533,1,0
356,336,192699,2,0,B|404:348|432:328,1,75,8|0
388,256,193031,2,0,B|356:172|404:108,3,150,2|10|2|10
460,56,194191,1,0
388,16,194357,6,0,B|304:-4|232:32,1,150,4|8
88,92,195020,1,0
144,152,195185,1,0
92,216,195351,2,0,B|128:252|184:228,1,75,8|0
244,184,195683,6,0,B|344:196|360:304,1,150,0|8
444,312,196180,1,0
356,356,196346,1,0
264,324,196511,1,0
172,352,196677,2,0,B|116:328|108:272,1,75,8|0
184,224,197009,6,0,B|264:188|268:80,1,150,0|8
328,52,197506,1,0
408,76,197672,2,0,B|452:72|488:108,2,75,0|0|8
256,192,198335,12,0,199329
163,99,199661,5,4
347,99,199992,1,8
347,283,200324,1,0
163,283,200655,1,8
221,65,200986,5,0
381,157,201318,1,8
289,317,201649,1,0
129,225,201981,1,8
289,65,202312,5,0
381,225,202644,1,8
221,317,202975,1,0
129,157,203307,1,8
256,192,203638,12,0,204633
392,76,204964,6,0,B|348:64|304:88,1,75
276,152,205296,2,0,B|228:172|184:160,1,75
148,104,205627,1,0
76,140,205793,1,0
116,212,205959,2,0,B|124:260|88:304,1,75
36,332,206290,6,0,B|60:380|136:380|172:336,1,150
208,272,206788,1,0
284,300,206953,2,0,B|364:272,1,75
348,192,207285,2,0,B|428:164,1,75
488,212,207616,2,0,B|520:132|472:56,2,150
432,272,208445,1,0
484,336,208611,1,0
256,192,208942,12,0,210268
256,192,210351,12,4,213417
