osu file format v5

[General]
AudioFilename: Triple Baka PV - Hatsune Miku.mp3
AudioLeadIn: 0
PreviewTime: 49396
Countdown: 0
SampleSet: Normal
StackLeniency: 0.7
Mode: 0
LetterboxInBreaks: 1

[Metadata]
Title:Triple Baka
Artist:Hatsune Miku
Creator:Mafiamaster
Version:Normal
Source:
Tags:ramazuP

[Difficulty]
HPDrainRate:6
CircleSize:4
OverallDifficulty:5
SliderMultiplier:1.5
SliderTickRate:1

[Events]
//Background and Video events
0,0,"Konachan.com - 42692 hatsune_miku hinata_(artist) vocaloid.png"
1,-255,"Triple Baka PV - Hatsune Miku_xvid.avi"
//Break Periods
//Storyboard Layer 0 (Background)
//Storyboard Layer 1 (Failing)
//Storyboard Layer 2 (Passing)
//Storyboard Layer 3 (Foreground)
//Storyboard Sound Samples
//Background Colour Transformations
3,100,0,0,0

[TimingPoints]
1433,666.666666666667,4,2,0,100,1,0
3849,-100,4,1,0,100,0,0
22016,-100,4,2,0,100,0,0
22683,-100,4,1,0,100,0,0
32683,-200,4,2,0,100,0,0
33562,-100,4,1,0,100,0,0
38599,-100,4,2,0,100,0,0
49183,666.666666666667,4,1,0,100,0,0

[Colours]
Combo1 : 255,136,136
Combo2 : 255,159,64
Combo3 : 0,232,232

[HitObjects]
32,32,4099,1,0
144,32,4433,1,8
256,32,4766,1,0
368,32,5099,1,8
424,128,5433,1,0
312,128,5766,1,8
200,128,6099,5,2
200,184,6266,1,2
144,184,6432,1,2
144,72,6766,5,0
256,72,7099,1,8
480,72,7766,5,0
368,72,8099,1,0
368,184,8432,1,8
184,312,9099,5,0
296,312,9432,1,0
296,200,9766,1,8
464,48,10433,5,0
464,160,10766,1,0
352,160,11099,1,8
136,232,11766,5,0
136,120,12099,1,0
136,232,12433,1,8
360,232,13099,5,0
360,120,13433,1,0
248,120,13766,1,8
472,120,14433,5,0
360,120,14766,1,0
248,120,15099,1,8
248,344,15766,5,0
360,344,16099,1,0
360,232,16433,1,8
136,232,17099,1,4
288,168,17599,6,0,B|240:168,3,37.5,0|8|0|8
136,168,18433,1,0
80,72,18766,1,0
192,72,19099,1,8
304,72,19433,1,0
304,240,19932,2,0,B|224:240,1,75,0|8
168,240,20432,1,8
168,32,21599,6,0,B|168:80,6,37.5,0|8|0|8|0|8|0
112,32,22766,2,0,B|112:112|224:112,1,150
328,120,23766,1,0
368,224,24099,1,0
208,280,24599,5,0
264,264,24766,1,0
224,216,24932,1,0
280,200,25099,1,0
240,160,25266,2,0,B|144:160|144:304,1,187.5,0|4
368,304,26766,6,8,L|400:272|384:256|384:240,3,75
192,256,28266,5,0
240,232,28432,1,8
288,256,28599,1,0
240,288,28766,2,8,B|240:336|192:336,1,75,0|8
136,328,29266,1,0
88,296,29432,1,0
112,240,29599,2,0,B|112:192|160:192,1,75,0|0
216,192,30099,1,8
272,192,30266,1,8
384,192,30599,5,0
384,80,30932,1,8
328,80,31099,1,8
384,256,32266,6,0,B|384:288|416:288,7,37.5,8|8|8|8|8|8|8|8
176,264,34099,6,8,B|176:312,4,37.5,0|8|0|8|0
176,208,34932,2,8,B|176:160,4,37.5,8|0|8|0|8
376,96,36266,6,0,B|328:96,1,37.5,4|0
312,144,36599,1,0
264,120,36766,2,0,B|216:120,3,37.5,4|0|4|0
184,80,37432,2,0,B|136:80|136:128,1,75,0|4
144,320,38766,5,8
256,128,39433,1,8
368,320,40099,1,8
144,192,40766,1,4
368,192,41433,5,8
256,352,42099,1,8
144,152,42766,1,8
368,152,43433,1,4
168,264,44099,5,8
256,56,44766,1,8
344,264,45433,1,8
160,136,46099,1,4
352,136,46766,5,8
256,336,47433,1,8
256,224,47766,1,8
256,192,48099,12,4,49099
256,288,49433,5,4
144,288,49766,1,0
144,176,50099,1,8
368,176,50766,5,4
256,176,51099,1,0
256,288,51433,1,8
144,288,51766,1,0
144,176,52099,2,0,B|144:224|192:224,1,75,4|0
288,176,52766,2,0,B|288:224|240:224,1,75,4|0
128,224,53433,2,0,B|128:304|240:304,1,150,0|4
368,128,54766,5,8
144,128,55433,1,8
368,128,56099,1,8
424,224,56433,1,8
312,224,56766,1,8
200,224,57099,1,8
200,112,57433,2,0,B|264:144|259:253,1,150,8|4
464,336,58766,5,0
352,336,59099,1,0
408,240,59433,1,4
184,240,60099,6,0,B|184:288|232:288,2,75,8|0|8
256,32,61433,5,4
256,256,62099,1,4
312,160,62433,1,8
256,160,62599,1,8
200,160,62766,1,8
200,48,63099,1,4
312,48,63433,1,4
256,160,63766,1,8
256,256,64099,1,4
256,32,64766,1,2
256,256,65433,6,0,B|208:256|208:208,1,75,8|8
208,96,66099,1,0
320,96,66433,2,0,B|352:96|352:128,2,37.5,8|8|8
208,96,67099,1,0
208,208,67433,1,8
320,208,67766,1,0
320,96,68099,2,8,B|320:32|240:32,1,112.5
184,32,68766,1,4
464,72,69599,6,8,B|464:120,1,37.5
432,152,69933,1,0
488,152,70099,1,0
464,200,70266,1,4
248,232,70933,5,8
208,192,71099,1,8
264,184,71266,1,8
304,152,71433,2,8,B|368:88,1,75
400,64,71933,2,8,B|480:64|480:176,1,150
480,224,72766,1,4
432,256,72933,1,4
384,224,73099,1,4
256,192,73433,12,8,78433
256,208,78766,5,0
144,208,79099,1,8
368,208,79766,5,8
368,96,80099,1,0
256,96,80432,1,8
448,208,81099,5,8
336,208,81432,1,0
336,320,81766,1,8
448,128,82432,5,8
448,240,82766,1,0
336,240,83099,1,8
224,240,83432,1,0
224,128,83766,2,0,B|224:96|256:96,1,37.5,8|0
328,160,84266,6,0,B|328:192|296:192,1,37.5,0|0
200,192,84766,1,8
200,80,85099,2,0,B|200:48|232:48,1,37.5,8|0
328,48,85599,6,0,B|328:80|296:80,1,37.5,0|0
200,80,86099,1,8
96,120,86432,1,0
64,168,86599,1,8
112,192,86766,1,4
