osu file format v9

[General]
AudioFilename: Hatsune Miku Project DIVA DREAMY THEATER 2nd - Time Limit (1).mp3
AudioLeadIn: 0
PreviewTime: -1
Countdown: 0
SampleSet: Soft
StackLeniency: 0.7
Mode: 0
LetterboxInBreaks: 1
SkinPreference:pjo!

[Editor]
DistanceSpacing: 0.8
BeatDivisor: 4
GridSize: 8

[Metadata]
Title:Time Limit
Artist:Hatsune Miku
Creator:--Miyuki Nyan--
Version:Time
Source:North-T
Tags:Hatsune Miku Time Limit North-T Project Diva Anime Manga Vocaloid Vocaloid2

[Difficulty]
HPDrainRate:2
CircleSize:4
OverallDifficulty:2
ApproachRate:2
SliderMultiplier:1.4
SliderTickRate:2

[Events]
//Background and Video events
Video,0,"Hatsune_Miku_Project_DIVA_DREAMY_THEATER_2nd_Time_.avi"
0,0,"MJV-ART.ORG_-_34470-1920x1080-vocaloid-hatsune+miku-widescreen.jpg"
//Break Periods
2,48324,53082
2,57639,59827
2,90618,123335
2,126594,126762
2,155919,167971
//Storyboard Layer 0 (Background)
//Storyboard Layer 1 (Fail)
//Storyboard Layer 2 (Pass)
//Storyboard Layer 3 (Foreground)
//Storyboard Sound Samples
//Background Colour Transformations
3,100,3,167,163

[TimingPoints]
1012,428.293103448279,4,2,0,100,1,0

[Colours]
Combo1 : 118,255,79
Combo2 : 111,253,245
Combo3 : 5,134,239
Combo4 : 80,243,1

[HitObjects]
128,96,13539,1,0
256,184,14931,2,0,B|392:184|368:104,1,140
400,256,16965,1,0
208,248,17929,2,0,B|112:248,2,70
64,80,20285,5,0
416,304,22091,1,0
256,120,23711,2,0,B|256:304,1,175
256,287,24661,1,0
256,288,25411,2,0,B|256:113,1,175
256,112,26374,1,0
256,192,27231,12,0,29587
144,128,30671,5,0
240,136,32063,2,0,B|240:224|144:224,1,140
336,256,33990,1,0
232,192,35061,2,0,B|232:280,2,70
408,272,37510,5,0
104,80,39223,1,0
256,120,40936,2,0,B|256:304,1,175
256,295,41806,1,0
256,295,42649,2,0,B|256:96,1,175
256,192,43399,12,0,44898
256,184,47803,5,0
256,184,48124,1,0
80,56,54642,6,0,B|80:224,2,140
80,56,55726,1,0
176,56,56355,2,0,B|176:216,2,140
176,56,57439,1,0
256,192,61387,12,0,62993
320,88,64934,6,0,B|336:176|264:192,1,105
240,120,65777,1,0
240,120,65991,1,0
152,120,66433,1,0
56,64,68361,2,0,B|56:216,1,140
144,208,69217,2,0,B|144:48,1,140
232,64,70074,2,0,B|232:224,1,140
320,208,70930,2,0,B|320:56,1,140
408,96,71787,6,0,B|240:288|32:80,1,420
45,92,73500,2,0,B|240:288|416:96,1,420
320,104,78626,6,0,B|304:176|224:184,1,105
232,104,79483,1,0
232,104,79697,1,0
136,104,80125,1,0
120,64,82052,6,0,B|120:304,1,210
208,272,83123,1,0
208,272,83551,1,0
296,272,83779,2,0,B|296:48,1,210
296,62,84636,1,0
296,62,84850,1,0
80,120,85492,6,0,B|248:264|440:128,1,385
432,133,87098,2,0,B|240:272|80:120,1,385
80,128,88919,1,0
80,128,89561,1,0
176,128,90204,1,0
176,128,90418,1,0
112,120,124895,6,0,B|144:184|224:168,1,105
192,104,125752,1,0
192,104,125966,1,0
272,104,126394,1,0
448,56,128322,6,0,B|288:56,1,140
304,144,129178,2,0,B|472:144,1,140
448,240,130035,2,0,B|296:240,1,140
312,328,130891,2,0,B|480:328,1,140
488,320,131748,6,0,B|256:192|-8:336,1,490
16,224,133461,2,0,B|416:96,1,420
112,112,138587,6,0,B|176:184|256:160,1,140
208,80,139444,5,0
208,80,139658,1,0
296,80,140086,1,0
112,32,142013,2,0,B|112:208,1,175
112,200,142763,1,0
112,200,143191,1,0
208,208,143740,2,0,B|208:360,2,140
48,304,145453,6,0,B|248:144|496:320,1,455
496,200,147167,2,0,B|256:72|48:176,1,455
56,104,148973,1,0
144,104,149616,1,0
232,104,150258,1,0
232,104,150472,1,0
328,64,152185,5,0
328,64,152400,1,0
328,152,153042,1,0
328,240,153470,1,0
328,240,153684,1,0
256,192,153792,12,0,155719
144,128,169531,6,0,B|176:192|256:176,1,105
232,104,170388,1,0
232,104,170602,1,0
320,104,171030,1,0
