osu file format v9

[General]
AudioFilename: Hatsune Miku Project DIVA DREAMY THEATER 2nd - Time Limit (1).mp3
AudioLeadIn: 0
PreviewTime: -1
Countdown: 0
SampleSet: Soft
StackLeniency: 0.7
Mode: 0
LetterboxInBreaks: 1
SkinPreference:pjo!

[Editor]
DistanceSpacing: 0.8
BeatDivisor: 4
GridSize: 8

[Metadata]
Title:Time Limit
Artist:Hatsune Miku
Creator:--Miyuki Nyan--
Version:Nyan
Source:North-T
Tags:Hatsune Miku Time Limit North-T Project Diva Anime Manga Vocaloid Vocaloid2

[Difficulty]
HPDrainRate:2
CircleSize:4
OverallDifficulty:2
ApproachRate:2
SliderMultiplier:1.4
SliderTickRate:2

[Events]
//Background and Video events
Video,0,"Hatsune_Miku_Project_DIVA_DREAMY_THEATER_2nd_Time_.avi"
0,0,"MJV-ART.ORG_-_34470-1920x1080-vocaloid-hatsune+miku-widescreen.jpg"
//Break Periods
//Storyboard Layer 0 (Background)
//Storyboard Layer 1 (Fail)
//Storyboard Layer 2 (Pass)
//Storyboard Layer 3 (Foreground)
//Storyboard Sound Samples
//Background Colour Transformations
3,100,3,167,163

[TimingPoints]
1012,428.293103448279,4,2,0,100,1,0

[Colours]
Combo1 : 118,255,79
Combo2 : 111,253,245
Combo3 : 5,134,239
Combo4 : 80,243,1

[HitObjects]
48,320,3153,1,0
48,248,3260,1,0
64,176,3367,1,0
104,112,3474,1,0
152,64,3581,1,0
216,40,3688,1,0
288,40,3795,1,0
352,56,3902,1,0
392,112,4010,1,0
408,184,4117,1,0
416,256,4224,1,0
416,336,4331,1,0
336,336,4438,1,0
256,336,4545,1,0
176,336,4652,2,0,B|128:336,1,35
40,120,6151,5,0
88,64,6258,1,0
152,40,6365,1,0
224,40,6472,1,0
296,40,6579,1,0
456,192,7757,5,0
448,264,7864,1,0
384,304,7971,1,0
312,320,8078,1,0
240,328,8185,1,0
352,56,9256,5,0
424,80,9363,1,0
472,128,9470,1,0
496,192,9577,1,0
496,264,9684,1,0
464,328,9792,1,0
40,224,10969,5,0
96,264,11076,1,0
160,296,11183,1,0
224,312,11291,1,0
296,320,11398,1,0
80,56,13325,6,0,B|80:152,1,70
80,126,13860,1,0
80,126,14074,1,0
176,64,14503,2,0,B|264:64,2,70
176,64,15359,1,0
304,40,15788,5,0
376,56,15895,1,0
432,80,16002,1,0
472,144,16109,1,0
96,320,16644,5,0
96,320,16858,2,0,B|96:240,1,70
176,240,17287,2,0,B|176:144,1,70
240,128,17929,2,0,B|328:128,2,70
48,192,18786,6,0,B|96:160,1,35
136,136,19000,1,0
192,192,19107,1,0
248,136,19214,1,0
312,192,19321,1,0
376,136,19428,1,0
432,200,19642,2,0,B|512:200,1,70
448,120,20178,5,0
368,56,20392,1,0
296,120,20606,1,0
224,48,20927,2,0,B|120:48,1,105
56,296,21784,5,0
120,232,21998,1,0
184,296,22319,1,0
256,232,22640,2,0,B|344:232,1,70
256,40,23604,5,0
328,64,23711,1,0
296,136,23818,1,0
352,192,23925,1,0
288,232,24139,1,0
344,280,24353,1,0
288,328,24568,1,0
168,48,25317,5,0
104,72,25424,1,0
160,128,25531,1,0
96,176,25638,1,0
160,224,25853,1,0
96,272,26067,1,0
160,312,26281,1,0
256,192,26495,5,0
328,192,26709,1,0
400,192,26923,1,0
256,192,27030,12,0,29814
80,72,30457,6,0,B|176:72,1,70
152,152,30992,2,0,B|232:152,1,70
304,160,31634,2,0,B|304:88,1,70
304,90,32063,1,0
304,232,32491,1,0
432,56,32812,5,0
360,56,33026,1,0
288,56,33241,1,0
216,56,33669,1,0
48,320,33883,6,0,B|48:248,1,70
48,248,34418,1,0
128,248,34633,1,0
256,176,35061,2,0,B|256:264,2,70
432,48,35917,5,0
360,48,36132,1,0
440,144,36346,5,0
368,144,36560,1,0
264,144,36881,5,0
48,256,37202,5,0
112,200,37416,1,0
176,144,37738,1,0
264,64,38059,2,0,B|400:208,1,175
416,240,39130,5,0
360,168,39451,1,0
296,88,39772,2,0,B|136:256,1,210
48,48,40736,5,0
120,48,40843,1,0
192,48,40950,1,0
256,88,41057,1,0
280,160,41271,1,0
240,224,41485,1,0
176,256,41699,1,0
112,208,41913,1,0
112,208,42021,1,0
456,48,42449,5,0
384,48,42556,1,0
312,56,42663,1,0
272,112,42877,1,0
272,184,43091,1,0
288,256,43198,1,0
256,192,43413,12,0,45447
256,128,47160,6,0,B|256:224,2,70
328,128,47803,1,0
400,128,48124,1,0
408,232,49194,6,0,B|408:288,2,35
408,232,49730,1,0
328,232,50051,2,0,B|152:232,1,175
152,152,50801,1,0
152,152,51015,1,0
56,64,51229,2,0,B|432:64,1,350
408,128,52514,1,0
408,192,52728,2,0,B|48:192,1,350
440,48,54334,5,0
368,48,54548,2,0,B|288:48,1,70
336,120,54976,1,0
336,192,55191,2,0,B|240:192,1,70
256,272,55512,1,0
176,272,55619,1,0
176,192,55726,1,0
104,96,56047,5,0
104,168,56261,2,0,B|104:248,1,70
104,312,56583,2,0,B|176:312,1,70
248,312,57011,1,0
248,312,57332,1,0
256,64,57867,6,0,B|256:152,2,70
328,64,58510,1,0
328,64,58724,1,0
400,64,58938,1,0
400,136,59152,2,0,B|400:176,1,35,0|0
400,272,59581,6,0,B|320:272,2,70
472,272,60223,1,0
472,272,60330,1,0
472,192,60544,2,0,B|472:64,1,105
472,87,61080,1,0
472,87,61294,1,0
256,192,61615,12,0,62686
256,192,62900,5,0
