osu file format v9

[General]
AudioFilename: The Secret Garden.mp3
AudioLeadIn: 0
PreviewTime: 71964
Countdown: 0
SampleSet: Normal
StackLeniency: 0.2
Mode: 1
LetterboxInBreaks: 0

[Editor]
Bookmarks: 104686,115513
DistanceSpacing: 0
BeatDivisor: 4
GridSize: 32

[Metadata]
Title:The Secret Garden
Artist:Hatsune Miku
Creator:Krisom
Version:Taiko Oni
Source:Otomania
Tags:Kosaki Satoru Hata Aki Project Diva 2nd Vocaloid Niwa no Himitsu

[Difficulty]
HPDrainRate:5
CircleSize:5
OverallDifficulty:5
ApproachRate:5
SliderMultiplier:1.4
SliderTickRate:2

[Events]
//Background and Video events
Video,-1217,"[HD] Hatsune Miku Project Diva_ Dreamy Theater - The secret garden.AVI"
0,0,"BGtaiko.jpg"
//Break Periods
//Storyboard Layer 0 (Background)
//Storyboard Layer 1 (Fail)
//Storyboard Layer 2 (Pass)
//Storyboard Layer 3 (Foreground)
//Storyboard Sound Samples
//Background Colour Transformations
3,100,163,162,255

[TimingPoints]
10,451.127819548872,4,1,0,80,1,0
72190,-100,4,1,0,80,0,1
101062,-100,4,1,0,80,0,0
158806,-100,4,1,0,80,0,1
187679,-100,4,1,1,80,0,0

[Colours]
Combo1 : 249,213,6
Combo2 : 5,240,5
Combo3 : 240,5,5
Combo4 : 5,5,240
SliderBorder : 202,202,202

[HitObjects]
256,192,12641,1,0
256,192,13092,1,0
256,192,13543,1,8
256,192,14446,1,4
256,192,14671,1,0
256,192,14897,1,8
256,192,15122,1,0
256,192,15235,1,0
256,192,15348,1,0
256,192,15573,1,0
256,192,15799,1,8
256,192,15912,1,8
256,192,16137,1,8
256,192,16363,1,0
256,192,16588,1,8
256,192,16814,1,8
256,192,17040,1,8
256,192,17152,1,0
256,192,17378,1,0
256,192,17603,1,8
256,192,17829,1,0
256,192,17942,1,8
256,192,18055,1,0
256,192,18280,1,0
256,192,18506,1,8
256,192,18731,1,0
256,192,18844,1,0
256,192,18957,1,0
256,192,19182,1,0
256,192,19408,1,8
256,192,19521,1,8
256,192,19746,1,8
256,192,19972,1,0
256,192,20197,1,8
256,192,20423,1,8
256,192,20649,1,8
256,192,20761,1,0
256,192,20987,1,0
256,192,21212,1,8
256,192,21438,1,0
256,192,21551,1,8
256,192,21664,1,0
256,192,21889,1,0
256,192,22115,1,8
256,192,22340,1,0
256,192,22453,1,0
256,192,22566,1,8
256,192,22791,1,0
256,192,23017,1,0
256,192,23130,1,8
256,192,23355,1,8
256,192,23581,1,0
256,192,23806,1,8
256,192,24032,1,8
256,192,24258,1,8
256,192,24370,1,0
256,192,24596,1,0
256,192,24822,1,8
256,192,25047,1,0
256,192,25160,1,8
256,192,25273,1,0
256,192,25498,1,0
256,192,25724,1,8
256,192,25949,1,0
256,192,26062,1,0
256,192,26175,1,8
256,192,26400,1,0
256,192,26626,1,0
256,192,26739,1,8
256,192,26964,1,8
256,192,27190,1,0
256,192,27415,1,8
256,192,27641,1,8
256,192,27867,1,8
256,192,27979,1,0
256,192,28205,1,0
256,192,28431,1,8
256,192,28656,1,0
256,192,28882,1,4
256,192,29333,1,8
256,192,29558,1,8
256,192,29784,1,0
256,192,30009,1,0
256,192,30235,1,8
256,192,30461,1,0
256,192,30912,1,0
256,192,31137,1,8
256,192,31363,1,8
256,192,31814,1,0
256,192,32040,1,8
256,192,32265,1,0
256,192,32378,1,8
256,192,32491,1,0
256,192,32942,1,8
224,192,33167,1,8
256,192,33393,1,0
256,192,33619,1,0
256,192,33844,1,8
256,192,34070,1,8
256,192,34521,1,0
256,192,34746,1,8
256,192,34972,1,8
256,192,35423,1,0
256,192,35649,1,8
256,192,35874,1,0
256,192,35987,1,8
256,192,36100,1,0
256,192,36325,1,0
256,192,36551,1,8
256,192,36776,1,8
256,192,37228,1,0
256,192,37453,1,8
256,192,37679,1,8
256,192,37904,1,0
256,192,38130,1,0
256,192,38355,1,8
256,192,38581,1,0
256,192,38694,1,8
256,192,38806,1,0
256,192,39032,1,0
256,192,39258,1,8
256,192,39483,1,8
256,192,39709,1,0
256,192,39934,1,0
256,192,40160,1,8
256,192,40385,1,8
256,192,40837,1,0
256,192,41062,1,8
256,192,41288,1,8
256,192,41739,1,0
256,192,41964,1,8
256,192,42190,1,8
256,192,42416,1,0
256,192,42641,1,0
256,192,42867,1,8
256,192,43092,1,0
256,192,43318,1,4
256,192,43543,1,0
256,192,43769,1,8
256,192,43994,1,0
256,192,44107,1,8
256,192,44220,1,0
256,192,44446,1,0
256,192,44671,1,8
256,192,44897,1,8
256,192,45348,1,0
256,192,45573,1,8
256,192,45799,1,8
256,192,46025,1,0
256,192,46137,1,8
256,192,46250,1,0
256,192,46476,1,8
256,192,46701,1,0
256,192,46814,1,8
256,192,46927,1,0
256,192,47152,1,0
256,192,47378,1,8
256,192,47603,1,8
256,192,47829,1,0
256,192,48055,1,0
256,192,48280,1,8
256,192,48506,1,8
256,192,48957,1,0
256,192,49182,1,8
256,192,49408,1,8
256,192,49634,1,0
256,192,49746,1,8
256,192,49859,1,0
256,192,50085,1,8
256,192,50310,1,8
256,192,50423,1,8
256,192,50536,1,0
256,192,50761,1,0
256,192,50987,1,8
256,192,51213,1,8
256,192,51438,1,0
256,192,51664,1,0
256,192,51889,1,8
256,192,52115,1,8
256,192,52228,1,8
256,192,52340,1,0
256,192,52566,1,0
256,192,52791,1,8
256,192,53017,1,0
256,192,53243,1,8
256,192,53468,1,8
256,192,53694,1,0
256,192,53919,1,8
256,192,54032,1,8
256,192,54145,1,0
256,192,54596,1,8
256,192,54709,1,8
256,192,54822,1,0
256,192,55273,1,8
256,192,55498,1,0
256,192,55724,1,8
256,192,55949,1,0
256,192,56400,1,8
256,192,56626,1,0
256,192,56852,1,8
256,192,57077,1,8
256,192,57303,1,8
256,192,57528,1,0
256,192,57754,1,4
256,192,57979,1,8
256,192,58092,1,8
256,192,58205,1,0
256,192,58431,1,8
256,192,58882,1,8
256,192,59107,1,8
256,192,59333,1,0
256,192,59446,1,0
256,192,59558,1,8
256,192,59784,1,8
256,192,59897,1,8
256,192,60009,1,0
256,192,60235,1,8
256,192,60686,1,8
256,192,60912,1,8
256,192,61137,1,0
256,192,61363,1,8
256,192,61814,1,8
256,192,62265,1,8
256,192,62716,1,0
256,192,62942,1,8
256,192,63393,1,8
256,192,63619,1,0
256,192,64070,1,8
256,192,64295,1,0
256,192,64521,1,8
256,192,64746,1,0
256,192,64972,1,4
256,192,65197,1,8
256,192,65310,1,8
256,192,65423,1,0
256,192,65649,1,8
256,192,66100,1,8
256,192,66325,1,8
256,192,66551,1,0
256,192,66664,1,0
256,192,66776,1,8
256,192,67002,1,8
256,192,67115,1,8
256,192,67228,1,0
256,192,67453,1,0
256,192,67904,1,0
256,192,68130,1,8
256,192,68355,1,0
256,192,68581,1,8
256,192,68806,1,8
256,192,68919,1,8
256,192,69032,1,0
256,192,69258,1,8
256,192,69370,1,8
256,192,69483,1,0
256,192,69709,1,8
256,192,69822,1,8
256,192,69934,1,0
256,192,70160,1,8
256,192,70385,1,0
256,192,70611,1,8
256,192,70837,1,0
256,192,71062,1,8
256,192,71288,1,0
256,192,71513,1,8
256,192,71626,1,0
256,192,71739,1,8
256,192,71964,1,0
256,192,72190,1,12
256,192,72641,1,0
256,192,72867,1,0
256,192,73092,1,8
256,192,73318,1,0
256,192,73431,1,0
256,192,73543,1,8
256,192,73769,1,0
256,192,73994,1,12
256,192,74446,1,0
256,192,74671,1,0
256,192,74896,1,8
256,192,75122,1,0
256,192,75347,1,8
256,192,75573,1,0
256,192,75686,1,0
256,192,75799,1,8
256,192,76025,1,8
256,192,76137,1,8
256,192,76250,1,0
256,192,76476,1,8
256,192,76927,1,8
256,192,77152,1,0
256,192,77378,1,8
256,192,77829,1,8
256,192,78055,1,0
256,192,78506,1,4
256,192,78957,1,4
256,192,79408,1,12
256,192,79859,1,0
256,192,80085,1,8
256,192,80310,1,0
256,192,80536,1,8
256,192,80649,1,0
256,192,80761,1,8
256,192,80987,1,0
256,192,81100,1,8
256,192,81213,1,0
256,192,81664,1,0
256,192,81889,1,8
256,192,82114,1,0
256,192,82340,1,8
256,192,82453,1,0
256,192,82565,1,8
256,192,82791,1,0
256,192,83017,1,12
256,192,83243,1,0
256,192,83468,1,8
256,192,83694,1,8
256,192,84145,1,0
256,192,84370,1,8
256,192,84596,1,8
256,192,85047,1,8
256,192,85273,1,8
256,192,85498,1,0
256,192,85724,1,4
256,192,86175,1,4
256,192,86626,1,12
256,192,87077,1,0
256,192,87303,1,0
256,192,87528,1,8
256,192,87754,1,0
256,192,87867,1,0
256,192,87979,1,8
256,192,88205,1,0
256,192,88430,1,12
256,192,88882,1,0
256,192,89107,1,0
256,192,89332,1,8
256,192,89558,1,0
256,192,89783,1,8
256,192,90009,1,0
256,192,90122,1,0
256,192,90235,1,8
256,192,90461,1,8
256,192,90573,1,8
256,192,90686,1,0
256,192,90912,1,8
256,192,91363,1,8
256,192,91588,1,0
256,192,91814,1,8
256,192,92265,1,8
256,192,92491,1,0
256,192,92942,1,4
256,192,93393,1,4
256,192,93844,1,12
256,192,94295,1,0
256,192,94521,1,8
256,192,94746,1,0
256,192,94972,1,8
256,192,95085,1,0
256,192,95197,1,8
256,192,95423,1,8
256,192,95536,1,0
256,192,95649,1,8
256,192,96100,1,0
256,192,96325,1,8
256,192,96550,1,0
256,192,96776,1,8
256,192,96889,1,0
256,192,97001,1,8
256,192,97227,1,0
256,192,97453,1,12
256,192,97679,1,0
256,192,97904,1,8
256,192,98130,1,8
256,192,98581,1,0
256,192,98806,1,8
256,192,99032,1,8
256,192,99483,1,8
256,192,99709,1,8
256,192,99934,1,0
256,192,100160,1,4
256,192,100611,1,4
256,192,101062,12,0,104671
256,192,106476,5,0
256,192,106701,1,8
256,192,106927,1,8
256,192,107152,1,0
256,192,107378,1,0
256,192,107603,1,8
256,192,107716,1,8
256,192,107829,1,8
256,192,107942,1,0
256,192,108055,1,0
256,192,108167,1,0
256,192,108280,1,0
256,192,108506,1,0
256,192,108731,1,8
256,192,108957,1,0
256,192,109182,1,0
256,192,109408,1,8
256,192,109634,1,8
256,192,109746,1,0
256,192,109972,1,0
256,192,110197,1,0
256,192,110423,1,8
256,192,110649,1,8
256,192,110874,1,8
256,192,110987,1,0
256,192,111213,1,0
256,192,111438,1,8
256,192,111664,1,0
256,192,111776,1,8
256,192,111889,1,0
256,192,112115,1,0
256,192,112340,1,8
256,192,112566,1,0
256,192,112791,1,0
256,192,113017,1,8
256,192,113243,1,8
256,192,113355,1,0
256,192,113581,1,0
256,192,113806,1,0
256,192,114032,1,8
256,192,114258,1,8
256,192,114483,1,8
256,192,114596,1,0
256,192,114822,1,0
256,192,115047,1,8
256,192,115273,1,0
256,192,115385,1,8
256,192,115498,1,0
256,192,116175,1,0
256,192,116400,1,8
256,192,116852,1,8
256,192,117077,1,0
256,192,117754,1,0
256,192,117979,1,8
256,192,118431,1,8
256,192,118882,1,0
256,192,119784,1,0
256,192,120009,1,8
256,192,120461,1,8
256,192,120686,1,0
256,192,121363,1,0
256,192,121588,1,8
256,192,122040,1,8
256,192,122491,1,0
256,192,122942,1,8
256,192,123167,1,0
256,192,123393,1,8
256,192,123844,1,8
256,192,124070,1,0
256,192,124521,1,8
256,192,124972,1,8
256,192,125423,1,0
256,192,125874,1,0
256,192,126325,1,0
256,192,126776,1,8
256,192,127002,1,0
256,192,127453,1,0
256,192,127679,1,8
256,192,128130,1,0
256,192,128806,1,0
256,192,129032,1,8
256,192,129258,1,8
256,192,129483,1,8
256,192,129709,1,0
256,192,129934,1,4
256,192,130160,1,0
256,192,130385,1,8
256,192,130611,1,0
256,192,130724,1,8
256,192,130837,1,0
256,192,131062,1,0
256,192,131288,1,8
256,192,131513,1,0
256,192,131964,1,0
256,192,132190,1,8
256,192,132416,1,0
256,192,132528,1,8
256,192,132641,1,0
256,192,132867,1,0
256,192,133092,1,8
256,192,133318,1,0
256,192,133769,1,0
256,192,133994,1,8
256,192,134220,1,0
256,192,134446,1,8
256,192,134671,1,0
256,192,134897,1,0
256,192,135122,1,8
256,192,135573,1,0
256,192,135799,1,8
256,192,136024,1,0
256,192,136137,1,8
256,192,136250,1,0
256,192,136476,1,0
256,192,136701,1,8
256,192,136927,1,0
256,192,137040,1,0
256,192,137152,1,0
256,192,137378,1,0
256,192,137603,1,8
256,192,137829,1,0
256,192,138280,1,0
256,192,138506,1,8
256,192,138731,1,8
256,192,138957,1,0
256,192,139182,1,0
256,192,139408,1,8
256,192,139634,1,0
256,192,139859,1,8
256,192,140085,1,8
256,192,140310,1,0
256,192,140536,1,8
256,192,140761,1,0
256,192,140987,1,8
256,192,141100,1,8
256,192,141213,1,0
256,192,141438,1,8
256,192,141889,1,8
256,192,142115,1,0
256,192,142340,1,8
256,192,142791,1,8
256,192,143017,1,0
256,192,143243,1,0
256,192,143468,1,8
256,192,143694,1,8
256,192,143919,1,0
256,192,144145,1,0
256,192,144370,1,4
256,192,144596,1,8
256,192,144709,1,8
256,192,144822,1,0
256,192,145047,1,8
256,192,145498,1,8
256,192,145724,1,0
256,192,145949,1,8
256,192,146062,1,8
256,192,146175,1,0
256,192,146400,1,8
256,192,146513,1,8
256,192,146626,1,0
256,192,146852,1,8
256,192,147303,1,8
256,192,147528,1,0
256,192,147754,1,8
256,192,147979,1,0
256,192,148431,1,8
256,192,148882,1,0
256,192,149333,1,8
256,192,149558,1,0
256,192,150009,1,8
256,192,150122,1,8
256,192,150235,1,0
256,192,150686,1,8
256,192,150912,1,0
256,192,151137,1,8
256,192,151588,1,4
256,192,151814,1,8
256,192,151927,1,8
256,192,152040,1,0
256,192,152265,1,8
256,192,152716,1,0
256,192,152942,1,0
256,192,153167,1,8
256,192,153280,1,8
256,192,153393,1,0
256,192,153619,1,8
256,192,153731,1,8
256,192,153844,1,0
256,192,154070,1,0
256,192,154521,1,0
256,192,154747,1,8
256,192,154972,1,0
256,192,155198,1,8
256,192,155423,1,8
256,192,155536,1,8
256,192,155649,1,0
256,192,155875,1,8
256,192,155987,1,8
256,192,156100,1,0
256,192,156326,1,8
256,192,156439,1,8
256,192,156551,1,0
256,192,156777,1,8
256,192,157002,1,0
256,192,157228,1,8
256,192,157454,1,0
256,192,157679,1,8
256,192,157905,1,0
256,192,158130,1,8
256,192,158243,1,0
256,192,158356,1,8
256,192,158581,1,0
256,192,158807,1,12
256,192,159258,1,0
256,192,159483,1,0
256,192,159708,1,8
256,192,159934,1,0
256,192,160047,1,0
256,192,160159,1,8
256,192,160385,1,0
256,192,160610,1,12
256,192,161062,1,0
256,192,161287,1,0
256,192,161512,1,8
256,192,161738,1,0
256,192,161963,1,8
256,192,162189,1,0
256,192,162302,1,0
256,192,162415,1,8
256,192,162641,1,8
256,192,162754,1,8
256,192,162866,1,0
256,192,163092,1,8
256,192,163543,1,8
256,192,163768,1,0
256,192,163994,1,8
256,192,164445,1,8
256,192,164671,1,0
256,192,165122,1,4
256,192,165573,1,4
256,192,166024,1,12
256,192,166476,1,0
256,192,166701,1,8
256,192,166926,1,0
256,192,167152,1,8
256,192,167265,1,0
256,192,167377,1,8
256,192,167603,1,8
256,192,167716,1,0
256,192,167829,1,8
256,192,168280,1,0
256,192,168505,1,8
256,192,168730,1,0
256,192,168956,1,8
256,192,169070,1,0
256,192,169181,1,8
256,192,169407,1,0
256,192,169633,1,12
256,192,169859,1,0
256,192,170084,1,8
256,192,170310,1,8
256,192,170761,1,0
256,192,170986,1,8
256,192,171212,1,8
256,192,171663,1,8
256,192,171889,1,8
256,192,172114,1,0
256,192,172340,1,4
256,192,172791,1,4
256,192,173242,1,12
256,192,173694,1,0
256,192,173919,1,8
256,192,174144,1,8
256,192,174370,1,0
256,192,174483,1,0
256,192,174595,1,8
256,192,174821,1,0
256,192,175046,1,12
256,192,175498,1,0
256,192,175723,1,8
256,192,175948,1,8
256,192,176174,1,0
256,192,176399,1,8
256,192,176625,1,0
256,192,176738,1,0
256,192,176851,1,8
256,192,177077,1,8
256,192,177190,1,8
256,192,177302,1,0
256,192,177528,1,8
256,192,177979,1,8
256,192,178204,1,0
256,192,178430,1,8
256,192,178881,1,8
256,192,179107,1,0
256,192,179558,1,4
256,192,180009,1,4
256,192,180460,1,12
256,192,180912,1,0
256,192,181137,1,8
256,192,181362,1,0
256,192,181588,1,8
256,192,181701,1,0
256,192,181813,1,8
256,192,182039,1,8
256,192,182152,1,0
256,192,182265,1,8
256,192,182716,1,0
256,192,182941,1,8
256,192,183166,1,0
256,192,183392,1,8
256,192,183506,1,0
256,192,183619,1,8
256,192,183843,1,0
256,192,184069,1,12
256,192,184295,1,0
256,192,184520,1,8
256,192,184746,1,8
256,192,185197,1,0
256,192,185422,1,8
256,192,185648,1,8
256,192,186099,1,8
256,192,186325,1,8
256,192,186550,1,0
256,192,186776,1,4
256,192,187227,1,4
256,192,187678,12,0,191287
