osu file format v9

[General]
AudioFilename: The Secret Garden.mp3
AudioLeadIn: 0
PreviewTime: 71964
Countdown: 0
SampleSet: Normal
StackLeniency: 0.2
Mode: 1
LetterboxInBreaks: 0

[Editor]
Bookmarks: 104686,115513
DistanceSpacing: 0
BeatDivisor: 4
GridSize: 32

[Metadata]
Title:The Secret Garden
Artist:Hatsune Miku
Creator:Krisom
Version:Taiko Muzukashii
Source:Otomania
Tags:Kosaki Satoru Hata Aki Project Diva 2nd Vocaloid Niwa no Himitsu

[Difficulty]
HPDrainRate:5
CircleSize:5
OverallDifficulty:5
ApproachRate:5
SliderMultiplier:1.4
SliderTickRate:2

[Events]
//Background and Video events
Video,-1217,"[HD] Hatsune Miku Project Diva_ Dreamy Theater - The secret garden.AVI"
0,0,"BGtaiko.jpg"
//Break Periods
//Storyboard Layer 0 (Background)
//Storyboard Layer 1 (Fail)
//Storyboard Layer 2 (Pass)
//Storyboard Layer 3 (Foreground)
//Storyboard Sound Samples
//Background Colour Transformations
3,100,163,162,255

[TimingPoints]
10,451.127819548872,4,1,0,60,1,0
72190,-100,4,1,0,60,0,1
101062,-100,4,1,0,60,0,0
158806,-100,4,1,0,60,0,1
187679,-100,4,1,1,60,0,0

[Colours]
Combo1 : 249,213,6
Combo2 : 5,240,5
Combo3 : 240,5,5
Combo4 : 5,5,240
SliderBorder : 202,202,202

[HitObjects]
256,192,12641,1,0
256,192,13092,1,0
256,192,13543,1,8
256,192,14446,1,4
256,192,14897,1,8
256,192,15573,1,0
256,192,15799,1,8
256,192,16250,1,0
256,192,16701,1,8
256,192,17152,1,0
256,192,17378,1,0
256,192,17603,1,8
256,192,18055,1,0
256,192,18506,1,8
256,192,19182,1,0
256,192,19408,1,8
256,192,19859,1,0
256,192,20310,1,8
256,192,20761,1,0
256,192,20987,1,0
256,192,21213,1,8
256,192,21438,1,0
256,192,21664,1,4
256,192,22115,1,0
256,192,22340,1,0
256,192,22566,1,8
256,192,22791,1,0
256,192,23243,1,8
256,192,23468,1,0
256,192,23919,1,0
256,192,24370,1,8
256,192,24596,1,0
256,192,25273,1,0
256,192,25724,1,0
256,192,25949,1,0
256,192,26175,1,8
256,192,26400,1,0
256,192,26852,1,8
256,192,27077,1,0
256,192,27528,1,0
256,192,27979,1,0
256,192,28431,1,0
256,192,28882,1,4
256,192,29558,1,8
256,192,29784,1,0
256,192,30235,1,0
256,192,30461,1,8
256,192,31138,1,0
256,192,31363,1,8
256,192,31814,1,8
256,192,32266,1,0
256,192,33167,1,8
256,192,33393,1,0
256,192,33844,1,0
256,192,34070,1,8
256,192,34746,1,0
256,192,34972,1,8
256,192,35423,1,8
256,192,35874,2,0,B|32:192|32:192|32:64|32:64|256:64|256:64|256:160|256:160,1,630
256,128,38581,1,8
256,128,38807,1,0
256,128,39032,1,8
256,128,39258,1,8
256,128,39484,1,0
256,128,39709,1,8
256,128,40160,1,0
256,128,40386,1,8
256,128,40837,1,0
256,128,41288,1,8
256,128,42190,1,0
256,128,42416,1,8
256,128,42641,1,8
256,128,42867,1,0
256,128,43092,1,0
256,128,43318,1,4
256,128,43769,1,8
256,128,44220,1,0
256,128,44446,1,0
256,128,44671,1,8
256,128,45122,1,0
256,128,45348,1,0
256,128,45573,1,8
256,128,46025,1,0
256,128,46250,1,0
256,128,46476,1,8
256,128,46701,1,0
256,128,46927,1,0
256,128,47378,1,8
256,128,47829,1,0
256,128,48055,1,0
256,128,48280,1,8
256,128,48506,1,8
256,128,49182,1,0
256,128,49407,1,8
256,128,49859,1,0
256,118,50310,2,0,B|256:160|256:64|256:64|32:64|32:64|32:192|32:192|256:192,1,630
256,128,53017,1,0
256,128,53243,1,8
256,128,53468,1,8
256,128,53694,1,0
256,128,53920,1,0
256,128,54145,1,8
256,128,54596,1,0
256,128,54822,1,8
256,128,55273,1,0
256,128,55724,1,8
256,128,56626,1,0
256,128,56852,1,0
256,128,57077,1,0
256,128,57303,1,8
256,128,57528,1,0
256,128,57754,2,0,B|480:128,1,210
480,128,59558,2,0,B|256:128,1,210
256,128,61137,1,0
256,128,61363,1,8
256,128,61814,1,8
256,128,62265,1,8
256,128,62716,1,0
256,128,62942,1,8
256,128,63393,1,8
256,128,63619,1,0
256,128,64070,1,8
256,128,64521,1,0
256,128,64972,2,0,B|32:128,1,210
32,128,66776,2,0,B|288:128,1,210
256,128,67904,1,0
256,128,68130,1,8
256,128,68355,1,0
256,128,68581,1,8
256,128,69032,1,0
256,128,69483,1,8
256,128,69934,1,0
256,128,70385,1,0
256,128,70837,1,0
256,128,71288,1,0
256,128,71739,1,8
256,128,72190,1,12
256,128,72867,1,0
256,128,73092,1,8
256,128,73543,1,0
256,128,73994,1,12
256,128,74671,1,0
256,128,74897,1,8
256,128,75348,1,0
256,128,75799,1,0
256,128,76025,1,0
256,128,76250,1,8
256,128,76476,1,0
256,128,76927,1,0
256,128,77378,1,8
256,128,77829,1,8
256,128,78055,1,0
256,128,78506,1,4
256,128,78957,1,4
256,128,79408,1,12
256,128,80085,1,8
256,128,80310,1,0
256,128,80761,1,8
256,128,80987,1,0
256,128,81213,1,12
256,128,81889,1,0
256,128,82115,1,8
256,128,82566,1,8
256,128,82791,1,0
256,128,83017,1,12
256,128,83468,1,0
256,128,83693,1,12
256,128,84145,1,12
256,128,84596,1,0
256,128,85047,1,8
256,128,85273,1,8
256,128,85498,1,0
256,128,85724,1,4
256,128,86175,1,4
256,128,86626,1,12
256,128,87303,1,0
256,128,87528,1,8
256,128,87979,1,0
256,128,88430,1,12
256,128,89107,1,0
256,128,89333,1,8
256,128,89784,1,0
256,128,90235,1,0
256,128,90461,1,0
256,128,90686,1,8
256,128,90912,1,0
256,128,91363,1,0
256,128,91814,1,8
256,128,92265,1,8
256,128,92491,1,0
256,128,92942,1,4
256,128,93393,1,4
256,128,93844,1,12
256,128,94521,1,8
256,128,94746,1,0
256,128,95197,1,8
256,128,95423,1,0
256,128,95649,1,12
256,128,96325,1,0
256,128,96551,1,8
256,128,97002,1,8
256,128,97227,1,0
256,128,97453,1,12
256,128,97904,1,0
256,128,98129,1,12
256,128,98581,1,12
256,128,99032,1,0
256,128,99483,1,8
256,128,99709,1,8
256,128,99934,1,0
256,128,100160,1,4
256,128,100611,1,4
256,192,101062,12,0,104671
256,192,106476,5,0
256,192,106927,1,0
256,192,107378,1,0
256,192,107829,1,0
256,192,108280,1,4
256,192,108506,1,0
256,192,108731,1,8
256,192,109182,1,8
256,192,109408,1,0
256,192,109634,1,8
256,192,110085,1,0
256,192,110536,1,8
256,192,110987,1,8
256,192,111213,1,0
256,192,111438,1,8
256,192,111889,1,0
256,192,112115,1,0
256,192,112340,1,8
256,192,112791,1,8
256,192,113017,1,0
256,192,113243,1,8
256,192,113694,1,0
256,192,114145,1,8
256,192,114596,1,8
256,192,114822,1,0
256,192,115047,1,8
256,192,115498,1,4
256,192,115949,1,8
256,192,116852,1,8
256,192,117303,1,0
256,192,117754,1,8
256,192,118656,1,0
256,192,119107,1,0
256,192,119558,1,8
256,192,120461,1,8
256,192,120912,1,0
256,192,121363,1,8
256,192,122265,1,8
256,192,122491,2,0,B|96:192|96:192|32:96|32:96|416:96,1,630
384,96,124972,1,8
384,96,125423,1,0
384,96,125874,1,8
384,96,126325,1,8
384,96,127002,1,8
384,96,127904,1,0
384,96,128581,1,8
384,96,129032,1,0
384,96,129483,1,8
384,96,129934,1,4
384,96,130160,1,0
384,96,130385,1,8
384,96,130611,1,0
384,96,131062,1,8
384,96,131288,1,8
384,96,131513,1,0
384,96,131964,1,0
384,96,132190,1,8
384,96,132416,1,0
384,96,132867,1,8
384,96,133092,1,8
384,96,133318,1,0
384,96,133543,1,0
384,96,133769,1,8
384,96,133994,1,8
384,96,134446,1,0
384,96,134672,1,8
384,96,134897,1,8
384,96,135348,1,0
384,96,135573,1,8
384,96,135799,1,8
384,96,136025,1,0
384,96,136250,1,0
384,96,136476,1,8
384,96,136701,1,8
384,96,136927,2,0,B|64:96|64:96|64:224|64:224|256:192,1,630
256,192,139408,1,8
256,192,139859,1,0
256,192,140085,1,8
256,192,140310,1,8
256,192,140761,1,8
256,192,140987,1,0
256,192,141213,1,0
256,192,141438,1,8
256,192,141889,1,0
256,192,142115,1,0
256,192,142340,1,8
256,192,142791,1,0
256,192,143017,1,0
256,192,143243,1,8
256,192,143468,1,8
256,192,143694,1,8
256,192,143919,1,0
256,192,144145,1,0
256,192,144370,1,4
256,192,144822,1,8
256,192,145047,1,0
256,192,145498,1,0
256,192,145724,1,8
256,192,145949,1,0
256,192,146175,1,4
256,192,146626,1,8
256,192,146852,1,0
256,192,147303,1,0
256,192,147528,1,8
256,192,147754,1,0
256,192,147979,1,8
256,192,148431,1,8
256,192,148882,1,8
256,192,149333,1,0
256,192,149558,1,8
256,192,150009,1,8
256,192,150235,1,0
256,192,150686,1,8
256,192,151137,1,0
256,192,151588,1,4
256,192,152040,1,8
256,192,152265,1,0
256,192,152716,1,0
256,192,152942,1,8
256,192,153167,1,0
256,192,153393,1,4
256,192,153844,1,8
256,192,154070,1,0
256,192,154521,1,0
256,192,154746,1,8
256,192,154972,1,0
256,192,155197,1,8
256,192,155649,1,0
256,192,156100,1,8
256,192,156551,1,0
256,192,157002,1,0
256,192,157453,1,0
256,192,157904,1,0
256,192,158355,1,8
256,128,158806,1,12
256,128,159483,1,0
256,128,159708,1,8
256,128,160159,1,0
256,128,160610,1,12
256,128,161287,1,0
256,128,161513,1,8
256,128,161964,1,0
256,128,162190,1,8
256,128,162303,1,8
256,128,162415,1,8
256,128,162866,1,8
256,128,163092,1,0
256,128,163543,1,0
256,128,163994,1,8
256,128,164445,1,8
256,128,164671,1,0
256,128,165122,1,4
256,128,165573,1,4
256,128,166024,1,12
256,128,166701,1,8
256,128,166926,1,0
256,128,167377,1,0
256,128,167603,1,8
256,128,167716,1,8
256,128,167829,1,8
256,128,168505,1,0
256,128,168731,1,8
256,128,169182,1,8
256,128,169407,1,0
256,128,169633,1,12
256,128,170084,1,0
256,128,170309,1,12
256,128,170761,1,12
256,128,171212,1,0
256,128,171663,1,8
256,128,171889,1,8
256,128,172114,1,0
256,128,172340,1,4
256,128,172791,1,4
256,128,173243,1,12
256,128,173920,1,0
256,128,174145,1,8
256,128,174596,1,0
256,128,175047,1,12
256,128,175724,1,0
256,128,175950,1,8
256,128,176401,1,0
256,128,176627,1,8
256,128,176740,1,8
256,128,176852,1,8
256,128,177303,1,8
256,128,177529,1,0
256,128,177980,1,0
256,128,178431,1,8
256,128,178882,1,8
256,128,179108,1,0
256,128,179559,1,4
256,128,180010,1,4
256,128,180461,1,12
256,128,181138,1,8
256,128,181363,1,0
256,128,181814,1,0
256,128,182040,1,8
256,128,182153,1,8
256,128,182266,1,8
256,128,182942,1,0
256,128,183168,1,8
256,128,183619,1,8
256,128,183844,1,0
256,128,184070,1,12
256,128,184521,1,0
256,128,184746,1,12
256,128,185198,1,12
256,128,185649,1,0
256,128,186100,1,8
256,128,186326,1,8
256,128,186551,1,0
256,128,186777,1,4
256,128,187228,1,4
256,192,187678,12,0,191287
