osu file format v9

[General]
AudioFilename: The Secret Garden.mp3
AudioLeadIn: 0
PreviewTime: 71964
Countdown: 0
SampleSet: Soft
StackLeniency: 0.7
Mode: 0
LetterboxInBreaks: 0

[Editor]
Bookmarks: 104686,115513
DistanceSpacing: 0.81
BeatDivisor: 2
GridSize: 4

[Metadata]
Title:The Secret Garden
Artist:Hatsune Miku
Creator:Krisom
Version:Insane
Source:Otomania
Tags:Kosaki Satoru Hata Aki Project Diva 2nd Vocaloid Niwa no Himitsu

[Difficulty]
HPDrainRate:6
CircleSize:4
OverallDifficulty:7
ApproachRate:7
SliderMultiplier:2.5
SliderTickRate:2

[Events]
//Background and Video events
0,0,"BG.jpg"
Video,-1217,"[HD] Hatsune Miku Project Diva_ Dreamy Theater - The secret garden.AVI"
//Break Periods
2,104871,114598
//Storyboard Layer 0 (Background)
//Storyboard Layer 1 (Fail)
//Storyboard Layer 2 (Pass)
//Storyboard Layer 3 (Foreground)
//Storyboard Sound Samples
//Background Colour Transformations
3,100,163,162,255

[TimingPoints]
10,451.127819548872,4,2,0,80,1,0
29220,-100,4,1,1,80,0,0
29446,-100,4,2,1,80,0,0
30122,-100,4,1,1,80,0,0
30348,-100,4,2,0,80,0,0
31137,-100,4,1,1,80,0,0
31363,-100,4,2,0,80,0,0
31927,-100,4,1,1,80,0,0
32152,-100,4,2,1,80,0,0
32829,-100,4,1,1,80,0,0
33055,-100,4,2,0,80,0,0
33731,-100,4,1,1,80,0,0
33957,-100,4,2,0,80,0,0
34746,-100,4,1,1,80,0,0
34859,-100,4,2,0,80,0,0
36551,-100,4,1,1,80,0,0
36664,-100,4,2,1,80,0,0
36889,-100,4,1,1,80,0,0
37566,-107.52688172043,4,1,1,80,0,0
38468,-100,4,2,0,80,0,0
39145,-100,4,1,1,80,0,0
39370,-100,4,2,0,80,0,0
40160,-100,4,1,1,80,0,0
40385,-100,4,2,0,80,0,0
40949,-100,4,1,1,80,0,0
41626,-100,4,2,0,80,0,0
42077,-100,4,1,0,80,0,0
42303,-100,4,2,0,80,0,0
42754,-100,4,1,1,80,0,0
42979,-100,4,2,0,80,0,0
43656,-100,4,1,0,80,0,0
43882,-100,4,2,0,80,0,0
44333,-100,4,2,0,80,0,0
44558,-100,4,1,1,80,0,0
44784,-100,4,2,0,80,0,0
45573,-100,4,1,1,80,0,0
45686,-100,4,2,0,80,0,0
46363,-100,4,1,1,80,0,0
46588,-100,4,2,1,80,0,0
47265,-100,4,1,1,80,0,0
47491,-100,4,2,0,80,0,0
48167,-100,4,1,1,80,0,0
48393,-100,4,1,1,60,0,0
48957,-100,4,2,1,80,0,0
49070,-100,4,1,1,80,0,0
49295,-100,4,2,0,80,0,0
49859,-100,4,1,1,80,0,0
50197,-100,4,2,0,80,0,0
50874,-100,4,1,1,80,0,0
51213,-100,4,2,1,80,0,0
51325,-100,4,1,1,80,0,0
52904,-100,4,2,0,80,0,0
53468,-100,4,1,0,80,0,0
53806,-100,4,2,0,80,0,0
54596,-100,4,1,1,80,0,0
54709,-100,4,2,0,80,0,0
55385,-100,4,1,1,80,0,0
55837,-100,4,2,0,80,0,0
56626,-100,4,1,1,80,0,0
56739,-100,4,2,0,80,0,0
57190,-100,4,1,1,80,0,0
57416,-100,4,2,0,80,0,0
58205,-100,4,1,1,80,0,0
58318,-100,4,2,0,80,0,0
59107,-100,4,1,1,80,0,0
59389,-100,4,2,0,80,0,0
60009,-100,4,1,1,80,0,0
60122,-100,4,2,0,80,0,0
60912,-100,4,1,1,80,0,0
61250,-100,4,2,0,80,0,0
62603,-100,4,1,1,80,0,0
62829,-100,4,2,0,80,0,0
63393,-100,4,1,1,80,0,0
63731,-100,4,2,1,80,0,0
64521,-100,4,1,1,80,0,0
64859,-100,4,2,0,80,0,0
65423,-100,4,1,1,80,0,0
65536,-100,4,2,1,80,0,0
66213,-100,4,1,1,80,0,0
66607,-100,4,2,0,80,0,0
67115,-100,4,1,1,80,0,0
67340,-100,4,2,1,80,0,0
68976,-100,4,1,1,80,0,0
69370,-100,4,2,0,80,0,0
69822,-100,4,1,1,80,0,0
70160,-100,4,2,0,80,0,0
71570,-100,4,1,1,80,0,0
72190,-83.3333333333333,4,2,0,80,0,1
73543,-83.3333333333333,4,1,0,80,0,1
73656,-83.3333333333333,4,2,0,80,0,1
73769,-83.3333333333333,4,1,1,80,0,1
73994,-83.3333333333333,4,2,0,80,0,1
75348,-100,4,1,1,80,0,1
75461,-83.3333333333333,4,1,1,80,0,1
75630,-83.3333333333333,4,2,0,80,0,1
76476,-83.3333333333333,4,1,1,80,0,1
76927,-83.3333333333333,4,2,0,80,0,1
77378,-83.3333333333333,4,1,1,80,0,1
78055,-83.3333333333333,4,2,0,80,0,1
78506,-83.3333333333333,4,1,1,80,0,1
79239,-83.3333333333333,4,2,0,80,0,1
80761,-83.3333333333333,4,1,1,80,0,1
81043,-83.3333333333333,4,2,0,80,0,1
82566,-83.3333333333333,4,1,1,80,0,1
82679,-83.3333333333333,4,2,0,80,0,1
84145,-83.3333333333333,4,1,1,80,0,1
84370,-83.3333333333333,4,2,0,80,0,1
85385,-83.3333333333333,4,1,1,80,0,1
86400,-83.3333333333333,4,2,0,80,0,1
87979,-83.3333333333333,4,1,1,80,0,1
88318,-83.3333333333333,4,2,0,80,0,1
89784,-100,4,1,1,80,0,1
89897,-83.3333333333333,4,1,1,80,0,1
90066,-83.3333333333333,4,2,0,80,0,1
90912,-83.3333333333333,4,1,1,80,0,1
91363,-83.3333333333333,4,2,0,80,0,1
91814,-83.3333333333333,4,1,1,80,0,1
92378,-83.3333333333333,4,2,0,80,0,1
92942,-83.3333333333333,4,1,1,80,0,1
93619,-83.3333333333333,4,2,0,80,0,1
95197,-100,4,1,1,80,0,1
95310,-83.3333333333333,4,1,1,80,0,1
95479,-83.3333333333333,4,2,0,80,0,1
97002,-100,4,1,1,80,0,1
97115,-83.3333333333333,4,2,0,80,0,1
98581,-83.3333333333333,4,1,1,80,0,1
98806,-83.3333333333333,4,2,0,80,0,1
99822,-83.3333333333333,4,1,1,80,0,1
101062,-100,4,1,1,80,0,0
115047,-100,4,2,0,80,0,0
129370,-100,4,1,0,80,0,0
129596,-100,4,2,0,80,0,0
130273,-100,4,1,1,80,0,0
130498,-100,4,2,1,80,0,0
130949,-100,4,2,0,80,0,0
131175,-100,4,1,1,80,0,0
131400,-100,4,2,0,80,0,0
132190,-100,4,1,1,80,0,0
132303,-100,4,2,0,80,0,0
132979,-100,4,1,1,80,0,0
133205,-100,4,2,0,80,0,0
133431,-100,4,1,1,80,0,0
134107,-100,4,2,0,80,0,0
134558,-100,4,2,0,80,0,0
134784,-100,4,1,1,80,0,0
135009,-100,4,1,1,50,0,0
135573,-100,4,2,1,80,0,0
135686,-100,4,1,1,80,0,0
135912,-100,4,2,0,80,0,0
136476,-100,4,1,1,80,0,0
136814,-100,4,2,0,80,0,0
137603,-100,4,1,1,80,0,0
137716,-100,4,2,0,80,0,0
137942,-100,4,1,1,80,0,0
138619,-100,4,2,1,80,0,0
138957,-100,4,1,1,80,0,0
139521,-100,4,2,0,80,0,0
140197,-100,4,1,0,80,0,0
140423,-100,4,2,0,80,0,0
141213,-100,4,1,1,80,0,0
141325,-100,4,2,0,80,0,0
141889,-100,4,1,1,80,0,0
142340,-100,4,2,0,80,0,0
143130,-100,4,1,1,80,0,0
143355,-100,4,2,0,80,0,0
143806,-100,4,1,1,80,0,0
144032,-100,4,2,0,80,0,0
144822,-100,4,1,1,80,0,0
144934,-100,4,2,0,80,0,0
145724,-100,4,1,1,80,0,0
146006,-100,4,2,0,80,0,0
146626,-100,4,1,1,80,0,0
146739,-100,4,2,0,80,0,0
147528,-100,4,1,1,80,0,0
147867,-100,4,2,0,80,0,0
149220,-100,4,1,1,80,0,0
149446,-100,4,2,0,80,0,0
151137,-100,4,1,1,80,0,0
151363,-100,4,2,0,80,0,0
152040,-100,4,1,1,80,0,0
152265,-100,4,2,0,80,0,0
152942,-100,4,1,1,80,0,0
153224,-100,4,2,0,80,0,0
153844,-100,4,1,1,80,0,0
153957,-100,4,2,0,80,0,0
154521,-100,4,1,1,80,0,0
154634,-100,4,2,0,80,0,0
155536,-100,4,1,1,80,0,0
155987,-100,4,2,0,80,0,0
156438,-100,4,1,1,80,0,0
156889,-100,4,2,0,80,0,0
158243,-100,4,1,0,80,0,0
158806,-83.3333333333333,4,2,0,80,0,1
160160,-83.3333333333333,4,1,1,80,0,1
160498,-83.3333333333333,4,2,0,80,0,1
161964,-83.3333333333333,4,1,1,80,0,1
162246,-83.3333333333333,4,2,0,80,0,1
163092,-83.3333333333333,4,1,1,80,0,1
163543,-83.3333333333333,4,2,0,80,0,1
163994,-83.3333333333333,4,1,1,80,0,1
164558,-83.3333333333333,4,2,0,80,0,1
165122,-83.3333333333333,4,1,1,80,0,1
165799,-83.3333333333333,4,2,0,80,0,1
167378,-83.3333333333333,4,1,1,80,0,1
167660,-83.3333333333333,4,2,0,80,0,1
169182,-83.3333333333333,4,1,1,80,0,1
169295,-83.3333333333333,4,2,0,80,0,1
172002,-83.3333333333333,4,1,1,80,0,1
173017,-83.3333333333333,4,2,0,80,0,1
174596,-83.3333333333333,4,1,1,80,0,1
174934,-83.3333333333333,4,2,0,80,0,1
176400,-83.3333333333333,4,1,1,80,0,1
176682,-83.3333333333333,4,2,0,80,0,1
177528,-83.3333333333333,4,1,1,80,0,1
177979,-83.3333333333333,4,2,0,80,0,1
178431,-83.3333333333333,4,1,1,80,0,1
178994,-83.3333333333333,4,2,0,80,0,1
179558,-83.3333333333333,4,1,1,80,0,1
180404,-83.3333333333333,4,2,0,80,0,1
181814,-83.3333333333333,4,1,1,80,0,1
182096,-83.3333333333333,4,2,0,80,0,1
183619,-83.3333333333333,4,1,1,80,0,1
183731,-83.3333333333333,4,2,0,80,0,1
186438,-83.3333333333333,4,1,1,80,0,1
187679,-83.3333333333333,4,1,1,80,0,0
188130,-83.3333333333333,4,1,1,70,0,0
188581,-83.3333333333333,4,1,1,60,0,0
189032,-83.3333333333333,4,1,1,50,0,0
189483,-83.3333333333333,4,1,1,40,0,0
189934,-83.3333333333333,4,2,0,30,0,0
190385,-83.3333333333333,4,2,0,25,0,0
190837,-83.3333333333333,4,2,0,20,0,0

[Colours]
Combo1 : 249,213,6
Combo2 : 5,240,5
Combo3 : 240,5,5
Combo4 : 5,5,240
SliderBorder : 202,202,202

[HitObjects]
256,32,28882,1,4
76,128,29333,1,0
58,226,29558,1,2
158,244,29784,1,0
175,144,30009,1,0
256,208,30235,1,0
352,244,30461,2,0,B|336:308|256:332|176:308|160:244,1,250,2|0
108,160,31137,1,0
64,68,31363,2,0,B|172:68|172:68|196:84|196:84|312:84,1,250,2|0
404,84,32040,1,0
496,84,32265,6,0,B|544:212|500:328,1,250,0|2
400,328,32942,1,0
300,328,33167,1,0
256,236,33393,1,0
212,144,33619,1,2
112,144,33844,1,0
140,48,34070,2,0,B|204:24|256:72|256:72|308:24|372:48,1,250,2|0
400,144,34746,1,0
356,236,34972,1,2
156,236,35423,1,0
132,36,35874,6,0,B|256:8|380:36,1,250,0|2
404,136,36551,1,0
420,236,36776,2,0,B|364:312|256:340|148:312|92:236,1,375,2|0
164,164,37679,2,0,B|196:224|256:248|316:224|348:164,1,232.499989745021
440,164,38355,1,8
396,256,38581,1,0
308,304,38806,1,2
204,304,39032,1,0
116,256,39258,1,0
72,164,39483,1,0
104,68,39709,6,0,B|236:68|236:68|312:68|308:140,1,250,2|0
204,140,40385,2,0,B|200:68|276:68|276:68|408:68,1,250,2|0
440,164,41062,1,0
472,260,41288,2,8,B|360:260|360:260|340:288|340:288|232:288,1,250,0|0
136,288,41964,1,2
104,192,42190,1,0
168,116,42416,1,0
256,164,42641,1,2
344,116,42867,1,8
408,192,43092,1,0
376,288,43318,5,4
172,292,43769,1,0
189,192,43994,1,0
71,274,44220,1,2
89,174,44446,1,2
64,76,44671,1,0
164,92,44897,2,0,B|180:28|272:44|256:92|240:144|332:160|348:92,1,250,2|0
448,76,45573,1,0
500,164,45799,2,0,B|500:244|476:296|400:296|400:296|336:296,1,250,2|0
256,240,46476,1,0
173,296,46701,6,0,B|112:296|112:296|36:296|12:244|12:164,1,250,0|2
72,84,47378,1,0
164,44,47603,1,0
109,177,47829,1,2
203,137,48055,1,2
256,224,48280,1,0
352,260,48506,2,2,B|336:324|256:348|176:324|160:260,1,250,2|0
144,160,49182,1,0
116,64,49408,2,0,B|220:64|220:64|260:92|260:92|380:92,1,250,2|0
460,96,50085,1,0
476,196,50310,6,0,B|480:268|436:332|352:332|300:284,1,250,2|2
256,204,50987,1,0
356,208,51213,2,0,B|376:136|320:68|256:48|192:68|136:136|156:208,1,375,2|0
205,289,52115,2,0,B|158:329|76:332|32:268|36:196,1,250,0|0
36,96,52791,1,8
120,152,53017,1,0
208,196,53243,1,2
304,196,53468,1,0
392,152,53694,1,0
476,96,53919,1,0
484,200,54145,6,0,B|472:248|440:290|391:263|345:239|313:272|299:333,1,250,4|0
387,374,54822,2,0,B|426:331|436:287|390:263|340:236|358:187|391:150,1,250,2|0
476,96,55498,1,0
380,52,55724,2,0,B|316:36|256:52|200:68|132:52,1,250,0|0
92,144,56400,1,2
172,208,56626,1,0
256,152,56852,1,0
340,208,57077,1,2
420,144,57303,1,8
448,240,57528,1,0
404,332,57754,6,0,B|284:332|284:332|200:332|184:264,1,250,4|0
108,332,58431,2,0,B|228:332|228:332|312:332|328:264,1,250,2|0
256,196,59107,1,0
212,104,59333,1,0
212,104,59446,1,2
212,104,59558,2,0,B|144:120|100:192|144:264|212:280,1,250,4|0
300,280,60235,2,0,B|368:264|412:192|368:120|300:104,1,250,2|0
256,196,60912,1,0
212,104,61137,1,0
164,16,61363,5,4
80,284,61814,1,0
348,368,62265,1,2
432,100,62716,1,0
472,192,62942,2,0,B|484:260|436:328|348:316|304:272,1,250,4|0
207,272,63619,2,0,B|164:316|76:328|28:260|40:192,1,250,0|2
80,100,64295,1,0
80,100,64521,1,0
256,44,64972,6,0,B|333:150|333:150|361:189|333:239|286:229,1,250,4|0
222,154,65649,2,0,B|178:144|150:194|178:233|178:233|256:340,1,250,2|0
327,268,66325,1,0
400,196,66551,1,0
400,196,66664,1,2
400,196,66776,2,0,B|411:124|411:124|426:26|292:4,1,250,4|0
205,7,67453,2,0,B|88:31|100:124|100:124|112:196,1,250,2|0
185,268,68130,1,2
256,340,68355,1,0
327,268,68581,5,4
184,268,69032,1,0
184,116,69483,1,2
328,116,69934,1,0
256,4,70385,1,2
512,192,70837,1,2
256,380,71288,1,2
0,192,71739,1,0
132,360,72190,6,0,B|172:292|256:260|340:292|380:360,1,300.000007152558,4|2
416,260,72867,1,0
456,144,73092,2,0,B|396:204|276:176|260:68|316:12,1,300.000007152558
380,360,73994,2,0,B|340:292|256:260|172:292|132:360,1,300.000007152558,4|2
96,260,74671,1,0
56,144,74897,2,0,B|116:204|236:176|252:68|196:12,1,300.000007152558
124,68,75573,1,0
128,76,75686,1,2
132,84,75799,6,0,B|132:136|280:140|256:84|232:28|380:32|380:84,1,300.000007152558,4|2
456,180,76476,2,0,B|510:234|484:352|374:370|314:310,1,300.000007152558
256,204,77152,1,2
197,310,77378,2,0,B|137:370|28:352|1:234|56:180,1,300.000007152558
132,88,78055,2,0,B|156:24|256:-8|356:24|380:88,1,300.000007152558,2|4
256,296,78957,1,4
492,240,79408,6,0,B|492:124|492:124|492:24|392:24|392:24|344:24,1,300.000007152558,4|2
256,24,80085,1,0
143,24,80310,2,0,B|120:24|120:24|20:24|20:124|20:124|20:240,1,300.000007152558
20,360,80987,1,0
20,360,81100,1,2
20,360,81213,2,0,B|224:360|224:360|292:360|292:288,1,300.000007152558,4|2
256,192,81889,1,0
221,78,82115,2,0,B|229:25|288:24|288:24|492:24,1,300.000007152558
428,128,82791,1,0
380,240,83017,6,0,B|340:308|256:340|172:308|132:240,1,300.000007152558,4|2
106,120,83694,2,0,B|410:120,2,300.000007152558,2|0|4
196,344,85047,1,2
316,344,85273,1,2
256,240,85498,1,0
372,200,85724,2,4,B|348:132|256:76|164:132|140:200,1,300.000007152558,4|4
380,360,86626,6,0,B|340:292|256:260|172:292|132:360,1,300.000007152558,4|2
96,260,87303,1,0
56,144,87528,2,0,B|116:204|236:176|252:68|196:12,1,300.000007152558
132,360,88431,2,0,B|172:292|256:260|340:292|380:360,1,300.000007152558,4|2
416,260,89107,1,0
456,144,89333,2,0,B|396:204|276:176|260:68|316:12,1,300.000007152558
388,68,90009,5,0
384,76,90122,1,2
380,84,90235,2,0,B|380:136|232:140|256:84|280:28|132:32|132:84,1,300.000007152558,4|2
56,180,90912,2,0,B|2:234|28:352|138:370|198:310,1,300.000007152558
256,204,91588,1,2
315,310,91814,2,0,B|375:370|484:352|511:234|456:180,1,300.000007152558
380,88,92491,2,0,B|356:24|256:-8|156:24|132:88,1,300.000007152558,2|4
256,296,93393,1,4
20,240,93844,6,0,B|20:124|20:124|20:24|120:24|120:24|168:24,1,300.000007152558,4|2
256,24,94521,1,0
369,24,94746,2,0,B|392:24|392:24|492:24|492:124|492:124|492:240,1,300.000007152558
492,360,95423,1,0
492,360,95536,1,2
492,360,95649,2,0,B|288:360|288:360|220:360|220:288,1,300.000007152558,4|2
256,192,96325,1,0
291,78,96551,2,0,B|283:25|224:24|224:24|20:24,1,300.000007152558
84,128,97228,1,0
132,240,97453,6,0,B|172:308|256:340|340:308|380:240,1,300.000007152558,4|2
406,120,98130,2,0,B|102:120,2,300.000007152558,2|0|4
368,360,99483,1,2
256,312,99709,1,2
144,360,99934,1,0
52,280,100160,1,4
460,280,100611,1,4
256,192,101062,12,4,104671
256,360,115498,5,4
80,260,115949,1,2
16,180,116175,1,0
72,96,116400,1,0
172,120,116626,1,0
176,220,116852,1,2
160,316,117077,2,0,B|176:380|256:404|336:380|352:316,1,250,0|0
336,220,117754,1,2
352,120,117979,2,0,B|336:56|256:32|176:56|160:120,1,250,0|0
88,192,118656,1,2
136,284,118882,6,0,B|248:284|248:284|264:304|264:304|376:304,1,250
452,236,119558,1,2
504,148,119784,1,0
432,76,120010,1,0
340,116,120235,1,0
348,216,120461,1,2
372,316,120686,2,0,B|328:360|256:328|256:328|184:360|140:316,1,250,0|0
164,216,121363,1,2
256,176,121588,1,0
256,176,122040,1,0
132,16,122491,6,0,B|224:40|256:16|288:-8|380:16,1,250,0|2
400,116,123167,1,0
420,216,123393,2,0,B|364:292|256:206|256:206|148:292|92:216,1,375,2|0
164,160,124295,2,0,B|184:112|236:92|256:80|256:80|276:92|328:112|348:160,1,250
384,256,124972,1,2
308,324,125197,1,0
256,236,125423,1,0
204,324,125649,1,0
128,256,125874,1,2
56,188,126100,1,0
131,119,126325,6,0,B|379:119,1,250,2|2
381,220,127002,2,0,B|133:220,1,250,0|0
56,288,127679,1,2
132,356,127904,2,0,B|392:356,1,250
456,288,128581,1,2
400,204,128806,1,0
308,160,129032,1,0
204,160,129258,1,2
112,204,129483,1,0
56,288,129709,1,0
156,288,129934,5,4
356,308,130385,1,0
350,140,130611,1,0
453,272,130837,1,2
295,224,131062,1,0
448,171,131288,1,0
512,100,131513,2,0,B|496:40|436:-4|352:8|312:56,1,250
260,144,132190,1,0
201,56,132416,2,0,B|160:8|76:-4|16:40|0:100,1,250,2|0
24,200,133092,1,0
64,292,133318,6,0,B|100:364|160:364|160:364|284:364,1,250
300,264,133994,1,0
472,240,134220,1,0
322,162,134446,1,2
392,311,134671,1,0
421,147,134897,1,0
364,64,135122,2,2,B|252:64|252:64|232:84|232:84|116:84,1,250,2|0
20,84,135799,1,0
20,84,136025,2,0,B|-24:148|4:232|84:252|136:212,1,250
120,112,136701,1,0
131,11,136927,6,0,B|383:11,1,250,2|2
380,112,137603,1,0
380,212,137829,2,0,B|328:192|288:212|288:268|288:268|288:304|256:320|224:304|224:268|224:268|224:212|184:192|132:212,1,375,2|0
140,112,138731,2,0,B|204:92|256:140|256:140|308:92|372:112,1,250
416,204,139408,1,0
356,288,139634,1,0
256,264,139859,1,2
256,364,140085,1,0
256,264,140310,1,8
156,288,140536,1,0
68,236,140761,6,0,B|88:172|157:157|157:157|147:86|201:45,1,250,4|0
311,46,141438,2,0,B|364:86|354:157|354:157|423:172|444:236,1,250,2|0
468,332,142115,1,0
368,348,142340,2,0,B|344:308|284:316|256:348|228:380|168:388|144:348,1,250,2|0
96,260,143017,1,2
156,180,143243,1,0
256,200,143468,1,0
356,180,143694,1,2
416,260,143919,1,8
456,168,144145,1,0
400,88,144370,6,0,B|280:88|280:88|224:88|192:132|212:172,1,250,4|0
300,212,145047,2,0,B|320:252|288:296|232:296|232:296|112:296,1,250,2|0
84,192,145724,1,0
112,88,145949,1,0
112,88,146062,1,2
112,88,146175,2,0,B|232:88|232:88|288:88|320:132|300:172,1,250,4|0
212,212,146852,2,0,B|192:252|224:296|280:296|280:296|400:296,1,250,2|0
428,192,147528,1,0
428,92,147754,1,0
348,16,147979,5,4
432,284,148431,1,0
164,368,148882,1,2
80,100,149333,1,0
40,192,149558,2,0,B|28:260|76:328|164:316|208:272,1,250,4|0
305,272,150235,2,0,B|348:316|436:328|484:260|472:192,1,250,0|2
432,100,150912,1,0
432,100,151137,1,0
216,96,151588,6,0,B|196:160|124:192|46:158|30:92,1,250,4|0
124,68,152265,2,0,B|72:216|176:304,1,250,2|0
252,352,152942,1,0
344,296,153167,1,0
344,296,153280,1,2
344,296,153393,2,0,B|436:213|389:64,1,250,6|0
482,91,154070,2,0,B|466:158|388:192|316:160|296:96,1,250,2|0
196,100,154746,1,2
156,192,154972,1,0
256,192,155197,5,4
256,192,155649,1,0
256,192,156100,1,2
256,192,156551,1,0
256,4,157002,1,2
512,192,157453,1,2
256,380,157904,1,2
0,192,158355,1,0
168,340,158806,6,0,B|224:340|296:316|320:244|256:252|192:244|216:316|288:340|344:340,1,300.000007152558,4|2
456,292,159483,1,0
380,196,159709,2,0,B|340:264|256:296|172:264|132:196,1,300.000007152558,0|0
344,44,160611,2,0,B|288:44|216:68|192:140|256:132|320:140|296:68|224:44|168:44,1,300.000007152558,4|2
56,92,161288,1,0
132,188,161513,2,0,B|172:120|256:88|340:120|380:188,1,300.000007152558,0|0
388,308,162189,5,0
384,316,162302,1,2
380,324,162416,2,0,B|380:376|232:380|256:324|280:268|132:272|132:324,1,300.000007152558,4|2
24,268,163092,2,0,B|-30:214|-4:96|106:78|166:138,1,300.000007152558
256,192,163769,1,2
344,248,163994,2,0,B|404:308|513:290|540:172|485:118,1,300.000007152558
380,60,164671,2,0,B|380:8|232:4|256:60|280:116|132:112|132:60,1,300.000007152558,2|4
256,268,165573,1,4
484,188,166025,6,0,B|538:134|512:16|402:-2|342:58,1,300.000007152558,4|2
256,144,166701,1,0
168,56,166927,2,0,B|107:-4|0:20|-28:131|28:190,1,300.000007152558
96,292,167603,1,0
96,292,167716,1,2
96,292,167829,2,0,B|240:292|240:292|340:292|348:228|324:196,1,300.000007152558,4|2
256,112,168506,1,0
183,202,168731,2,0,B|167:228|172:292|272:292|272:292|416:292,1,300.000007152558,0|0
468,184,169408,1,0
380,100,169634,6,0,B|340:32|256:0|172:32|132:100,1,300.000007152558,4|2
132,224,170310,2,0,B|172:292|256:324|340:292|380:224,2,300.000007152558,2|0|4
316,68,171664,1,2
196,68,171889,1,2
256,176,172115,1,0
376,176,172340,1,4
136,176,172791,1,4
344,340,173243,6,0,B|288:340|216:316|192:244|256:252|320:244|296:316|224:340|168:340,1,300.000007152558,4|2
56,292,173919,1,0
132,196,174145,2,0,B|172:264|256:296|340:264|380:196,1,300.000007152558,0|0
168,44,175047,2,0,B|224:44|296:68|320:140|256:132|192:140|216:68|288:44|344:44,1,300.000007152558,4|2
456,92,175724,1,0
380,188,175949,2,0,B|340:120|256:88|172:120|132:188,1,300.000007152558,0|0
124,308,176626,1,0
128,316,176739,1,2
132,324,176852,6,0,B|132:376|280:380|256:324|232:268|380:272|380:324,1,300.000007152558,4|2
488,268,177528,2,0,B|542:214|516:96|406:78|346:138,1,300.000007152558
256,192,178205,1,2
168,248,178431,2,0,B|108:308|-1:290|-28:172|27:118,1,300.000007152558
132,60,179107,2,0,B|132:8|280:4|256:60|232:116|380:112|380:60,1,300.000007152558,2|4
256,268,180010,1,4
28,188,180461,6,0,B|-26:134|0:16|110:-2|170:58,1,300.000007152558,4|2
256,144,181137,1,0
344,56,181363,2,0,B|405:-4|512:20|540:131|484:190,1,300.000007152558
416,292,182040,1,0
416,292,182153,1,2
416,292,182266,2,0,B|272:292|272:292|172:292|164:228|188:196,1,300.000007152558,4|2
256,112,182942,1,0
329,202,183167,2,0,B|345:228|340:292|240:292|240:292|96:292,1,300.000007152558,0|0
44,184,183844,1,0
132,100,184070,6,0,B|172:32|256:0|340:32|380:100,1,300.000007152558,4|2
380,224,184746,2,0,B|340:292|256:324|172:292|132:224,2,300.000007152558,2|0|4
168,104,186100,1,2
256,20,186325,1,2
344,104,186551,1,0
380,220,186776,2,0,B|380:272|232:276|256:220|280:164|132:168|132:220,1,300.000007152558,4|4
256,192,187679,12,4,191288
