osu file format v9

[General]
AudioFilename: The Secret Garden.mp3
AudioLeadIn: 0
PreviewTime: 71964
Countdown: 0
SampleSet: Normal
StackLeniency: 0.7
Mode: 0
LetterboxInBreaks: 0

[Editor]
Bookmarks: 104686,115513
DistanceSpacing: 0.8
BeatDivisor: 4
GridSize: 4

[Metadata]
Title:The Secret Garden
Artist:Hatsune Miku
Creator:Krisom
Version:Hard
Source:Otomania
Tags:Kosaki Satoru Hata Aki Project Diva 2nd Vocaloid Niwa no Himitsu

[Difficulty]
HPDrainRate:6
CircleSize:4
OverallDifficulty:5
ApproachRate:5
SliderMultiplier:2
SliderTickRate:2

[Events]
//Background and Video events
0,0,"BG.jpg"
Video,-1217,"[HD] Hatsune Miku Project Diva_ Dreamy Theater - The secret garden.AVI"
//Break Periods
2,104871,114298
//Storyboard Layer 0 (Background)
//Storyboard Layer 1 (Fail)
//Storyboard Layer 2 (Pass)
//Storyboard Layer 3 (Foreground)
//Storyboard Sound Samples
//Background Colour Transformations
3,100,163,162,255

[TimingPoints]
10,451.127819548872,4,2,0,80,1,0
30122,-100,4,1,1,80,0,0
30348,-100,4,2,0,80,0,0
31137,-100,4,1,1,80,0,0
31363,-100,4,2,0,80,0,0
32265,-100,4,1,1,80,0,0
33055,-100,4,2,0,80,0,0
33731,-100,4,1,1,80,0,0
33957,-100,4,2,0,80,0,0
34746,-100,4,1,1,80,0,0
34859,-100,4,2,0,80,0,0
36551,-100,4,1,1,80,0,0
36776,-106.382978723404,4,2,0,80,0,0
37904,-100,4,1,1,80,0,0
38468,-100,4,2,0,80,0,0
39145,-100,4,1,1,80,0,0
39370,-100,4,2,0,80,0,0
40160,-100,4,1,1,80,0,0
40385,-100,4,2,0,80,0,0
41288,-100,4,1,1,80,0,0
42303,-100,4,2,0,80,0,0
42754,-100,4,1,1,80,0,0
42979,-100,4,2,0,80,0,0
44107,-100,4,1,1,80,0,0
44333,-100,4,2,0,80,0,0
44558,-100,4,1,1,80,0,0
44784,-100,4,2,0,80,0,0
45573,-100,4,1,1,80,0,0
45686,-100,4,2,0,80,0,0
46250,-100,4,1,1,80,0,0
47378,-100,4,2,0,80,0,0
47716,-100,4,1,1,80,0,0
47942,-100,4,2,0,80,0,0
48167,-100,4,1,1,80,0,0
48393,-106.382978723404,4,1,1,60,0,0
49295,-100,4,2,0,80,0,0
49859,-100,4,1,1,80,0,0
50085,-100,4,2,0,80,0,0
50987,-100,4,1,1,80,0,0
51100,-106.382978723404,4,2,0,80,0,0
52340,-100,4,1,1,80,0,0
52904,-100,4,2,0,80,0,0
53130,-100,4,1,1,80,0,0
53806,-100,4,2,0,80,0,0
54596,-100,4,1,1,80,0,0
54709,-100,4,2,0,80,0,0
55273,-100,4,1,1,80,0,0
55724,-100,4,2,0,80,0,0
56626,-100,4,1,1,80,0,0
56739,-100,4,2,0,80,0,0
57190,-100,4,1,1,80,0,0
57416,-100,4,2,0,80,0,0
58205,-100,4,1,1,80,0,0
58318,-100,4,2,0,80,0,0
59107,-100,4,1,1,80,0,0
59389,-100,4,2,0,80,0,0
60009,-100,4,1,1,80,0,0
60122,-100,4,2,0,80,0,0
60912,-100,4,1,1,80,0,0
61250,-100,4,2,0,80,0,0
62603,-100,4,1,1,80,0,0
62829,-100,4,2,0,80,0,0
64521,-100,4,1,1,80,0,0
64859,-100,4,2,0,80,0,0
65423,-100,4,1,1,80,0,0
65536,-106.382978723404,4,2,0,80,0,0
66325,-100,4,1,1,80,0,0
66607,-100,4,2,0,80,0,0
67228,-100,4,1,1,80,0,0
67340,-106.382978723404,4,2,0,80,0,0
68243,-100,4,2,0,80,0,0
68976,-100,4,1,1,80,0,0
69370,-100,4,2,0,80,0,0
69822,-100,4,1,1,80,0,0
70160,-100,4,2,0,80,0,0
71570,-100,4,1,1,80,0,0
72190,-83.3333333333333,4,2,0,80,0,1
73769,-83.3333333333333,4,1,1,80,0,1
73994,-83.3333333333333,4,2,0,80,0,1
74784,-100,4,2,0,80,0,1
75348,-100,4,1,1,80,0,1
75461,-83.3333333333333,4,1,1,80,0,1
75630,-83.3333333333333,4,2,0,80,0,1
76476,-83.3333333333333,4,1,1,80,0,1
76927,-83.3333333333333,4,2,0,80,0,1
77378,-83.3333333333333,4,1,1,80,0,1
78055,-83.3333333333333,4,2,0,80,0,1
78506,-83.3333333333333,4,1,1,80,0,1
79239,-83.3333333333333,4,2,0,80,0,1
80197,-100,4,2,0,80,0,1
80761,-83.3333333333333,4,1,1,80,0,1
81043,-83.3333333333333,4,2,0,80,0,1
82002,-100,4,2,0,80,0,1
82566,-83.3333333333333,4,1,1,80,0,1
82679,-83.3333333333333,4,2,0,80,0,1
84145,-83.3333333333333,4,1,1,80,0,1
84370,-83.3333333333333,4,2,0,80,0,1
85385,-83.3333333333333,4,1,1,80,0,1
86400,-83.3333333333333,4,2,0,80,0,1
88205,-83.3333333333333,4,1,1,80,0,1
88318,-83.3333333333333,4,2,0,80,0,1
89220,-100,4,2,0,80,0,1
89784,-100,4,1,1,80,0,1
89897,-83.3333333333333,4,1,1,80,0,1
90066,-83.3333333333333,4,2,0,80,0,1
90912,-83.3333333333333,4,1,1,80,0,1
91363,-83.3333333333333,4,2,0,80,0,1
91814,-83.3333333333333,4,1,1,80,0,1
92378,-83.3333333333333,4,2,0,80,0,1
92942,-83.3333333333333,4,1,1,80,0,1
93619,-83.3333333333333,4,2,0,80,0,1
94634,-100,4,2,0,80,0,1
95197,-100,4,1,1,80,0,1
95310,-83.3333333333333,4,1,1,80,0,1
95479,-83.3333333333333,4,2,0,80,0,1
96438,-100,4,2,0,80,0,1
97002,-100,4,1,1,80,0,1
97115,-83.3333333333333,4,2,0,80,0,1
98581,-83.3333333333333,4,1,1,80,0,1
98806,-83.3333333333333,4,2,0,80,0,1
99822,-83.3333333333333,4,1,1,80,0,1
101062,-100,4,1,1,80,0,0
115047,-100,4,2,0,80,0,0
123280,-106.382978723404,4,2,0,80,0,0
124521,-100,4,2,0,80,0,0
130724,-100,4,1,1,80,0,0
130949,-100,4,2,0,80,0,0
131175,-100,4,1,1,80,0,0
131400,-100,4,2,0,80,0,0
132190,-100,4,1,1,80,0,0
132303,-100,4,2,0,80,0,0
132867,-100,4,1,1,80,0,0
133092,-100,4,2,0,80,0,0
133994,-100,4,1,1,80,0,0
134107,-100,4,2,0,80,0,0
134333,-100,4,1,1,80,0,0
134558,-100,4,2,0,80,0,0
134784,-100,4,1,1,80,0,0
135122,-100,4,1,1,60,0,0
135912,-100,4,2,0,60,0,0
136476,-100,4,1,1,60,0,0
136701,-100,4,2,0,80,0,0
137603,-100,4,1,1,80,0,0
137716,-100,4,2,0,80,0,0
138957,-100,4,1,1,80,0,0
139408,-100,4,2,0,80,0,0
139746,-100,4,1,1,80,0,0
140423,-100,4,2,0,80,0,0
141213,-100,4,1,1,80,0,0
141325,-100,4,2,0,80,0,0
141889,-100,4,1,1,80,0,0
142340,-100,4,2,0,80,0,0
143130,-100,4,1,1,80,0,0
143355,-100,4,2,0,80,0,0
143806,-100,4,1,1,80,0,0
144032,-100,4,2,0,80,0,0
144822,-100,4,1,1,80,0,0
144934,-100,4,2,0,80,0,0
145724,-100,4,1,1,80,0,0
146006,-100,4,2,0,80,0,0
146626,-100,4,1,1,80,0,0
146739,-100,4,2,0,80,0,0
147528,-100,4,1,1,80,0,0
147867,-100,4,2,0,80,0,0
149220,-100,4,1,1,80,0,0
149446,-100,4,2,0,80,0,0
151137,-100,4,1,1,80,0,0
151363,-100,4,2,0,80,0,0
152040,-100,4,1,1,80,0,0
152265,-100,4,2,0,80,0,0
152942,-100,4,1,1,80,0,0
153224,-100,4,2,0,80,0,0
153844,-100,4,1,1,80,0,0
153957,-100,4,2,0,80,0,0
154521,-100,4,1,1,80,0,0
154634,-100,4,2,0,80,0,0
155536,-100,4,1,1,80,0,0
155987,-100,4,2,0,80,0,0
156438,-100,4,1,1,80,0,0
156889,-100,4,2,0,80,0,0
158243,-100,4,1,0,80,0,0
158806,-83.3333333333333,4,2,0,80,0,1
160385,-83.3333333333333,4,1,1,80,0,1
160498,-83.3333333333333,4,2,0,80,0,1
161964,-83.3333333333333,4,1,1,80,0,1
162246,-83.3333333333333,4,2,0,80,0,1
163092,-83.3333333333333,4,1,1,80,0,1
163543,-83.3333333333333,4,2,0,80,0,1
163994,-83.3333333333333,4,1,1,80,0,1
164558,-83.3333333333333,4,2,0,80,0,1
165122,-83.3333333333333,4,1,1,80,0,1
165799,-83.3333333333333,4,2,0,80,0,1
167378,-83.3333333333333,4,1,1,80,0,1
167660,-83.3333333333333,4,2,0,80,0,1
169182,-83.3333333333333,4,1,1,80,0,1
169295,-83.3333333333333,4,2,0,80,0,1
172002,-83.3333333333333,4,1,1,80,0,1
173017,-83.3333333333333,4,2,0,80,0,1
174822,-83.3333333333333,4,1,1,80,0,1
174934,-83.3333333333333,4,2,0,80,0,1
176400,-83.3333333333333,4,1,1,80,0,1
176682,-83.3333333333333,4,2,0,80,0,1
177528,-83.3333333333333,4,1,1,80,0,1
177979,-83.3333333333333,4,2,0,80,0,1
178431,-83.3333333333333,4,1,1,80,0,1
178994,-83.3333333333333,4,2,0,80,0,1
179558,-83.3333333333333,4,1,1,80,0,1
180404,-83.3333333333333,4,2,0,80,0,1
181814,-83.3333333333333,4,1,1,80,0,1
182096,-83.3333333333333,4,2,0,80,0,1
183619,-83.3333333333333,4,1,1,80,0,1
183731,-83.3333333333333,4,2,0,80,0,1
186438,-83.3333333333333,4,1,1,80,0,1
187679,-83.3333333333333,4,1,1,80,0,0
188130,-83.3333333333333,4,1,1,70,0,0
188581,-83.3333333333333,4,1,1,60,0,0
189032,-83.3333333333333,4,1,1,50,0,0
189483,-83.3333333333333,4,1,1,40,0,0
189934,-83.3333333333333,4,2,0,30,0,0
190385,-83.3333333333333,4,2,0,25,0,0
190837,-83.3333333333333,4,2,0,20,0,0

[Colours]
Combo1 : 249,213,6
Combo2 : 5,240,5
Combo3 : 240,5,5
Combo4 : 5,5,240
SliderBorder : 202,202,202

[HitObjects]
256,236,28882,1,4
196,24,29558,1,2
175,101,29784,1,0
154,177,30009,1,2
134,254,30235,1,0
112,328,30461,2,0,B|256:404|400:328,1,300,2|0
352,264,31363,2,0,B|256:314|160:264,2,200,2|0|0
316,24,33167,5,2
337,101,33393,1,0
358,177,33619,1,2
378,254,33844,1,0
400,328,34070,2,0,B|256:404|112:328,1,300,2|0
160,264,34972,2,0,B|256:314|352:264,1,200,2|0
132,196,35874,6,0,B|172:124|256:104|340:124|380:196,1,300,2|0
452,160,36776,2,0,B|404:64|256:0|108:64|60:160,1,470.000003361702,2|0
392,204,38581,1,0
332,152,38806,1,2
256,132,39032,1,0
180,152,39258,1,0
120,204,39483,1,0
172,264,39709,6,0,B|200:220|256:200|312:220|340:264,1,200,2|0
352,344,40385,2,0,B|292:360|256:332|256:332|220:360|160:344,2,200,2|0|0
324,24,42190,1,0
328,104,42416,1,2
256,140,42641,1,0
184,104,42867,1,8
188,24,43092,1,0
256,64,43318,5,4
60,200,43994,1,2
82,276,44220,1,0
157,252,44446,1,2
135,175,44671,1,0
106,100,44897,2,0,B|410:100,1,300,2|0
356,32,45799,2,0,B|148:32,2,200,2|0|0
430,276,47603,5,2
452,200,47829,1,0
377,175,48055,1,2
355,252,48280,1,0
372,328,48506,2,10,B|344:392|256:368|256:328|256:288|164:264|140:328,1,282.000002017021,2|0
68,288,49408,2,0,B|20:192|68:96,1,200,2|0
132,244,50310,6,0,B|172:172|256:152|340:172|380:244,1,300,2|0
452,208,51213,2,0,B|404:112|256:44|108:112|60:208,1,470.000003361702,2|0
256,348,53017,1,2
320,300,53243,1,0
296,224,53468,1,0
216,224,53694,1,8
192,300,53919,1,2
124,260,54145,6,0,B|112:214|116:144|184:112|240:112,1,200,2|0
292,113,54822,2,0,B|328:118|396:144|400:214|388:260,1,200,2|0
436,108,55724,2,0,B|392:52|256:-9|120:52|76:108,1,400,2|0
136,160,56852,1,2
216,160,57077,1,0
296,160,57303,1,8
376,160,57528,1,0
336,232,57754,6,0,B|312:280|256:304|200:280|176:232,1,200,4|0
128,296,58431,2,0,B|168:352|256:400|344:352|384:296,1,300,2|0
356,220,59333,1,0
356,220,59446,1,2
356,220,59558,2,0,B|132:220,1,200,4|0
106,151,60235,2,0,B|414:151,1,300,2|0
476,192,61137,5,8
476,192,61363,1,4
256,340,61814,1,0
36,192,62265,1,2
256,44,62716,1,0
204,104,62942,2,0,B|220:188|256:188|296:188|312:228|304:268,1,200,2|0
207,263,63619,2,0,B|200:228|216:188|256:188|292:188|308:104,2,200,2|0|0
352,336,64972,6,0,B|256:384|160:336,1,200,4|0
92,304,65649,2,0,B|28:284|-8:192|28:100|92:80,1,282.000002017021,2|0
160,48,66551,1,0
160,48,66664,1,2
160,48,66776,2,0,B|256:0|352:48,1,200,4|0
420,80,67453,2,0,B|484:100|520:192|484:284|420:304,1,282.000002017021,2|2
344,340,68355,1,2
256,368,68581,5,4
20,192,69032,1,0
256,16,69483,1,2
492,192,69934,1,0
256,124,70385,1,2
332,192,70837,1,2
256,260,71288,1,2
180,192,71739,1,0
400,140,72190,6,0,B|360:52|256:16|152:52|112:140,1,360.000008583069,4|2
112,240,73092,2,0,B|152:328|256:364|360:328|400:240,1,360.000008583069,2|0
400,140,73994,2,0,B|360:52|256:16|152:52|112:140,1,360.000008583069,4|2
184,192,74897,2,0,B|196:132|256:120|316:132|328:192,1,200,2|0
328,276,75573,5,0
328,304,75686,1,2
328,332,75799,2,0,B|432:332|432:332|504:332|504:268|504:268|504:236,1,240.000005722046,4|2
504,142,76476,2,0,B|504:116|504:116|504:32|432:32|432:32|344:32,1,240.000005722046
256,32,77152,1,2
168,32,77378,2,0,B|80:32|80:32|8:32|8:116|8:116|8:142,1,240.000005722046
8,241,78055,2,0,B|8:268|8:268|8:332|80:332|80:332|184:332,1,240.000005722046,2|4
256,156,78957,1,4
400,284,79408,6,0,B|360:372|256:408|152:372|112:284,1,360.000008583069,4|2
184,236,80310,2,0,B|196:296|256:308|316:296|328:236,1,200,0|0
400,172,80987,1,0
400,172,81100,1,2
400,172,81213,2,0,B|360:84|256:48|152:84|112:172,1,360.000008583069,4|2
184,220,82115,2,0,B|196:160|256:148|316:160|328:220,1,200,2|0
356,296,82791,1,0
436,248,83017,6,0,B|470:298|448:380|364:408|312:376,1,240.000005722046,4|2
199,376,83694,2,0,B|148:408|64:380|43:298|76:248,1,240.000005722046,2|0
140,96,84596,2,0,B|256:40|372:96,1,240.000005722046,4|2
428,176,85273,1,2
428,272,85498,1,0
372,352,85724,2,4,B|256:408|140:352,1,240.000005722046
112,140,86626,6,0,B|152:52|256:16|360:52|400:140,1,360.000008583069,4|2
400,240,87528,2,0,B|360:328|256:364|152:328|112:240,1,360.000008583069,2|0
112,140,88431,2,0,B|152:52|256:16|360:52|400:140,1,360.000008583069,4|2
328,192,89333,2,0,B|316:132|256:120|196:132|184:192,1,200,2|0
184,276,90010,5,0
184,304,90122,1,2
184,332,90235,2,0,B|80:332|80:332|8:332|8:268|8:268|8:236,1,240.000005722046,4|2
8,142,90912,2,0,B|8:116|8:116|8:32|80:32|80:32|168:32,1,240.000005722046
256,32,91588,1,2
343,32,91814,2,0,B|432:32|432:32|504:32|504:116|504:116|504:142,1,240.000005722046
504,241,92491,2,0,B|504:268|504:268|504:332|432:332|432:332|328:332,1,240.000005722046,2|4
256,156,93393,1,4
112,284,93844,6,0,B|152:372|256:408|360:372|400:284,1,360.000008583069,4|2
328,236,94746,2,0,B|316:296|256:308|196:296|184:236,1,200
112,172,95423,1,0
112,172,95536,1,2
112,172,95649,2,0,B|152:84|256:48|360:84|400:172,1,360.000008583069,4|2
328,220,96551,2,0,B|316:160|256:148|196:160|184:220,1,200,2|0
156,296,97228,1,0
76,248,97453,6,0,B|42:298|64:380|148:408|200:376,1,240.000005722046,4|2
313,376,98130,2,0,B|364:408|448:380|469:298|436:248,1,240.000005722046,2|0
372,96,99032,2,0,B|256:40|140:96,1,240.000005722046,4|2
84,176,99709,1,2
84,272,99934,1,0
140,352,100160,2,4,B|256:408|372:352,1,240.000005722046
256,192,101062,12,4,104671
256,52,115498,5,4
456,188,116175,1,2
477,263,116400,1,0
499,340,116626,1,2
421,363,116852,1,0
400,288,117077,2,0,B|352:256|276:256|276:256|236:256|236:256|160:256|112:288,1,300,2|0
160,352,117979,2,0,B|196:324|316:324|352:352,1,200,2|0
384,192,118882,6,0,B|344:124|256:160|256:192|256:224|168:260|128:192,1,300
56,188,119784,1,2
35,263,120010,1,0
13,340,120235,1,2
91,363,120461,1,0
112,288,120686,2,0,B|160:256|236:256|236:256|276:256|276:256|352:256|400:288,1,300,2|0
352,352,121588,2,0,B|316:324|196:324|160:352,1,200,2|0
128,192,122491,6,0,B|168:124|256:160|256:192|256:224|344:260|384:192,1,300,2|0
440,144,123393,2,0,B|412:28|255:-14|100:28|72:144,1,470.000003361702,2|0
148,372,125197,1,2
228,364,125423,1,0
308,356,125649,1,0
388,348,125874,1,0
468,340,126100,1,2
456,260,126325,6,0,B|440:208|392:180|328:188|296:232,1,200,2|0
215,231,127002,2,0,B|184:188|120:180|72:208|56:260,2,200,2|0|0
364,12,128806,1,0
284,20,129032,1,2
204,28,129258,1,2
124,36,129483,1,2
44,44,129709,1,0
56,124,129934,5,4
127,354,130611,1,2
103,277,130837,1,0
80,200,131062,1,2
56,124,131288,1,0
112,68,131513,2,0,B|160:36|236:36|236:36|276:36|276:36|352:36|400:68,1,300,2|0
352,132,132416,2,0,B|316:104|196:104|160:132,1,200,2|0
172,292,133318,6,0,B|172:191|256:146|340:191|340:292,1,300
385,354,134220,1,2
409,277,134446,1,0
432,200,134671,1,2
456,124,134897,1,0
400,68,135122,2,2,B|352:36|276:36|276:36|236:36|236:36|160:36|112:68,1,300,2|0
156,136,136025,2,0,B|356:136,1,200,2|0
406,287,136927,6,0,B|102:287,1,300,2|0
124,208,137829,2,0,B|124:172|124:172|124:103|212:103|212:164|212:164|212:220|300:220|300:164|300:164|300:103|388:103|388:172|388:172|388:208,1,500,2|0
148,12,139634,1,2
228,20,139859,1,0
308,28,140085,1,0
388,36,140310,1,8
468,44,140536,1,2
456,124,140761,6,0,B|440:176|392:204|328:196|296:152,1,200,2|0
215,153,141438,2,0,B|184:196|120:204|72:176|56:124,2,200,2|0|2
364,372,143243,1,0
284,364,143468,1,2
204,356,143694,1,0
124,348,143919,1,8
44,340,144145,1,0
52,260,144370,6,0,B|112:264|150:221|158:156|113:120,1,200,4|0
112,40,145047,2,0,B|160:72|224:72|224:72|288:72|288:72|352:72|400:40,1,300,2|0
396,120,145949,1,0
396,120,146062,1,2
396,121,146175,2,0,B|354:156|362:221|400:264|460:260,1,200,4|0
406,321,146852,2,0,B|82:321,1,300,2|0
56,260,147754,5,8
100,196,147979,1,4
256,64,148431,1,0
412,196,148882,1,2
256,320,149333,1,0
180,292,149558,2,0,B|180:172|180:172|180:124|224:104,1,200,2|0
293,107,150235,2,0,B|332:125|332:173|332:173|332:293,2,200,2|0|0
132,112,151588,6,0,B|100:144|100:144|54:192|100:240|100:240|132:272,1,200,4|0
100,344,152265,2,0,B|408:344,1,300
379,272,153167,1,0
379,272,153280,1,2
379,272,153393,2,0,B|412:240|412:240|458:192|412:144|412:144|380:112,1,200,4|0
336,180,154070,2,0,B|303:147|303:147|255:101|207:147|207:147|175:179,1,200,2|0
108,220,154746,1,2
180,256,154972,1,0
256,284,155197,5,4
384,192,155649,1,0
256,100,156100,1,2
128,192,156551,1,0
256,24,157002,1,2
488,192,157453,1,2
256,360,157904,1,2
24,192,158355,1,0
84,372,158806,6,0,B|24:312|4:180|128:120|216:144,1,360.000008583069,4|2
296,143,159709,2,0,B|384:120|508:180|488:312|428:372,1,360.000008583069,2|0
368,328,160611,2,0,B|240:328|208:264|232:208|256:271|280:208|304:264|272:328|144:328,1,360.000008583069,4|2
168,232,161513,2,0,B|180:172|256:132|332:172|344:232,1,240.000005722046,2|0
432,196,162190,5,0
448,172,162303,1,2
464,152,162416,2,0,B|456:20|296:16,1,240.000005722046,4|2
213,16,163092,2,0,B|56:20|48:152,1,240.000005722046
136,192,163769,1,2
48,232,163994,2,0,B|56:364|216:368,1,240.000005722046
298,367,164671,2,0,B|456:364|464:232,1,240.000005722046,2|4
256,176,165573,1,4
368,20,166025,6,0,B|240:20|208:84|232:140|256:77|280:140|304:84|272:20|144:20,1,360.000008583069,4|2
168,116,166927,2,0,B|180:176|256:216|332:176|344:116,1,240.000005722046
404,192,167603,1,0
404,192,167716,1,2
404,192,167829,2,0,B|364:276|256:308|148:276|108:192,1,360.000008583069,4|0
136,100,168731,2,0,B|380:100,1,240.000005722046,2|0
464,144,169408,1,0
456,240,169634,6,0,B|446:299|446:299|434:378|362:367|362:367|295:356,1,240.000005722046,4|2
208,360,170310,2,0,B|151:368|151:368|80:380|67:301|67:301|58:241,1,240.000005722046,2|0
144,68,171213,2,0,B|192:36|256:12|320:36|368:68,1,240.000005722046,4|2
296,144,171889,1,2
216,144,172115,1,0
256,216,172340,1,4
256,216,172791,1,4
428,372,173243,6,0,B|488:312|508:180|384:120|296:144,1,360.000008583069,4|2
216,143,174145,2,0,B|128:120|4:180|24:312|84:372,1,360.000008583069,2|0
144,328,175047,2,0,B|272:328|304:264|280:208|256:271|232:208|208:264|240:328|368:328,1,360.000008583069,4|2
344,232,175949,2,0,B|332:172|256:132|180:172|168:232,1,240.000005722046,2|0
80,196,176626,5,0
64,172,176739,1,2
48,152,176852,2,0,B|56:20|216:16,1,240.000005722046,4|2
299,16,177528,2,0,B|456:20|464:152,1,240.000005722046
376,192,178205,1,2
464,232,178431,2,0,B|456:364|296:368,1,240.000005722046
214,367,179107,2,0,B|56:364|48:232,1,240.000005722046,2|4
256,176,180009,1,4
144,20,180461,6,0,B|272:20|304:84|280:140|256:77|232:140|208:84|240:20|368:20,1,360.000008583069,4|2
344,116,181363,2,0,B|332:176|256:216|180:176|168:116,1,240.000005722046
108,192,182040,1,0
108,192,182152,1,2
108,192,182265,2,0,B|148:276|256:308|364:276|404:192,1,360.000008583069,4|0
376,100,183167,2,0,B|132:100,1,240.000005722046,2|0
48,144,183844,1,0
56,240,184070,6,0,B|66:299|66:299|78:378|150:367|150:367|217:356,1,240.000005722046,4|2
304,360,184746,2,0,B|361:368|361:368|432:380|445:301|445:301|454:241,1,240.000005722046,2|0
368,68,185649,2,0,B|320:36|256:12|192:36|144:68,1,240.000005722046,4|2
216,144,186325,1,2
296,144,186551,1,0
352,220,186776,1,4
160,220,187228,1,4
256,192,187679,12,4,191288
