osu file format v9

[General]
AudioFilename: The Secret Garden.mp3
AudioLeadIn: 0
PreviewTime: 71964
Countdown: 0
SampleSet: Soft
StackLeniency: 0.7
Mode: 0
LetterboxInBreaks: 0

[Editor]
Bookmarks: 104686,115513
DistanceSpacing: 0.85
BeatDivisor: 4
GridSize: 4

[Metadata]
Title:The Secret Garden
Artist:Hatsune Miku
Creator:Krisom
Version:Easy
Source:Otomania
Tags:Kosaki Satoru Hata Aki Project Diva 2nd Vocaloid Niwa no Himitsu

[Difficulty]
HPDrainRate:2
CircleSize:3
OverallDifficulty:2
ApproachRate:2
SliderMultiplier:0.96
SliderTickRate:2

[Events]
//Background and Video events
0,0,"BG.jpg"
Video,-1217,"[HD] Hatsune Miku Project Diva_ Dreamy Theater - The secret garden.AVI"
//Break Periods
2,104871,113938
//Storyboard Layer 0 (Background)
//Storyboard Layer 1 (Fail)
//Storyboard Layer 2 (Pass)
//Storyboard Layer 3 (Foreground)
//Storyboard Sound Samples
//Background Colour Transformations
3,100,163,162,255

[TimingPoints]
10,451.127819548872,4,2,0,80,1,0
30122,-100,4,1,1,80,0,0
30348,-100,4,2,0,80,0,0
31137,-100,4,1,1,80,0,0
31363,-100,4,2,0,80,0,0
31927,-100,4,1,1,80,0,0
32152,-100,4,2,1,80,0,0
32378,-100,4,1,1,80,0,0
33055,-100,4,2,0,80,0,0
33731,-100,4,1,1,80,0,0
33957,-100,4,2,0,80,0,0
34746,-100,4,1,1,80,0,0
34859,-100,4,2,0,80,0,0
36551,-100,4,1,1,80,0,0
36664,-100,4,2,1,80,0,0
36889,-100,4,1,1,80,0,0
38468,-100,4,2,0,80,0,0
39145,-100,4,1,1,80,0,0
39370,-100,4,2,0,80,0,0
40160,-100,4,1,1,80,0,0
40385,-100,4,2,0,80,0,0
40724,-100,4,1,1,80,0,0
42303,-100,4,2,0,80,0,0
42754,-100,4,1,1,80,0,0
42979,-100,4,2,0,80,0,0
44333,-100,4,2,0,80,0,0
44558,-100,4,1,1,80,0,0
44784,-100,4,2,0,80,0,0
45573,-100,4,1,1,80,0,0
45686,-100,4,2,0,80,0,0
46363,-100,4,1,1,80,0,0
46588,-100,4,2,1,80,0,0
46814,-100,4,1,1,80,0,0
47378,-100,4,2,0,80,0,0
47942,-100,4,2,0,80,0,0
48167,-100,4,1,1,80,0,0
48506,-100,4,2,1,80,0,0
49070,-100,4,1,1,80,0,0
49295,-100,4,2,0,80,0,0
49859,-100,4,1,1,80,0,0
50085,-100,4,2,0,80,0,0
50874,-100,4,1,1,80,0,0
51213,-100,4,2,1,80,0,0
51325,-100,4,1,1,80,0,0
52904,-100,4,2,0,80,0,0
53468,-100,4,1,0,80,0,0
53806,-100,4,2,0,80,0,0
54596,-100,4,1,1,80,0,0
54709,-100,4,2,0,80,0,0
55273,-100,4,1,1,80,0,0
55837,-100,4,2,0,80,0,0
56626,-100,4,1,1,80,0,0
56739,-100,4,2,0,80,0,0
57190,-100,4,1,1,80,0,0
57416,-100,4,2,0,80,0,0
58205,-100,4,1,1,80,0,0
58318,-100,4,2,0,80,0,0
59107,-100,4,1,1,80,0,0
59389,-100,4,2,0,80,0,0
60009,-100,4,1,1,80,0,0
60122,-100,4,2,0,80,0,0
60912,-100,4,1,1,80,0,0
61250,-100,4,2,0,80,0,0
62603,-100,4,1,1,80,0,0
62829,-100,4,2,0,80,0,0
64521,-100,4,1,1,80,0,0
64859,-100,4,2,0,80,0,0
65423,-100,4,1,1,80,0,0
65536,-100,4,2,1,80,0,0
66607,-100,4,2,0,80,0,0
67115,-100,4,1,1,80,0,0
67340,-100,4,2,1,80,0,0
68976,-100,4,1,1,80,0,0
69370,-100,4,2,0,80,0,0
69822,-100,4,1,1,80,0,0
70160,-100,4,2,0,80,0,0
71570,-100,4,1,1,80,0,0
72190,-83.3333333333333,4,2,0,80,0,1
73769,-83.3333333333333,4,1,1,80,0,1
73994,-83.3333333333333,4,2,0,80,0,1
74784,-100,4,2,0,80,0,1
75348,-100,4,1,1,80,0,1
75461,-83.3333333333333,4,1,1,80,0,1
75630,-83.3333333333333,4,2,0,80,0,1
76927,-83.3333333333333,4,2,0,80,0,1
77378,-83.3333333333333,4,1,1,80,0,1
78055,-83.3333333333333,4,2,0,80,0,1
78506,-83.3333333333333,4,1,1,80,0,1
79239,-83.3333333333333,4,2,0,80,0,1
80197,-100,4,2,0,80,0,1
80761,-83.3333333333333,4,1,1,80,0,1
81043,-83.3333333333333,4,2,0,80,0,1
82002,-100,4,2,0,80,0,1
82566,-83.3333333333333,4,1,1,80,0,1
82679,-83.3333333333333,4,2,0,80,0,1
84145,-83.3333333333333,4,1,1,80,0,1
84370,-83.3333333333333,4,2,0,80,0,1
85385,-83.3333333333333,4,1,1,80,0,1
86400,-83.3333333333333,4,2,0,80,0,1
88205,-83.3333333333333,4,1,1,80,0,1
88318,-83.3333333333333,4,2,0,80,0,1
89220,-100,4,2,0,80,0,1
89784,-100,4,1,1,80,0,1
89897,-83.3333333333333,4,1,1,80,0,1
90066,-83.3333333333333,4,2,0,80,0,1
91363,-83.3333333333333,4,2,0,80,0,1
91814,-83.3333333333333,4,1,1,80,0,1
92378,-83.3333333333333,4,2,0,80,0,1
92942,-83.3333333333333,4,1,1,80,0,1
93619,-83.3333333333333,4,2,0,80,0,1
94634,-100,4,2,0,80,0,1
95197,-100,4,1,1,80,0,1
95310,-83.3333333333333,4,1,1,80,0,1
95479,-83.3333333333333,4,2,0,80,0,1
96438,-100,4,2,0,80,0,1
97002,-100,4,1,1,80,0,1
97115,-83.3333333333333,4,2,0,80,0,1
98581,-83.3333333333333,4,1,1,80,0,1
98806,-83.3333333333333,4,2,0,80,0,1
99822,-83.3333333333333,4,1,1,80,0,1
101062,-100,4,1,1,80,0,0
115047,-100,4,2,0,80,0,0
130949,-100,4,2,0,80,0,0
131175,-100,4,1,1,80,0,0
131400,-100,4,2,0,80,0,0
132190,-100,4,1,1,80,0,0
132303,-100,4,2,0,80,0,0
132979,-100,4,1,1,80,0,0
133205,-100,4,2,0,80,0,0
133431,-100,4,1,1,80,0,0
134107,-100,4,2,0,80,0,0
134558,-100,4,2,0,80,0,0
134784,-100,4,1,1,80,0,0
135235,-100,4,2,1,80,0,0
135912,-100,4,2,0,60,0,0
136476,-100,4,1,1,60,0,0
136701,-100,4,2,0,80,0,0
137603,-100,4,1,1,80,0,0
137716,-100,4,2,0,80,0,0
137942,-100,4,1,1,80,0,0
138619,-100,4,2,1,80,0,0
138957,-100,4,1,1,80,0,0
139408,-100,4,2,0,80,0,0
140423,-100,4,2,0,80,0,0
141213,-100,4,1,1,80,0,0
141325,-100,4,2,0,80,0,0
141889,-100,4,1,1,80,0,0
142340,-100,4,2,0,80,0,0
143130,-100,4,1,1,80,0,0
143355,-100,4,2,0,80,0,0
143806,-100,4,1,1,80,0,0
144032,-100,4,2,0,80,0,0
144822,-100,4,1,1,80,0,0
144934,-100,4,2,0,80,0,0
145724,-100,4,1,1,80,0,0
146006,-100,4,2,0,80,0,0
146626,-100,4,1,1,80,0,0
146739,-100,4,2,0,80,0,0
147528,-100,4,1,1,80,0,0
147867,-100,4,2,0,80,0,0
149220,-100,4,1,1,80,0,0
149446,-100,4,2,0,80,0,0
151137,-100,4,1,1,80,0,0
151363,-100,4,2,0,80,0,0
152040,-100,4,1,1,80,0,0
152265,-100,4,2,0,80,0,0
152942,-100,4,1,1,80,0,0
153224,-100,4,2,0,80,0,0
153844,-100,4,1,1,80,0,0
153957,-100,4,2,0,80,0,0
154521,-100,4,1,1,80,0,0
154634,-100,4,2,0,80,0,0
155536,-100,4,1,1,80,0,0
155987,-100,4,2,0,80,0,0
156438,-100,4,1,1,80,0,0
156889,-100,4,2,0,80,0,0
158243,-100,4,1,0,80,0,0
158806,-83.3333333333333,4,2,0,80,0,1
160385,-83.3333333333333,4,1,1,80,0,1
160498,-83.3333333333333,4,2,0,80,0,1
161964,-83.3333333333333,4,1,1,80,0,1
162246,-83.3333333333333,4,2,0,80,0,1
163092,-83.3333333333333,4,1,1,80,0,1
163543,-83.3333333333333,4,2,0,80,0,1
163994,-83.3333333333333,4,1,1,80,0,1
164558,-83.3333333333333,4,2,0,80,0,1
165122,-83.3333333333333,4,1,1,80,0,1
165799,-83.3333333333333,4,2,0,80,0,1
167378,-83.3333333333333,4,1,1,80,0,1
167660,-83.3333333333333,4,2,0,80,0,1
169182,-83.3333333333333,4,1,1,80,0,1
169295,-83.3333333333333,4,2,0,80,0,1
172002,-83.3333333333333,4,1,1,80,0,1
173017,-83.3333333333333,4,2,0,80,0,1
174822,-83.3333333333333,4,1,1,80,0,1
174934,-83.3333333333333,4,2,0,80,0,1
176400,-83.3333333333333,4,1,1,80,0,1
176682,-83.3333333333333,4,2,0,80,0,1
177528,-83.3333333333333,4,1,1,80,0,1
177979,-83.3333333333333,4,2,0,80,0,1
178431,-83.3333333333333,4,1,1,80,0,1
178994,-83.3333333333333,4,2,0,80,0,1
179558,-83.3333333333333,4,1,1,80,0,1
180404,-83.3333333333333,4,2,0,80,0,1
181814,-83.3333333333333,4,1,1,80,0,1
182096,-83.3333333333333,4,2,0,80,0,1
183619,-83.3333333333333,4,1,1,80,0,1
183731,-83.3333333333333,4,2,0,80,0,1
186438,-83.3333333333333,4,1,1,80,0,1
187679,-83.3333333333333,4,1,1,80,0,0
188130,-83.3333333333333,4,1,1,70,0,0
188581,-83.3333333333333,4,1,1,60,0,0
189032,-83.3333333333333,4,1,1,50,0,0
189483,-83.3333333333333,4,1,1,40,0,0
189934,-83.3333333333333,4,2,0,30,0,0
190385,-83.3333333333333,4,2,0,25,0,0
190837,-83.3333333333333,4,2,0,20,0,0

[Colours]
Combo1 : 249,213,6
Combo2 : 5,240,5
Combo3 : 240,5,5
Combo4 : 5,5,240
SliderBorder : 202,202,202

[HitObjects]
256,192,28882,1,4
208,348,29784,1,2
132,320,30235,1,0
60,284,30686,2,0,B|12:192|60:100,2,192,0|2|0
216,332,33393,5,2
296,332,33844,1,0
376,332,34295,2,0,B|428:332|428:332|492:332|492:272|492:272|492:224,1,192,0|2
492,152,35649,1,0
432,96,36100,6,0,B|360:28|256:12|152:28|80:96,1,384,4|0
32,252,38806,1,2
104,296,39258,1,0
176,332,39709,6,0,B|208:284|256:276|304:284|336:332,2,192,2|2|0
216,120,42416,1,2
296,120,42868,1,0
256,192,43318,5,4
304,348,44220,1,2
380,320,44671,1,0
452,284,45122,2,0,B|500:192|452:100,2,192,0|2|0
296,332,47829,5,2
216,332,48280,1,0
136,332,48731,2,0,B|84:332|84:332|20:332|20:272|20:272|20:224,1,192,0|2
20,152,50085,1,0
80,96,50536,6,0,B|152:28|256:12|360:28|432:96,1,384,4|0
480,252,53242,1,2
408,296,53694,1,0
336,332,54145,6,0,B|304:284|256:276|208:284|176:332,2,192,4|2|0
296,120,56852,1,2
216,120,57304,1,0
136,120,57754,6,0,B|84:136|64:192|84:248|136:264,1,192,4|2
376,264,59558,2,0,B|428:248|448:192|428:136|376:120,1,192,4|2
216,92,61363,5,4
296,92,61814,1,2
256,164,62265,2,0,B|256:224|256:224|256:288|256:312,2,144,0|2|0
216,92,64070,1,2
296,92,64521,1,0
376,120,64972,6,0,B|428:136|448:192|428:248|376:264,1,192,4|2
136,264,66776,2,0,B|84:248|64:192|84:136|136:120,1,192,4|2
204,72,68130,1,0
256,136,68581,5,4
312,192,69032,1,0
256,248,69483,1,2
200,192,69934,1,0
256,136,70385,1,2
312,192,70836,1,2
256,248,71287,1,2
200,192,71738,1,0
144,272,72190,6,0,B|80:224|88:148|136:100|184:96,1,230.400005493164,4|2
368,272,73994,2,0,B|432:224|424:148|376:100|328:96,1,230.400005493164,4|2
180,192,75799,6,0,B|232:192|256:225|256:225|280:192|332:192,2,172.800004119873,4|2|0
168,288,77603,2,0,B|184:348|256:372|328:348|344:288,1,230.400005493164,0|4
256,244,78957,1,4
168,200,79408,6,0,B|184:140|256:116|328:140|344:200,1,230.400005493164,4|2
168,288,81213,2,0,B|184:348|256:372|328:348|344:288,1,230.400005493164,4|2
344,192,82566,1,0
332,96,83017,6,0,B|280:96|256:63|256:63|232:96|180:96,2,172.800004119873,4|0|2
256,156,84822,1,4
212,348,85724,1,4
304,348,86175,1,4
368,272,86626,6,0,B|432:224|424:148|376:100|328:96,1,230.400005493164,4|2
144,272,88430,2,0,B|80:224|88:148|136:100|184:96,1,230.400005493164,4|2
332,192,90235,6,0,B|280:192|256:225|256:225|232:192|180:192,2,172.800004119873,4|2|0
344,288,92039,2,0,B|328:348|256:372|184:348|168:288,1,230.400005493164,0|4
256,244,93393,1,4
344,200,93844,6,0,B|328:140|256:116|184:140|168:200,1,230.400005493164,4|2
344,288,95649,2,0,B|328:348|256:372|184:348|168:288,1,230.400005493164,4|2
168,192,97002,1,0
180,96,97453,6,0,B|232:96|256:129|256:129|280:96|332:96,2,172.800004119873,4|0|2
168,192,99257,2,0,B|184:252|256:276|328:252|344:192,1,230.400005493164,4|4
256,108,100611,1,4
256,192,101062,12,4,104671
256,192,115498,5,4
396,232,116400,1,2
396,152,116851,1,0
464,108,117302,2,0,B|476:164|508:192|508:192|476:220|464:280,2,192,0|2|0
296,52,120009,5,2
216,52,120460,1,0
136,52,120912,2,0,B|136:92|136:92|136:152|76:152|76:152|20:152,1,192,0|2
84,300,122716,6,0,B|148:384|256:355|256:355|364:384|428:300,1,384,4|0
476,144,125422,1,2
428,76,125874,1,0
352,104,126325,6,0,B|148:104,2,192,4|2|0
296,264,129032,1,2
216,264,129484,1,0
256,192,129934,5,4
116,232,130836,1,2
116,152,131287,1,0
48,108,131738,2,0,B|36:164|4:192|4:192|36:220|48:280,2,192,2|2|0
216,52,134445,5,2
296,52,134896,1,0
376,52,135348,2,0,B|376:92|376:92|376:152|436:152|436:152|492:152,1,192,0|2
428,300,137152,6,0,B|364:384|256:355|256:355|148:384|84:300,1,384,4|0
36,144,139858,1,2
84,76,140310,1,0
160,104,140761,6,0,B|364:104,2,192,4|2|0
216,264,143468,1,2
296,264,143920,1,0
376,264,144370,6,0,B|428:248|448:192|428:136|376:120,1,192,4|2
136,120,146174,2,0,B|84:136|64:192|84:248|136:264,1,192,4|2
296,292,147979,5,4
216,292,148430,1,2
256,220,148881,2,0,B|256:160|256:160|256:96|256:72,2,144,0|2|0
296,292,150686,1,2
216,292,151137,1,0
136,264,151588,6,0,B|84:248|64:192|84:136|136:120,1,192,4|2
376,120,153392,2,0,B|428:136|448:192|428:248|376:264,1,192,4|2
308,312,154746,1,0
256,376,155197,5,4
204,312,155648,1,0
256,248,156099,1,2
200,192,156550,1,0
256,136,157001,1,2
312,192,157452,1,2
256,248,157903,1,2
200,192,158354,1,0
144,112,158806,6,0,B|80:160|88:236|136:284|184:288,1,230.400005493164,4|2
368,112,160610,2,0,B|432:160|424:236|376:284|328:288,1,230.400005493164,4|2
256,104,162416,5,4
180,228,163092,1,0
332,228,163769,1,2
344,320,164219,2,0,B|328:380|256:404|184:380|168:320,1,230.400005493164,0|4
256,280,165573,1,4
255,188,166024,6,0,B|299:144|374:159|424:215|408:275,1,230.400005493164,4|2
255,188,167829,2,0,B|211:232|137:217|86:160|103:100,1,230.400005493164,4|2
180,40,169182,1,0
180,40,169633,6,0,B|180:24|232:0|256:40|280:80|332:56|332:40,2,172.800004119873,4|0|2
212,148,171438,2,4,B|212:188|212:188|212:236|256:260|300:236|300:188|300:188|300:148,1,230.400005493164,4|4
300,52,172791,1,4
368,112,173243,6,0,B|432:160|424:236|376:284|328:288,1,230.400005493164,4|2
144,112,175047,2,0,B|80:160|88:236|136:284|184:288,1,230.400005493164,4|2
256,104,176853,5,4
332,228,177529,1,0
180,228,178206,1,2
168,320,178656,2,0,B|184:380|256:404|328:380|344:320,1,230.400005493164,0|4
256,280,180010,1,4
257,188,180461,6,0,B|213:144|138:159|88:215|104:275,1,230.400005493164,4|2
257,188,182266,2,0,B|301:232|375:217|426:160|409:100,1,230.400005493164,4|2
332,40,183619,1,0
332,40,184070,6,0,B|332:24|280:0|256:40|232:80|180:56|180:40,2,172.800004119873,4|0|2
300,148,185875,2,4,B|300:188|300:188|300:236|256:260|212:236|212:188|212:188|212:148,1,230.400005493164,4|4
256,64,187228,1,4
256,192,187678,12,4,191287
