osu file format v13

[General]
AudioFilename: syuredda-.mp3
AudioLeadIn: 3000
PreviewTime: 41785
Countdown: 0
SampleSet: Normal
StackLeniency: 0.7
Mode: 2
LetterboxInBreaks: 0
EpilepsyWarning: 1
WidescreenStoryboard: 1

[Editor]
DistanceSpacing: 1
BeatDivisor: 4
GridSize: 16
TimelineZoom: 1.5

[Metadata]
Title:Talent Shredder
TitleUnicode:Talent Shredder
Artist:Hatsune Miku
ArtistUnicode:Hatsune Miku
Creator:- H i N a -
Version:Deluge
Source:HujuniseikouyuuP
Tags:Vocaloid
BeatmapID:562709
BeatmapSetID:244103

[Difficulty]
HPDrainRate:4
CircleSize:4
OverallDifficulty:9.3
ApproachRate:9.3
SliderMultiplier:1.5
SliderTickRate:2

[Events]
//Background and Video events
0,0,"bg.jpg",0,0
//Break Periods
//Storyboard Layer 0 (Background)
//Storyboard Layer 1 (Fail)
//Storyboard Layer 2 (Pass)
//Storyboard Layer 3 (Foreground)
//Storyboard Sound Samples
//Background Colour Transformations
3,100,163,162,255

[TimingPoints]
0,214.285714285714,4,1,1,70,1,0
19232,-100,4,1,2,50,0,0
19339,-100,4,1,1,70,0,0
25553,-100,4,1,2,50,0,0
25660,-100,4,1,1,70,0,0
27749,-74.6268656716418,4,1,1,70,0,0
28499,-200,4,1,1,70,0,0
29999,-100,4,1,1,70,0,0
31928,-200,4,1,1,70,0,0
33428,-100,4,1,1,70,0,0
35357,-200,4,1,1,70,0,0
36857,-100,4,1,1,70,0,0
40285,-58.8235294117647,4,1,1,70,0,0
40928,-100,4,1,1,70,0,0
41999,-100,4,1,2,70,0,1
42107,-100,4,1,1,70,0,1
55607,-100,4,1,1,70,0,0
78857,-100,4,1,1,40,0,0
79714,-100,4,1,1,70,0,0
82607,-74.6268656716418,4,1,1,70,0,0
82982,-74.6268656716418,4,1,2,50,0,0
83089,-74.6268656716418,4,1,1,70,0,0
83357,-100,4,1,1,70,0,0
95142,-58.8235294117647,4,1,1,70,0,0
95785,-100,4,1,1,70,0,0
96857,-100,4,1,2,70,0,1
96964,-100,4,1,1,70,0,1
103607,-100,4,1,1,70,0,0
103714,-100,4,1,1,70,0,1
110464,-100,4,1,1,70,0,0
123857,-100,4,2,1,50,0,0
124285,-100,4,1,1,70,0,0
129696,-100,4,1,1,70,0,0
134999,-90.9090909090909,4,1,1,70,0,0
135428,-83.3333333333333,4,1,1,70,0,0
135857,-76.9230769230769,4,1,1,70,0,0
136285,-71.4285714285714,4,1,1,70,0,0
136714,-66.6666666666667,4,1,1,70,0,0
137142,-62.5,4,1,1,70,0,0
137571,-58.8235294117647,4,1,1,70,0,0
137999,-55.5555555555556,4,2,1,50,0,0
138214,-100,4,1,1,70,0,0
143196,-100,4,1,2,50,0,0
143303,-100,4,1,1,70,0,0
143946,-100,4,1,2,50,0,0
144053,-100,4,1,1,70,0,0
147428,-100,4,1,1,50,0,0
148285,-100,4,1,1,70,0,0
149196,-100,4,1,2,50,0,0
149303,-100,4,1,1,70,0,0
150053,-100,4,1,2,50,0,0
150160,-100,4,1,1,70,0,0
150374,-100,4,1,2,50,0,0
150482,-100,4,1,1,70,0,0
150696,-100,4,1,2,70,0,0
151017,-100,4,1,1,70,0,0
157982,-100,4,1,2,50,0,0
158089,-100,4,1,1,70,0,0
163714,-58.8235294117647,4,1,1,70,0,0
164089,-200,4,2,1,70,0,0
164357,-100,4,1,1,70,0,0
165428,-100,4,1,2,70,0,1
165482,-100,4,1,1,70,0,1
179035,-100,4,1,2,70,0,0
179196,-100,4,1,1,70,0,1
183589,-100,4,1,1,50,0,1
183696,-100,4,1,1,70,0,1
185357,-66.6666666666667,4,1,1,70,0,1
185571,-50,4,1,1,70,0,1
185785,-100,4,1,1,70,0,1
185999,-100,4,1,2,70,0,1
186107,-100,4,1,1,70,0,1
192857,-100,4,1,1,70,0,0
205928,-66.6666666666667,4,1,1,70,0,0
206571,-200,4,1,1,70,0,0
208124,-200,4,1,1,5,0,0

[Colours]
Combo1 : 255,128,255
Combo2 : 255,255,128
Combo3 : 0,255,64
Combo4 : 255,128,128

[HitObjects]
256,192,642,5,0,0:0:0:0:
256,192,749,1,0,0:0:0:0:
256,192,857,6,0,B|352:192,1,75
512,192,1071,2,0,B|412:192,1,75,8|0,0:0|0:0,0:0:0:0:
80,272,1285,2,0,B|192:384,1,150,0|8,0:0|0:0,0:0:0:0:
432,272,1607,2,0,B|320:384,1,150
256,192,1928,6,0,B|256:296,1,75,8|0,0:0|0:0,0:0:0:0:
192,192,2142,2,0,B|192:88,1,75,0|0,0:0|0:0,0:0:0:0:
320,192,2357,2,0,L|320:272,1,75,8|0,0:0|0:0,0:0:0:0:
128,192,2571,2,0,L|128:112,1,75
384,192,2785,2,0,L|384:272,1,75,8|0,0:0|0:0,0:0:0:0:
64,192,2999,2,0,B|64:372,1,150,0|8,0:0|0:0,0:0:0:0:
448,192,3321,2,0,B|448:12,1,150
64,112,3642,6,0,B|160:112,1,75,8|0,0:0|0:0,0:0:0:0:
448,272,3857,2,0,B|352:272,1,75
64,272,4071,2,0,B|144:272,1,75,8|0,0:0|0:0,0:0:0:0:
448,112,4285,5,0,0:0:0:0:
416,112,4392,1,0,0:0:0:0:
384,112,4499,1,8,0:0:0:0:
352,112,4607,1,0,0:0:0:0:
320,112,4714,2,0,B|208:0,1,150,0|8,0:0|0:0,0:0:0:0:
0,192,5035,2,0,B|112:304,1,150
448,272,5357,6,0,L|512:320,1,75,8|0,0:0|0:0,0:0:0:0:
64,272,5571,2,0,L|0:336,1,75
448,192,5785,2,0,L|512:128,1,75,8|0,0:0|0:0,0:0:0:0:
64,48,5999,5,0,0:0:0:0:
96,48,6107,1,0,0:0:0:0:
128,48,6214,1,8,0:0:0:0:
160,48,6321,1,0,0:0:0:0:
192,48,6428,2,0,B|304:160,1,150,0|8,0:0|0:0,0:0:0:0:
512,128,6749,2,0,B|384:256,1,150
0,224,7071,6,0,B|64:304,1,75,8|0,0:0|0:0,0:0:0:0:
256,224,7285,2,0,B|256:332,1,75,0|0,0:0|0:0,0:0:0:0:
512,224,7499,2,0,B|448:304,1,75,8|0,0:0|0:0,0:0:0:0:
240,224,7714,6,0,B|176:288,1,75
272,224,7928,2,0,B|336:288,1,75,8|0,0:0|0:0,0:0:0:0:
64,192,8142,2,0,B|176:80,1,150,0|8,0:0|0:0,0:0:0:0:
448,192,8464,2,0,B|336:80,1,150
128,304,8785,6,0,B|24:304,1,75,8|0,0:0|0:0,0:0:0:0:
384,304,8999,2,0,B|472:304,1,75,0|0,0:0|0:0,0:0:0:0:
80,224,9214,2,0,B|160:224,1,75,8|0,0:0|0:0,0:0:0:0:
432,112,9428,5,0,0:0:0:0:
400,112,9535,1,0,0:0:0:0:
368,112,9642,1,8,0:0:0:0:
336,112,9749,1,0,0:0:0:0:
304,112,9857,2,0,B|192:224,1,150,0|8,0:0|0:0,0:0:0:0:
512,160,10178,2,0,B|384:288,1,150
400,336,10499,6,0,B|304:336,1,75,8|0,0:0|0:0,0:0:0:0:
80,336,10713,2,0,B|5:336,1,75,0|0,0:0|0:0,0:0:0:0:
208,256,10928,2,0,B|312:256,1,75,8|0,0:0|0:0,0:0:0:0:
32,80,11142,5,0,0:0:0:0:
48,80,11249,1,0,0:0:0:0:
64,80,11357,1,8,0:0:0:0:
80,80,11464,1,0,0:0:0:0:
432,80,11571,2,0,B|432:260,1,150,0|8,0:0|0:0,0:0:0:0:
80,80,11892,2,0,B|80:230,1,150
416,256,12214,6,0,B|336:256,1,75,8|0,0:0|0:0,0:0:0:0:
96,256,12428,2,0,B|176:256,1,75
448,176,12642,2,0,B|364:176,1,75,8|0,0:0|0:0,0:0:0:0:
64,176,12857,2,0,B|148:176,1,75
320,176,13071,1,8,0:0:0:0:
192,176,13178,1,0,0:0:0:0:
368,176,13285,2,0,B|368:348,1,150,0|8,0:0|0:0,0:0:0:0:
160,176,13607,2,0,B|160:326,1,150
416,112,13928,6,0,B|512:112,2,75,8|0|0,0:0|0:0|0:0,0:0:0:0:
96,112,14249,2,0,B|0:112,2,75,0|8|0,0:0|0:0|0:0,0:0:0:0:
256,112,14571,1,0,0:0:0:0:
240,192,14785,5,8,0:0:0:0:
272,192,14892,1,0,0:0:0:0:
240,192,14999,1,0,0:0:0:0:
272,192,15107,1,0,0:0:0:0:
224,192,15214,1,8,0:0:0:0:
288,192,15321,1,0,0:0:0:0:
288,112,15428,6,0,B|288:36,1,75
96,112,15642,2,0,B|96:37,1,75,8|0,0:0|0:0,0:0:0:0:
32,176,15857,2,0,B|32:252,1,75,0|0,0:0|0:0,0:0:0:0:
352,176,16071,2,0,B|352:251,1,75,8|0,0:0|0:0,0:0:0:0:
64,208,16285,6,0,B|192:336,1,150,0|8,0:0|0:0,0:0:0:0:
448,208,16714,2,0,B|320:336,1,150,0|8,0:0|0:0,0:0:0:0:
128,112,17035,2,0,B|278:112,1,150
512,144,17357,5,8,0:0:0:0:
480,144,17464,1,0,0:0:0:0:
448,144,17571,1,0,0:0:0:0:
416,144,17678,1,0,0:0:0:0:
384,144,17785,1,8,0:0:0:0:
352,144,17892,1,0,0:0:0:0:
0,240,17999,6,0,B|176:240,1,150,0|8,0:0|0:0,0:0:0:0:
512,240,18321,2,0,B|352:240,1,150
48,320,18642,5,8,0:0:0:0:
64,320,18749,1,0,0:0:0:0:
464,320,18857,1,0,0:0:0:0:
448,320,18964,1,0,0:0:0:0:
96,320,19071,1,8,0:0:0:0:
112,320,19178,1,0,0:0:0:0:
416,320,19285,1,0,0:0:0:0:
400,320,19392,1,0,0:0:0:0:
144,320,19499,1,8,0:0:0:0:
368,320,19607,1,0,0:0:0:0:
160,224,19714,6,0,B|-16:224,1,150,0|8,0:0|0:0,0:0:0:0:
352,224,20036,2,0,B|528:224,1,150
48,96,20357,5,8,0:0:0:0:
64,96,20464,1,0,0:0:0:0:
464,96,20572,1,0,0:0:0:0:
448,96,20679,1,0,0:0:0:0:
96,96,20786,1,8,0:0:0:0:
112,96,20893,1,0,0:0:0:0:
416,96,21000,1,0,0:0:0:0:
400,96,21107,1,0,0:0:0:0:
144,96,21214,1,8,0:0:0:0:
368,96,21322,1,0,0:0:0:0:
304,96,21428,6,0,B|192:208,1,150,0|8,0:0|0:0,0:0:0:0:
160,224,21749,1,0,0:0:0:0:
112,224,21857,1,0,0:0:0:0:
64,224,21964,1,0,0:0:0:0:
16,224,22071,1,8,0:0:0:0:
64,288,22178,1,0,0:0:0:0:
112,288,22285,6,0,B|112:363,1,75
400,288,22499,2,0,B|400:372,1,75,8|0,0:0|0:0,0:0:0:0:
48,160,22714,2,0,B|48:76,1,75
464,160,22928,2,0,B|464:85,1,75,8|0,0:0|0:0,0:0:0:0:
48,80,23142,1,0,0:0:0:0:
48,240,23357,6,0,B|112:304,1,75,8|0,0:0|0:0,0:0:0:0:
464,240,23571,2,0,L|400:304,1,75
96,336,23785,1,8,0:0:0:0:
352,288,23892,2,0,P|400:224|352:160,1,150,0|0,0:0|0:0,0:0:0:0:
192,160,24214,1,8,0:0:0:0:
368,128,24321,2,0,B|360:36|472:20,1,150
464,112,24642,1,8,0:0:0:0:
464,112,24749,1,0,0:0:0:0:
64,48,24857,6,0,B|224:48,1,150,4|8,0:0|0:0,0:0:0:0:
448,48,25178,1,4,0:0:0:0:
416,80,25285,1,0,0:0:0:0:
256,160,25392,1,0,0:0:0:0:
464,192,25499,2,0,P|432:288|320:336,1,225,4|8,0:0|0:0,0:0:0:0:
324,336,25928,1,8,0:0:0:0:
0,336,26035,2,0,B|112:224,1,150,0|0,0:0|0:0,0:0:0:0:
112,224,26357,1,8,0:0:0:0:
272,224,26464,1,0,0:0:0:0:
48,160,26571,6,0,B|176:32,1,150,4|8,0:0|0:0,0:0:0:0:
176,32,26892,1,4,0:0:0:0:
208,96,26999,2,0,B|154:149,1,75,0|0,0:0|0:0,0:0:0:0:
512,96,27214,2,0,B|352:256,1,225,8|0,0:0|0:0,0:0:0:0:
144,256,27642,1,8,0:0:0:0:
512,336,27749,2,0,B|0:336,1,502.499976230623,0|4,0:0|0:0,0:0:0:0:
256,224,28499,5,0,0:0:0:0:
176,224,28713,1,8,0:0:0:0:
336,224,28928,1,0,0:0:0:0:
96,224,29142,1,0,0:0:0:0:
416,224,29357,1,0,0:0:0:0:
16,224,29571,1,8,0:0:0:0:
496,224,29785,1,0,0:0:0:0:
352,160,29999,5,0,0:0:0:0:
352,160,30107,1,0,0:0:0:0:
160,160,30214,1,0,0:0:0:0:
160,160,30321,1,0,0:0:0:0:
432,160,30428,1,0,0:0:0:0:
432,160,30535,1,0,0:0:0:0:
80,160,30642,1,0,0:0:0:0:
80,160,30749,1,0,0:0:0:0:
512,160,30857,1,0,0:0:0:0:
512,160,30964,1,0,0:0:0:0:
0,160,31071,1,0,0:0:0:0:
0,160,31124,1,0,0:0:0:0:
352,80,31285,1,0,0:0:0:0:
160,80,31392,1,0,0:0:0:0:
496,224,31714,5,0,0:0:0:0:
16,224,31928,1,0,0:0:0:0:
416,224,32142,1,8,0:0:0:0:
96,224,32357,1,0,0:0:0:0:
336,224,32571,1,0,0:0:0:0:
176,224,32785,1,0,0:0:0:0:
256,224,32999,1,8,0:0:0:0:
256,224,33214,1,0,0:0:0:0:
288,144,33428,6,0,L|352:80,1,75
224,144,33642,2,0,L|160:80,1,75
368,144,33857,2,0,L|432:80,1,75
144,144,34071,2,0,L|80:80,1,75
368,144,34285,2,0,L|432:80,1,75
64,144,34499,2,0,L|0:80,1,75
448,144,34714,2,0,L|512:80,1,75
512,224,35142,5,0,0:0:0:0:
288,224,35356,1,0,0:0:0:0:
512,224,35571,1,8,0:0:0:0:
192,224,35785,1,0,0:0:0:0:
512,224,35999,1,0,0:0:0:0:
96,224,36214,1,0,0:0:0:0:
512,224,36428,1,8,0:0:0:0:
0,224,36642,1,0,0:0:0:0:
320,96,36857,6,0,B|432:208,1,150,0|8,0:0|0:0,0:0:0:0:
476,260,37178,1,0,0:0:0:0:
32,160,37285,2,0,B|144:48,1,150,0|8,0:0|0:0,0:0:0:0:
176,16,37606,1,0,0:0:0:0:
256,192,37714,1,0,0:0:0:0:
256,192,37928,1,8,0:0:0:0:
256,192,38142,1,0,0:0:0:0:
256,192,38357,1,0,0:0:0:0:
96,320,38571,5,0,0:0:0:0:
336,320,38785,1,0,0:0:0:0:
176,320,38999,1,8,0:0:0:0:
416,320,39214,1,0,0:0:0:0:
416,320,39321,1,0,0:0:0:0:
256,320,39535,1,0,0:0:0:0:
256,320,39642,1,8,0:0:0:0:
496,320,39857,1,0,0:0:0:0:
16,320,40071,1,0,0:0:0:0:
508,224,40285,6,0,B|-16:224,1,510.000009727478,4|0,0:0|0:0,0:0:0:0:
160,48,40928,5,0,0:0:0:0:
352,48,41035,1,0,0:0:0:0:
352,112,41142,2,0,B|352:216,1,85,0|8,0:0|0:0,0:0:0:0:
160,112,41357,1,8,0:0:0:0:
352,112,41464,1,0,0:0:0:0:
256,384,41785,6,0,B|256:224,1,150,0|4,2:0|0:0,0:0:0:0:
224,160,42214,2,0,B|160:96,1,75,8|0,0:0|0:0,0:0:0:0:
288,160,42428,2,0,B|352:96,1,75
128,160,42643,2,0,B|64:96,1,75,8|0,0:0|0:0,0:0:0:0:
384,160,42857,5,0,0:0:0:0:
384,160,42964,1,0,0:0:0:0:
48,160,43071,1,8,0:0:0:0:
48,160,43178,1,0,0:0:0:0:
464,160,43285,1,0,0:0:0:0:
464,160,43392,1,0,0:0:0:0:
221,256,43499,2,0,B|296:256,1,75,8|0,0:0|0:0,0:0:0:0:
464,320,43714,6,0,B|368:320,1,75
64,320,43928,2,0,B|168:320,1,75,8|0,0:0|0:0,0:0:0:0:
304,176,44142,2,0,B|208:176,1,75
16,176,44357,2,0,B|120:176,1,75,8|0,0:0|0:0,0:0:0:0:
432,320,44571,6,0,P|400:256|448:192,1,150,0|8,0:0|0:0,0:0:0:0:
80,320,44892,2,0,P|112:256|64:192,1,150
32,112,45214,2,0,B|124:112,1,75,8|0,0:0|0:0,0:0:0:0:
400,112,45428,6,0,B|512:0,1,150,0|8,0:0|0:0,0:0:0:0:
512,0,45749,1,0,0:0:0:0:
112,112,45857,2,0,B|4:0,1,150,0|8,0:0|0:0,0:0:0:0:
352,192,46178,2,0,B|512:192,1,150
160,192,46499,2,0,B|0:192,1,150,8|0,0:0|0:0,0:0:0:0:
512,304,46821,1,0,0:0:0:0:
448,304,46928,1,8,0:0:0:0:
512,304,47035,1,0,0:0:0:0:
160,304,47142,5,0,0:0:0:0:
224,304,47249,1,0,0:0:0:0:
160,304,47357,1,8,0:0:0:0:
0,304,47464,1,0,0:0:0:0:
256,304,47571,2,0,B|256:140,1,150,0|8,0:0|0:0,0:0:0:0:
512,80,47892,2,0,B|352:80,1,150
0,80,48214,6,0,B|80:80,1,75,8|0,0:0|0:0,0:0:0:0:
512,80,48428,2,0,B|416:80,1,75
288,80,48642,2,0,B|208:80,1,75,8|0,0:0|0:0,0:0:0:0:
32,144,48857,6,0,B|32:320,1,150,0|8,0:0|0:0,0:0:0:0:
256,192,49178,1,0,0:0:0:0:
480,144,49285,2,0,L|480:240,2,75,0|0|8,0:0|0:0|0:0,0:0:0:0:
256,192,49607,1,0,0:0:0:0:
16,64,49714,5,0,0:0:0:0:
96,64,49821,1,0,0:0:0:0:
176,64,49928,1,8,0:0:0:0:
256,64,50035,1,0,0:0:0:0:
176,144,50142,1,0,0:0:0:0:
256,144,50249,1,0,0:0:0:0:
336,144,50357,1,8,0:0:0:0:
416,144,50464,1,0,0:0:0:0:
496,144,50571,1,0,0:0:0:0:
496,144,50678,1,0,0:0:0:0:
16,224,50785,5,8,0:0:0:0:
16,224,50892,1,0,0:0:0:0:
352,224,51000,1,0,0:0:0:0:
352,224,51107,1,0,0:0:0:0:
128,224,51214,1,8,0:0:0:0:
128,224,51321,1,0,0:0:0:0:
464,224,51428,6,0,B|464:372,1,150,0|8,0:0|0:0,0:0:0:0:
240,224,51749,2,0,B|240:374,1,150
240,144,52071,1,8,0:0:0:0:
240,144,52178,1,0,0:0:0:0:
336,80,52285,6,0,B|400:16,1,75
176,80,52499,2,0,B|112:16,1,75,8|0,0:0|0:0,0:0:0:0:
448,80,52714,2,0,B|512:16,1,75
64,80,52928,2,0,B|0:16,1,75,8|0,0:0|0:0,0:0:0:0:
64,80,53142,1,0,0:0:0:0:
112,302,53249,6,0,B|164:248,2,75,0|8|0,0:0|0:0|0:0,0:0:0:0:
399,302,53571,2,0,B|348:248,2,75,0|0|8,0:0|0:0|0:0,0:0:0:0:
256,200,53892,1,0,0:0:0:0:
224,128,53999,6,0,B|400:128,1,150,0|8,0:0|0:0,0:0:0:0:
288,48,54321,2,0,B|128:48,1,150
256,200,54642,1,8,0:0:0:0:
256,200,54749,1,0,0:0:0:0:
256,200,54857,5,0,0:0:0:0:
256,200,54964,1,0,0:0:0:0:
256,200,55071,1,8,0:0:0:0:
256,200,55178,1,0,0:0:0:0:
256,288,55285,2,0,B|432:288,1,150,0|8,0:0|0:0,0:0:0:0:
112,288,55607,5,0,0:0:0:0:
256,192,55714,6,0,B|352:192,1,75
512,192,55928,2,0,B|412:192,1,75,8|0,0:0|0:0,0:0:0:0:
432,272,56142,2,0,B|320:384,1,150,0|8,0:0|0:0,0:0:0:0:
80,272,56464,2,0,B|192:384,1,150
256,192,56785,6,0,B|256:296,1,75,8|0,0:0|0:0,0:0:0:0:
320,192,56999,2,0,B|320:88,1,75,0|0,0:0|0:0,0:0:0:0:
192,192,57214,2,0,L|192:272,1,75,8|0,0:0|0:0,0:0:0:0:
384,192,57428,2,0,L|384:112,1,75
128,192,57642,2,0,L|128:272,1,75,8|0,0:0|0:0,0:0:0:0:
448,192,57856,2,0,B|448:372,1,150,0|8,0:0|0:0,0:0:0:0:
64,192,58178,2,0,B|64:12,1,150
448,112,58499,6,0,B|352:112,1,75,8|0,0:0|0:0,0:0:0:0:
64,272,58714,2,0,B|160:272,1,75
448,272,58928,2,0,B|368:272,1,75,8|0,0:0|0:0,0:0:0:0:
64,112,59142,5,0,0:0:0:0:
96,112,59249,1,0,0:0:0:0:
128,112,59356,1,8,0:0:0:0:
160,112,59464,1,0,0:0:0:0:
192,112,59571,2,0,B|304:0,1,150,0|8,0:0|0:0,0:0:0:0:
512,192,59892,2,0,B|400:304,1,150
64,272,60214,6,0,L|0:320,1,75,8|0,0:0|0:0,0:0:0:0:
448,272,60428,2,0,L|512:336,1,75
64,192,60642,2,0,L|0:128,1,75,8|0,0:0|0:0,0:0:0:0:
448,48,60856,5,0,0:0:0:0:
416,48,60964,1,0,0:0:0:0:
384,48,61071,1,8,0:0:0:0:
352,48,61178,1,0,0:0:0:0:
320,48,61285,2,0,B|208:160,1,150,0|8,0:0|0:0,0:0:0:0:
0,128,61606,2,0,B|128:256,1,150
512,224,61928,6,0,B|448:304,1,75,8|0,0:0|0:0,0:0:0:0:
256,224,62142,2,0,B|256:332,1,75,0|0,0:0|0:0,0:0:0:0:
0,224,62356,2,0,B|64:304,1,75,8|0,0:0|0:0,0:0:0:0:
272,224,62571,6,0,B|336:288,1,75
240,224,62785,2,0,B|176:288,1,75,8|0,0:0|0:0,0:0:0:0:
448,192,62999,2,0,B|336:80,1,150,0|8,0:0|0:0,0:0:0:0:
64,192,63321,2,0,B|176:80,1,150
384,304,63642,6,0,B|488:304,1,75,8|0,0:0|0:0,0:0:0:0:
128,304,63856,2,0,B|40:304,1,75,0|0,0:0|0:0,0:0:0:0:
432,224,64071,2,0,B|352:224,1,75,8|0,0:0|0:0,0:0:0:0:
80,112,64285,5,0,0:0:0:0:
112,112,64392,1,0,0:0:0:0:
144,112,64499,1,8,0:0:0:0:
176,112,64606,1,0,0:0:0:0:
208,112,64714,2,0,B|320:224,1,150,0|8,0:0|0:0,0:0:0:0:
0,160,65035,2,0,B|128:288,1,150
112,336,65356,6,0,B|208:336,1,75,8|0,0:0|0:0,0:0:0:0:
432,336,65570,2,0,B|507:336,1,75,0|0,0:0|0:0,0:0:0:0:
304,256,65785,2,0,B|200:256,1,75,8|0,0:0|0:0,0:0:0:0:
480,80,65999,5,0,0:0:0:0:
464,80,66106,1,0,0:0:0:0:
448,80,66214,1,8,0:0:0:0:
432,80,66321,1,0,0:0:0:0:
80,80,66428,2,0,B|80:260,1,150,0|8,0:0|0:0,0:0:0:0:
432,80,66749,2,0,B|432:230,1,150
96,256,67071,6,0,B|176:256,1,75,8|0,0:0|0:0,0:0:0:0:
416,256,67285,2,0,B|336:256,1,75
64,176,67499,2,0,B|148:176,1,75,8|0,0:0|0:0,0:0:0:0:
448,176,67714,2,0,B|364:176,1,75
192,176,67928,1,8,0:0:0:0:
320,176,68035,1,0,0:0:0:0:
144,176,68142,2,0,B|144:348,1,150,0|8,0:0|0:0,0:0:0:0:
352,176,68464,2,0,B|352:326,1,150
96,112,68785,6,0,B|0:112,2,75,8|0|0,0:0|0:0|0:0,0:0:0:0:
416,112,69106,6,0,B|512:112,2,75,0|8|0,0:0|0:0|0:0,0:0:0:0:
256,112,69428,1,0,0:0:0:0:
272,192,69642,5,8,0:0:0:0:
240,192,69749,1,0,0:0:0:0:
272,192,69856,1,0,0:0:0:0:
240,192,69964,1,0,0:0:0:0:
288,192,70071,1,8,0:0:0:0:
224,192,70178,1,0,0:0:0:0:
224,112,70285,6,0,B|224:36,1,75
416,112,70499,2,0,B|416:37,1,75,8|0,0:0|0:0,0:0:0:0:
480,176,70714,2,0,B|480:252,1,75,0|0,0:0|0:0,0:0:0:0:
160,176,70928,2,0,B|160:251,1,75,8|0,0:0|0:0,0:0:0:0:
448,208,71142,6,0,B|320:336,1,150,0|8,0:0|0:0,0:0:0:0:
64,208,71571,2,0,B|192:336,1,150,0|8,0:0|0:0,0:0:0:0:
384,112,71892,2,0,B|234:112,1,150
0,144,72214,5,8,0:0:0:0:
32,144,72321,1,0,0:0:0:0:
64,144,72428,1,0,0:0:0:0:
96,144,72535,1,0,0:0:0:0:
128,144,72642,1,8,0:0:0:0:
160,144,72749,1,0,0:0:0:0:
512,240,72856,6,0,B|336:240,1,150,0|8,0:0|0:0,0:0:0:0:
0,240,73178,2,0,B|160:240,1,150
464,320,73499,5,8,0:0:0:0:
448,320,73606,1,0,0:0:0:0:
48,320,73714,1,0,0:0:0:0:
64,320,73821,1,0,0:0:0:0:
416,320,73928,1,8,0:0:0:0:
400,320,74035,1,0,0:0:0:0:
96,320,74142,1,0,0:0:0:0:
112,320,74249,1,0,0:0:0:0:
368,320,74356,1,8,0:0:0:0:
144,320,74464,1,0,0:0:0:0:
352,224,74571,6,0,B|528:224,1,150,0|8,0:0|0:0,0:0:0:0:
160,224,74893,2,0,B|-16:224,1,150
464,96,75214,5,8,0:0:0:0:
448,96,75321,1,0,0:0:0:0:
48,96,75429,1,0,0:0:0:0:
64,96,75536,1,0,0:0:0:0:
416,96,75643,1,8,0:0:0:0:
400,96,75750,1,0,0:0:0:0:
96,96,75857,1,0,0:0:0:0:
112,96,75964,1,0,0:0:0:0:
368,96,76071,1,8,0:0:0:0:
144,96,76179,1,0,0:0:0:0:
208,96,76285,6,0,B|320:208,1,150,0|8,0:0|0:0,0:0:0:0:
352,224,76606,1,0,0:0:0:0:
400,224,76714,1,0,0:0:0:0:
448,224,76821,1,0,0:0:0:0:
496,224,76928,1,8,0:0:0:0:
448,288,77035,1,0,0:0:0:0:
400,288,77142,6,0,B|400:363,1,75
112,288,77356,2,0,B|112:372,1,75,8|0,0:0|0:0,0:0:0:0:
464,160,77571,2,0,B|464:76,1,75
48,160,77785,2,0,B|48:85,1,75,8|0,0:0|0:0,0:0:0:0:
464,80,77999,1,0,0:0:0:0:
464,240,78214,6,0,B|400:304,1,75,8|0,0:0|0:0,0:0:0:0:
48,240,78428,2,0,L|112:304,1,75
416,336,78642,1,8,0:0:0:0:
160,288,78749,2,0,P|112:224|160:160,1,150,0|0,0:0|0:0,0:0:0:0:
320,160,79071,1,8,0:0:0:0:
144,128,79178,2,0,B|152:36|40:20,1,150
48,112,79499,1,8,0:0:0:0:
48,112,79606,1,0,0:0:0:0:
448,48,79714,6,0,B|288:48,1,150,4|8,0:0|0:0,0:0:0:0:
64,48,80035,1,4,0:0:0:0:
96,80,80142,1,0,0:0:0:0:
256,160,80249,1,0,0:0:0:0:
48,192,80356,2,0,P|80:288|192:336,1,225,4|8,0:0|0:0,0:0:0:0:
188,336,80785,1,8,0:0:0:0:
512,336,80892,2,0,B|400:224,1,150,0|0,0:0|0:0,0:0:0:0:
400,224,81214,1,8,0:0:0:0:
240,224,81321,1,0,0:0:0:0:
464,160,81428,6,0,B|336:32,1,150,4|8,0:0|0:0,0:0:0:0:
336,32,81749,1,4,0:0:0:0:
304,96,81856,2,0,B|358:149,1,75,0|0,0:0|0:0,0:0:0:0:
0,96,82071,2,0,B|160:256,1,225,8|0,0:0|0:0,0:0:0:0:
368,256,82499,1,8,0:0:0:0:
0,336,82607,2,0,B|512:336,1,502.499976230623,0|4,0:0|0:0,0:0:0:0:
256,224,83356,5,0,0:0:0:0:
336,224,83570,1,8,0:0:0:0:
176,224,83785,1,0,0:0:0:0:
416,224,83999,1,0,0:0:0:0:
96,224,84214,1,0,0:0:0:0:
496,224,84428,1,8,0:0:0:0:
16,224,84642,1,0,0:0:0:0:
160,160,84856,5,0,0:0:0:0:
160,160,84964,1,0,0:0:0:0:
352,160,85071,1,0,0:0:0:0:
352,160,85178,1,0,0:0:0:0:
80,160,85285,1,0,0:0:0:0:
80,160,85392,1,0,0:0:0:0:
432,160,85499,1,0,0:0:0:0:
432,160,85606,1,0,0:0:0:0:
0,160,85714,1,0,0:0:0:0:
0,160,85821,1,0,0:0:0:0:
512,160,85928,1,0,0:0:0:0:
512,160,85981,1,0,0:0:0:0:
160,80,86142,1,0,0:0:0:0:
352,80,86249,1,0,0:0:0:0:
16,224,86571,5,0,0:0:0:0:
496,224,86785,1,0,0:0:0:0:
96,224,86999,1,8,0:0:0:0:
416,224,87214,1,0,0:0:0:0:
176,224,87428,1,0,0:0:0:0:
336,224,87642,1,0,0:0:0:0:
256,224,87856,1,8,0:0:0:0:
256,224,88071,1,0,0:0:0:0:
224,144,88285,6,0,L|160:80,1,75
288,144,88499,2,0,L|352:80,1,75
144,144,88714,2,0,L|80:80,1,75
368,144,88928,2,0,L|432:80,1,75
144,144,89142,2,0,L|80:80,1,75
448,144,89356,2,0,L|512:80,1,75
64,144,89571,2,0,L|0:80,1,75
0,224,89999,5,0,0:0:0:0:
224,224,90213,1,0,0:0:0:0:
0,224,90428,1,8,0:0:0:0:
320,224,90642,1,0,0:0:0:0:
0,224,90856,1,0,0:0:0:0:
416,224,91071,1,0,0:0:0:0:
0,224,91285,1,8,0:0:0:0:
512,224,91499,1,0,0:0:0:0:
192,96,91714,6,0,B|80:208,1,150,0|8,0:0|0:0,0:0:0:0:
36,260,92035,1,0,0:0:0:0:
480,160,92142,2,0,B|368:48,1,150,0|8,0:0|0:0,0:0:0:0:
336,16,92463,1,0,0:0:0:0:
256,192,92571,1,0,0:0:0:0:
256,192,92785,1,8,0:0:0:0:
256,192,92999,1,0,0:0:0:0:
256,192,93214,1,0,0:0:0:0:
416,320,93428,5,0,0:0:0:0:
176,320,93642,1,0,0:0:0:0:
336,320,93856,1,8,0:0:0:0:
96,320,94071,1,0,0:0:0:0:
96,320,94178,1,0,0:0:0:0:
256,320,94392,1,0,0:0:0:0:
256,320,94499,1,8,0:0:0:0:
16,320,94714,1,0,0:0:0:0:
496,320,94928,1,0,0:0:0:0:
4,224,95142,6,0,B|528:224,1,510.000009727478,4|0,0:0|0:0,0:0:0:0:
352,48,95785,5,0,0:0:0:0:
160,48,95892,1,0,0:0:0:0:
160,112,95999,2,0,B|160:216,1,85,0|8,0:0|0:0,0:0:0:0:
352,112,96214,1,8,0:0:0:0:
160,112,96321,1,0,0:0:0:0:
256,384,96642,6,0,B|256:224,1,150,0|4,2:0|0:0,0:0:0:0:
288,160,97071,2,0,B|352:96,1,75,8|0,0:0|0:0,0:0:0:0:
224,160,97285,2,0,B|160:96,1,75
384,160,97500,2,0,B|448:96,1,75,8|0,0:0|0:0,0:0:0:0:
128,160,97714,5,0,0:0:0:0:
128,160,97821,1,0,0:0:0:0:
464,160,97928,1,8,0:0:0:0:
464,160,98035,1,0,0:0:0:0:
48,160,98142,1,0,0:0:0:0:
48,160,98249,1,0,0:0:0:0:
291,256,98356,2,0,B|216:256,1,75,8|0,0:0|0:0,0:0:0:0:
48,320,98571,6,0,B|144:320,1,75
448,320,98785,2,0,B|344:320,1,75,8|0,0:0|0:0,0:0:0:0:
208,176,98999,2,0,B|304:176,1,75
496,176,99214,2,0,B|392:176,1,75,8|0,0:0|0:0,0:0:0:0:
80,320,99428,6,0,P|112:256|64:192,1,150,0|8,0:0|0:0,0:0:0:0:
432,320,99749,2,0,P|400:256|448:192,1,150
480,112,100071,2,0,B|388:112,1,75,8|0,0:0|0:0,0:0:0:0:
112,112,100285,6,0,B|0:0,1,150,0|8,0:0|0:0,0:0:0:0:
0,0,100606,1,0,0:0:0:0:
400,112,100714,2,0,B|508:0,1,150,0|8,0:0|0:0,0:0:0:0:
160,192,101035,2,0,B|0:192,1,150
352,192,101356,2,0,B|512:192,1,150,8|0,0:0|0:0,0:0:0:0:
0,304,101678,1,0,0:0:0:0:
64,304,101785,1,8,0:0:0:0:
0,304,101892,1,0,0:0:0:0:
352,304,101999,5,0,0:0:0:0:
288,304,102106,1,0,0:0:0:0:
352,304,102214,1,8,0:0:0:0:
512,304,102321,1,0,0:0:0:0:
256,304,102428,2,0,B|256:140,1,150,0|8,0:0|0:0,0:0:0:0:
0,80,102749,2,0,B|160:80,1,150
512,80,103071,6,0,B|432:80,1,75,8|0,0:0|0:0,0:0:0:0:
0,80,103285,2,0,B|96:80,1,75
224,80,103499,2,0,B|304:80,1,75,8|0,0:0|0:0,0:0:0:0:
480,144,103714,6,0,B|480:320,1,150,0|8,0:0|0:0,0:0:0:0:
256,192,104035,1,0,0:0:0:0:
32,144,104142,2,0,L|32:240,2,75,0|0|8,0:0|0:0|0:0,0:0:0:0:
256,192,104464,1,0,0:0:0:0:
496,64,104571,5,0,0:0:0:0:
416,64,104678,1,0,0:0:0:0:
336,64,104785,1,8,0:0:0:0:
256,64,104892,1,0,0:0:0:0:
336,144,104999,1,0,0:0:0:0:
256,144,105106,1,0,0:0:0:0:
176,144,105214,1,8,0:0:0:0:
96,144,105321,1,0,0:0:0:0:
16,144,105428,1,0,0:0:0:0:
16,144,105535,1,0,0:0:0:0:
496,224,105642,5,8,0:0:0:0:
496,224,105749,1,0,0:0:0:0:
160,224,105857,1,0,0:0:0:0:
160,224,105964,1,0,0:0:0:0:
384,224,106071,1,8,0:0:0:0:
384,224,106178,1,0,0:0:0:0:
48,224,106285,6,0,B|48:372,1,150,0|8,0:0|0:0,0:0:0:0:
272,224,106606,2,0,B|272:374,1,150
272,144,106928,1,8,0:0:0:0:
272,144,107035,1,0,0:0:0:0:
176,80,107142,6,0,B|112:16,1,75
336,80,107356,2,0,B|400:16,1,75,8|0,0:0|0:0,0:0:0:0:
64,80,107571,2,0,B|0:16,1,75
448,80,107785,2,0,B|512:16,1,75,8|0,0:0|0:0,0:0:0:0:
448,80,107999,1,0,0:0:0:0:
400,302,108106,6,0,B|348:248,2,75,0|8|0,0:0|0:0|0:0,0:0:0:0:
113,302,108428,2,0,B|164:248,2,75,0|0|8,0:0|0:0|0:0,0:0:0:0:
256,200,108749,1,0,0:0:0:0:
288,128,108856,6,0,B|112:128,1,150,0|8,0:0|0:0,0:0:0:0:
224,48,109178,2,0,B|384:48,1,150
256,200,109499,1,8,0:0:0:0:
256,200,109606,1,0,0:0:0:0:
256,200,109714,5,0,0:0:0:0:
256,200,109821,1,0,0:0:0:0:
256,200,109928,1,8,0:0:0:0:
256,200,110035,1,0,0:0:0:0:
256,288,110142,2,0,B|80:288,1,150,0|8,0:0|0:0,0:0:0:0:
400,288,110464,5,0,0:0:0:0:
224,112,110571,6,0,B|128:112,1,75
80,112,110785,2,0,B|0:112,1,75
288,112,110999,2,0,B|384:112,1,75
432,112,111213,2,0,B|528:112,1,75
16,32,111428,2,0,B|96:32,1,75
160,32,111642,2,0,B|240:32,1,75
512,32,111856,2,0,B|416:32,1,75
368,32,112070,2,0,B|288:32,1,75
48,224,112285,6,0,B|48:144,1,75
48,224,112499,2,0,B|48:144,1,75
464,224,112714,2,0,B|464:144,1,75
464,224,112928,2,0,B|464:144,1,75
144,224,113142,2,0,B|144:120,1,75
144,224,113356,2,0,B|144:128,1,75
368,224,113571,2,0,B|368:144,1,75
368,224,113785,2,0,B|368:144,1,75
32,192,113999,6,0,B|144:80,1,150,0|8,0:0|0:0,0:0:0:0:
480,192,114321,2,0,B|368:80,1,150
80,32,114642,1,8,0:0:0:0:
464,32,114857,1,0,0:0:0:0:
0,32,115071,1,8,0:0:0:0:
160,112,115285,2,0,B|160:24,1,75
352,112,115499,2,0,B|352:12,1,75,8|0,0:0|0:0,0:0:0:0:
192,112,115714,6,0,B|192:28,1,75
384,112,115928,2,0,B|384:28,1,75,8|0,0:0|0:0,0:0:0:0:
224,112,116142,2,0,B|224:28,1,75
416,112,116357,2,0,B|416:28,1,75,8|0,0:0|0:0,0:0:0:0:
0,192,116571,6,0,B|160:192,1,150,0|8,0:0|0:0,0:0:0:0:
512,192,116892,2,0,B|362:192,1,150
256,192,117214,1,8,0:0:0:0:
112,272,117428,5,0,0:0:0:0:
208,272,117535,1,0,0:0:0:0:
112,272,117642,1,8,0:0:0:0:
208,272,117749,1,0,0:0:0:0:
112,272,117857,1,0,0:0:0:0:
208,272,117964,1,0,0:0:0:0:
112,272,118071,1,8,0:0:0:0:
208,272,118178,1,0,0:0:0:0:
304,272,118285,5,0,0:0:0:0:
400,272,118392,1,0,0:0:0:0:
304,272,118499,1,8,0:0:0:0:
400,272,118607,1,0,0:0:0:0:
304,272,118714,1,0,0:0:0:0:
400,272,118821,1,0,0:0:0:0:
304,272,118928,1,8,0:0:0:0:
400,272,119035,1,0,0:0:0:0:
304,192,119142,5,0,0:0:0:0:
400,192,119249,1,0,0:0:0:0:
304,192,119356,1,8,0:0:0:0:
400,192,119463,1,0,0:0:0:0:
304,192,119571,1,0,0:0:0:0:
400,192,119678,1,0,0:0:0:0:
304,192,119785,1,8,0:0:0:0:
400,192,119892,1,0,0:0:0:0:
112,192,119999,5,0,0:0:0:0:
208,192,120106,1,0,0:0:0:0:
112,192,120213,1,8,0:0:0:0:
208,192,120321,1,0,0:0:0:0:
112,192,120428,1,0,0:0:0:0:
208,192,120535,1,0,0:0:0:0:
112,192,120642,1,8,0:0:0:0:
208,192,120749,1,0,0:0:0:0:
512,288,120857,6,0,B|328:288,1,150,0|8,0:0|0:0,0:0:0:0:
352,288,121178,1,0,0:0:0:0:
0,288,121285,2,0,B|184:288,1,150,0|8,0:0|0:0,0:0:0:0:
160,288,121607,1,0,0:0:0:0:
432,192,121714,5,0,0:0:0:0:
80,192,121928,1,8,0:0:0:0:
432,192,122142,1,0,0:0:0:0:
80,192,122357,1,8,0:0:0:0:
304,192,122571,6,0,B|368:128,1,75
208,192,122785,2,0,B|144:128,1,75
432,192,122999,2,0,B|496:128,1,75
80,192,123214,2,0,B|8:120,1,75
480,64,123428,1,0,0:0:0:0:
400,64,123535,1,0,0:0:0:0:
32,64,123642,1,0,0:0:0:0:
112,64,123749,1,0,0:0:0:0:
256,176,123857,2,0,B|256:144,16,18.75
448,320,124499,5,8,0:0:0:0:
64,320,124714,1,0,0:0:0:0:
416,224,124821,2,0,B|328:224,1,75,0|8,0:0|0:0,0:0:0:0:
336,224,125035,1,0,0:0:0:0:
64,160,125142,6,0,B|0:96,1,75,0|0,0:0|0:0,0:0:0:0:
448,160,125357,2,0,B|504:101,1,75,8|0,0:0|0:0,0:0:0:0:
144,160,125571,2,0,B|80:96,1,75,0|0,0:0|0:0,0:0:0:0:
368,160,125785,2,0,B|424:104,1,75,8|0,0:0|0:0,0:0:0:0:
0,32,125999,6,0,B|112:144,1,150,4|8,0:0|0:0,0:0:0:0:
144,176,126321,1,0,0:0:0:0:
496,48,126428,2,0,B|432:112,1,75,0|0,0:0|0:0,0:0:0:0:
416,144,126642,5,8,0:0:0:0:
80,336,126749,2,0,B|80:160,1,150,4|0,0:0|0:0,0:0:0:0:
432,336,127071,2,0,B|430:178,1,150,8|0,0:0|0:0,0:0:0:0:
432,176,127392,1,0,0:0:0:0:
256,288,127499,2,0,B|256:192,1,75,8|0,0:0|0:0,0:0:0:0:
64,296,127714,5,4,0:0:0:0:
64,296,127821,1,0,0:0:0:0:
64,296,127928,2,0,B|64:208,1,75,8|0,0:0|0:0,0:0:0:0:
144,144,128142,2,0,B|64:144,2,75,0|0|8,0:0|0:0|0:0,0:0:0:0:
400,80,128464,6,0,B|512:192,1,150,4|0,0:0|0:0,0:0:0:0:
144,288,128785,2,0,B|219:288,1,75,8|0,0:0|0:0,0:0:0:0:
320,288,128999,5,0,0:0:0:0:
416,288,129107,1,0,0:0:0:0:
320,192,129214,2,0,B|224:192,1,75,8|0,0:0|0:0,0:0:0:0:
16,192,129428,6,0,B|176:192,1,150,4|8,0:0|0:0,0:0:0:0:
432,128,129749,2,0,B|352:128,1,75,0|0,0:0|0:0,0:0:0:0:
80,128,129964,2,0,B|160:128,1,75,0|8,0:0|0:0,0:0:0:0:
320,48,130178,6,0,B|400:176,1,150,4|0,0:0|0:0,0:0:0:0:
128,192,130499,2,0,B|80:336,1,150,8|0,0:0|0:0,0:0:0:0:
80,334,130821,1,0,0:0:0:0:
400,336,130928,2,0,B|480:336,1,75,8|0,0:0|0:0,0:0:0:0:
480,224,131142,6,0,B|480:144,1,75,4|0,0:0|0:0,0:0:0:0:
224,224,131357,2,0,B|224:144,1,75,8|0,0:0|0:0,0:0:0:0:
416,224,131571,2,0,B|416:144,1,75,4|0,0:0|0:0,0:0:0:0:
48,224,131785,1,8,0:0:0:0:
48,224,131892,2,0,B|144:80,1,150,0|0,0:0|0:0,0:0:0:0:
352,96,132214,1,8,0:0:0:0:
352,96,132321,1,0,0:0:0:0:
352,96,132428,2,0,B|448:96,1,75,0|0,0:0|0:0,0:0:0:0:
160,96,132642,2,0,B|72:96,1,75,8|0,0:0|0:0,0:0:0:0:
48,224,132857,5,4,0:0:0:0:
48,224,132964,1,0,0:0:0:0:
96,304,133071,2,0,B|192:304,1,75,8|0,0:0|0:0,0:0:0:0:
416,304,133285,2,0,B|320:304,1,75,0|0,0:0|0:0,0:0:0:0:
208,224,133499,2,0,B|288:224,2,75,8|0|0,0:0|0:0|0:0,0:0:0:0:
208,224,133821,1,0,0:0:0:0:
512,112,133928,2,0,B|512:272,1,150,12|0,0:0|0:0,0:0:0:0:
512,272,134249,1,0,0:0:0:0:
208,272,134357,1,8,0:0:0:0:
352,112,134571,6,0,B|452:112,1,75
160,112,134785,2,0,B|80:112,1,75
368,176,134999,2,0,B|464:176,1,82.5000025177003
144,176,135213,2,0,B|56:176,1,82.5000025177003
352,240,135428,6,0,B|448:240,1,89.9999972534181
160,240,135642,2,0,B|64:240,1,89.9999972534181,0|0,0:0|0:0,0:0:0:0:
368,240,135857,2,0,B|465:240,1,97.4999955368044
144,240,136071,2,0,B|24:240,1,97.4999955368044,0|0,0:0|0:0,0:0:0:0:
352,304,136285,6,0,B|496:304,1,104.999996795654
160,304,136499,2,0,B|32:304,1,104.999996795654,0|0,0:0|0:0,0:0:0:0:
368,304,136714,2,0,B|512:304,1,112.500004291535
144,304,136928,2,0,B|0:304,1,112.500004291535,0|0,0:0|0:0,0:0:0:0:
336,160,137142,6,0,B|464:160,1,120
176,160,137357,2,0,B|48:160,1,120
352,160,137571,2,0,B|512:160,1,127.50000243187
160,160,137786,2,0,B|-16:160,1,127.50000243187
256,48,137999,6,0,L|256:320,1,269.999991760254,0|8,0:0|0:0,0:0:0:0:
272,192,138321,1,0,0:0:0:0:
240,192,138428,1,0,0:0:0:0:
272,192,138536,1,0,0:0:0:0:
224,192,138643,1,8,0:0:0:0:
288,192,138750,1,0,0:0:0:0:
288,112,138857,6,0,B|288:36,1,75
96,112,139071,2,0,B|96:37,1,75,8|0,0:0|0:0,0:0:0:0:
32,176,139286,2,0,B|32:252,1,75,0|0,0:0|0:0,0:0:0:0:
352,176,139500,2,0,B|352:251,1,75,8|0,0:0|0:0,0:0:0:0:
64,208,139714,6,0,B|192:336,1,150,0|8,0:0|0:0,0:0:0:0:
448,208,140143,2,0,B|320:336,1,150,0|8,0:0|0:0,0:0:0:0:
128,112,140464,2,0,B|278:112,1,150
512,144,140786,5,8,0:0:0:0:
480,144,140893,1,0,0:0:0:0:
448,144,141000,1,0,0:0:0:0:
416,144,141107,1,0,0:0:0:0:
384,144,141214,1,8,0:0:0:0:
352,144,141321,1,0,0:0:0:0:
0,240,141428,6,0,B|176:240,1,150,0|8,0:0|0:0,0:0:0:0:
512,240,141750,2,0,B|352:240,1,150
48,320,142071,5,8,0:0:0:0:
64,320,142178,1,0,0:0:0:0:
464,320,142286,1,0,0:0:0:0:
448,320,142393,1,0,0:0:0:0:
96,320,142500,1,8,0:0:0:0:
112,320,142607,1,0,0:0:0:0:
416,320,142714,1,0,0:0:0:0:
400,320,142821,1,0,0:0:0:0:
144,320,142928,1,8,0:0:0:0:
368,320,143036,1,0,0:0:0:0:
160,224,143143,6,0,B|-16:224,1,150,0|8,0:0|0:0,0:0:0:0:
352,224,143465,2,0,B|528:224,1,150
48,96,143786,5,8,0:0:0:0:
64,96,143893,1,0,0:0:0:0:
464,96,143999,1,0,0:0:0:0:
448,96,144108,1,0,0:0:0:0:
96,96,144215,1,8,0:0:0:0:
112,96,144322,1,0,0:0:0:0:
416,96,144429,1,0,0:0:0:0:
400,96,144536,1,0,0:0:0:0:
144,96,144643,1,8,0:0:0:0:
368,96,144749,1,0,0:0:0:0:
304,96,144857,6,0,B|192:208,1,150,0|8,0:0|0:0,0:0:0:0:
160,224,145178,1,0,0:0:0:0:
112,224,145286,1,0,0:0:0:0:
64,224,145393,1,0,0:0:0:0:
16,224,145500,1,8,0:0:0:0:
64,288,145607,1,0,0:0:0:0:
112,288,145714,6,0,B|112:363,1,75
400,288,145928,2,0,B|400:372,1,75,8|0,0:0|0:0,0:0:0:0:
48,160,146143,2,0,B|48:76,1,75
464,160,146357,2,0,B|464:85,1,75,8|0,0:0|0:0,0:0:0:0:
48,80,146571,1,0,0:0:0:0:
48,240,146786,6,0,B|112:304,1,75,8|0,0:0|0:0,0:0:0:0:
464,240,147000,2,0,L|400:304,1,75
96,336,147214,1,8,0:0:0:0:
176,240,147428,5,0,0:0:0:0:
336,240,147571,1,0,0:0:0:0:
96,240,147714,1,0,0:0:0:0:
416,240,147857,1,0,0:0:0:0:
16,240,148000,1,0,0:0:0:0:
496,240,148143,1,0,0:0:0:0:
128,32,148285,6,0,B|128:180,1,150,0|0,0:0|0:0,0:0:0:0:
384,32,148607,2,0,B|384:180,1,150,0|0,0:0|0:0,0:0:0:0:
128,32,148928,2,0,B|128:184,1,150,0|0,0:0|0:0,0:0:0:0:
384,240,149249,6,0,B|512:368,1,150,0|0,0:0|0:0,0:0:0:0:
448,352,149571,1,0,0:0:0:0:
384,352,149678,1,0,0:0:0:0:
320,352,149785,1,0,0:0:0:0:
256,352,149892,1,0,0:0:0:0:
192,352,149999,6,0,B|80:240,1,150,0|0,0:0|0:0,0:0:0:0:
320,352,150321,2,0,B|432:240,1,150,0|0,0:0|0:0,0:0:0:0:
112,352,150642,2,0,B|0:240,1,150,0|0,0:0|0:0,0:0:0:0:
400,352,150963,6,0,B|508:240,1,150,0|0,0:0|0:0,0:0:0:0:
256,192,151285,1,0,0:0:0:0:
256,192,151392,1,0,0:0:0:0:
256,192,151499,1,0,0:0:0:0:
256,192,151606,1,0,0:0:0:0:
256,224,151928,5,0,0:0:0:0:
336,224,152142,1,8,0:0:0:0:
176,224,152357,1,0,0:0:0:0:
416,224,152571,1,0,0:0:0:0:
96,224,152786,1,0,0:0:0:0:
496,224,153000,1,8,0:0:0:0:
16,224,153214,1,0,0:0:0:0:
352,160,153428,5,0,0:0:0:0:
352,160,153536,1,0,0:0:0:0:
160,160,153643,1,0,0:0:0:0:
160,160,153750,1,0,0:0:0:0:
432,160,153857,1,0,0:0:0:0:
432,160,153964,1,0,0:0:0:0:
80,160,154071,1,0,0:0:0:0:
80,160,154178,1,0,0:0:0:0:
512,160,154286,1,0,0:0:0:0:
512,160,154393,1,0,0:0:0:0:
0,160,154500,1,0,0:0:0:0:
0,160,154607,1,0,0:0:0:0:
352,80,154714,1,0,0:0:0:0:
160,80,154821,1,0,0:0:0:0:
496,224,155143,5,0,0:0:0:0:
16,224,155357,1,0,0:0:0:0:
416,224,155571,1,8,0:0:0:0:
96,224,155786,1,0,0:0:0:0:
336,224,156000,1,0,0:0:0:0:
176,224,156214,1,0,0:0:0:0:
256,224,156428,1,8,0:0:0:0:
256,224,156643,1,0,0:0:0:0:
288,144,156857,6,0,L|352:80,1,75
224,144,157071,2,0,L|160:80,1,75
368,144,157286,2,0,L|432:80,1,75
144,144,157500,2,0,L|80:80,1,75
368,144,157714,2,0,L|432:80,1,75
64,144,157928,2,0,L|0:80,1,75
448,144,158143,2,0,L|512:80,1,75
512,224,158571,5,0,0:0:0:0:
288,224,158785,1,0,0:0:0:0:
512,224,159000,1,8,0:0:0:0:
192,224,159214,1,0,0:0:0:0:
512,224,159428,1,0,0:0:0:0:
96,224,159643,1,0,0:0:0:0:
512,224,159857,1,8,0:0:0:0:
0,224,160071,1,0,0:0:0:0:
320,96,160286,6,0,B|432:208,1,150,0|8,0:0|0:0,0:0:0:0:
476,260,160607,1,0,0:0:0:0:
32,160,160714,2,0,B|144:48,1,150,0|8,0:0|0:0,0:0:0:0:
176,16,161035,1,0,0:0:0:0:
256,192,161143,1,0,0:0:0:0:
256,192,161357,1,8,0:0:0:0:
256,192,161571,1,0,0:0:0:0:
256,192,161786,1,0,0:0:0:0:
96,320,162000,5,0,0:0:0:0:
336,320,162214,1,0,0:0:0:0:
176,320,162428,1,8,0:0:0:0:
416,320,162643,1,0,0:0:0:0:
416,320,162750,1,0,0:0:0:0:
256,320,162964,1,0,0:0:0:0:
256,320,163071,1,8,0:0:0:0:
496,320,163286,1,0,0:0:0:0:
16,320,163500,1,0,0:0:0:0:
508,224,163714,6,0,B|-16:224,1,510.000009727478,4|0,0:0|0:0,0:0:0:0:
160,48,164357,5,0,0:0:0:0:
352,48,164464,1,0,0:0:0:0:
352,112,164571,2,0,B|352:216,1,85,0|8,0:0|0:0,0:0:0:0:
160,112,164786,1,8,0:0:0:0:
352,112,164893,1,0,0:0:0:0:
256,0,165214,6,0,B|256:160,1,150,0|4,2:0|0:0,0:0:0:0:
224,224,165643,2,0,B|160:288,1,75,8|0,0:0|0:0,0:0:0:0:
288,224,165857,2,0,B|352:288,1,75
128,224,166072,2,0,B|64:288,1,75,8|0,0:0|0:0,0:0:0:0:
384,224,166286,5,0,0:0:0:0:
384,224,166393,1,0,0:0:0:0:
48,224,166500,1,8,0:0:0:0:
48,224,166607,1,0,0:0:0:0:
464,224,166714,1,0,0:0:0:0:
464,224,166821,1,0,0:0:0:0:
221,128,166928,2,0,B|296:128,1,75,8|0,0:0|0:0,0:0:0:0:
464,64,167143,6,0,B|368:64,1,75
64,64,167357,2,0,B|168:64,1,75,8|0,0:0|0:0,0:0:0:0:
304,208,167571,2,0,B|208:208,1,75
16,208,167786,2,0,B|120:208,1,75,8|0,0:0|0:0,0:0:0:0:
432,64,168000,6,0,P|400:128|448:192,1,150,0|8,0:0|0:0,0:0:0:0:
80,64,168321,2,0,P|112:128|64:192,1,150
32,272,168643,2,0,B|124:272,1,75,8|0,0:0|0:0,0:0:0:0:
400,272,168857,6,0,B|512:384,1,150,0|8,0:0|0:0,0:0:0:0:
512,384,169178,1,0,0:0:0:0:
112,272,169286,2,0,B|4:384,1,150,0|8,0:0|0:0,0:0:0:0:
352,192,169607,2,0,B|512:192,1,150
160,192,169928,2,0,B|0:192,1,150,8|0,0:0|0:0,0:0:0:0:
512,80,170250,1,0,0:0:0:0:
448,80,170357,1,8,0:0:0:0:
512,80,170464,1,0,0:0:0:0:
160,80,170571,5,0,0:0:0:0:
224,80,170678,1,0,0:0:0:0:
160,80,170786,1,8,0:0:0:0:
0,80,170893,1,0,0:0:0:0:
256,80,171000,2,0,B|256:244,1,150,0|8,0:0|0:0,0:0:0:0:
512,304,171321,2,0,B|352:304,1,150
0,304,171643,6,0,B|80:304,1,75,8|0,0:0|0:0,0:0:0:0:
512,304,171857,2,0,B|416:304,1,75
288,304,172071,2,0,B|208:304,1,75,8|0,0:0|0:0,0:0:0:0:
32,240,172286,6,0,B|32:64,1,150,0|8,0:0|0:0,0:0:0:0:
256,192,172607,1,0,0:0:0:0:
480,240,172714,2,0,L|480:144,2,75,0|0|8,0:0|0:0|0:0,0:0:0:0:
256,192,173036,1,0,0:0:0:0:
16,320,173143,5,0,0:0:0:0:
96,320,173250,1,0,0:0:0:0:
176,320,173357,1,8,0:0:0:0:
256,320,173464,1,0,0:0:0:0:
176,240,173571,1,0,0:0:0:0:
256,240,173678,1,0,0:0:0:0:
336,240,173786,1,8,0:0:0:0:
416,240,173893,1,0,0:0:0:0:
496,240,174000,1,0,0:0:0:0:
496,240,174107,1,0,0:0:0:0:
16,160,174214,5,8,0:0:0:0:
16,160,174321,1,0,0:0:0:0:
352,160,174429,1,0,0:0:0:0:
352,160,174536,1,0,0:0:0:0:
128,160,174643,1,8,0:0:0:0:
128,160,174750,1,0,0:0:0:0:
464,160,174857,6,0,B|464:12,1,150,0|8,0:0|0:0,0:0:0:0:
240,160,175178,2,0,B|240:10,1,150
240,240,175500,1,8,0:0:0:0:
240,240,175607,1,0,0:0:0:0:
336,304,175714,6,0,B|400:368,1,75
176,304,175928,2,0,B|112:368,1,75,8|0,0:0|0:0,0:0:0:0:
448,304,176143,2,0,B|512:368,1,75
64,304,176357,2,0,B|0:368,1,75,8|0,0:0|0:0,0:0:0:0:
64,304,176571,1,0,0:0:0:0:
112,82,176678,6,0,B|164:136,2,75,0|8|0,0:0|0:0|0:0,0:0:0:0:
399,82,177000,2,0,B|348:136,2,75,0|0|8,0:0|0:0|0:0,0:0:0:0:
256,184,177321,1,0,0:0:0:0:
224,256,177428,6,0,B|400:256,1,150,0|8,0:0|0:0,0:0:0:0:
288,336,177750,2,0,B|128:336,1,150
256,184,178071,1,8,0:0:0:0:
256,184,178178,1,0,0:0:0:0:
256,184,178286,5,0,0:0:0:0:
256,184,178393,1,0,0:0:0:0:
256,184,178500,1,8,0:0:0:0:
256,184,178607,5,0,0:0:0:0:
256,96,178714,2,0,B|432:96,1,150,0|8,0:0|0:0,0:0:0:0:
406,96,179035,1,0,0:0:0:0:
256,184,179142,1,4,0:0:0:0:
288,224,179357,2,0,B|352:288,1,75,8|0,0:0|0:0,0:0:0:0:
224,224,179571,2,0,B|160:288,1,75
384,224,179786,2,0,B|448:288,1,75,8|0,0:0|0:0,0:0:0:0:
128,224,180000,5,0,0:0:0:0:
128,224,180107,1,0,0:0:0:0:
464,224,180214,1,8,0:0:0:0:
464,224,180321,1,0,0:0:0:0:
48,224,180428,1,0,0:0:0:0:
48,224,180535,1,0,0:0:0:0:
291,128,180642,2,0,B|216:128,1,75,8|0,0:0|0:0,0:0:0:0:
48,64,180857,6,0,B|144:64,1,75
448,64,181071,2,0,B|344:64,1,75,8|0,0:0|0:0,0:0:0:0:
208,208,181285,2,0,B|304:208,1,75
496,208,181500,2,0,B|392:208,1,75,8|0,0:0|0:0,0:0:0:0:
80,64,181714,6,0,P|112:128|64:192,1,150,0|8,0:0|0:0,0:0:0:0:
432,64,182035,2,0,P|400:128|448:192,1,150
480,272,182357,2,0,B|388:272,1,75,8|0,0:0|0:0,0:0:0:0:
112,272,182571,6,0,B|0:384,1,150,0|8,0:0|0:0,0:0:0:0:
0,384,182892,1,0,0:0:0:0:
400,272,183000,2,0,B|508:384,1,150,0|8,0:0|0:0,0:0:0:0:
160,192,183321,2,0,B|0:192,1,150
352,192,183642,2,0,B|512:192,1,150,8|0,0:0|0:0,0:0:0:0:
0,80,183964,1,0,0:0:0:0:
64,80,184071,1,8,0:0:0:0:
0,80,184178,1,0,0:0:0:0:
352,80,184285,5,0,0:0:0:0:
288,80,184392,1,0,0:0:0:0:
352,80,184500,1,8,0:0:0:0:
512,80,184607,1,0,0:0:0:0:
256,80,184714,2,0,B|256:244,1,150,0|8,0:0|0:0,0:0:0:0:
0,304,185035,2,0,B|160:304,1,150
336,304,185357,5,8,0:0:0:0:
128,240,185464,1,0,0:0:0:0:
400,240,185571,1,0,0:0:0:0:
32,240,185678,1,0,0:0:0:0:
32,240,185785,2,0,B|32:160,1,75,8|0,0:0|0:0,0:0:0:0:
480,240,186000,6,0,B|480:64,1,150,0|8,0:0|0:0,0:0:0:0:
256,192,186321,1,0,0:0:0:0:
32,240,186428,2,0,L|32:144,2,75,0|0|8,0:0|0:0|0:0,0:0:0:0:
256,192,186750,1,0,0:0:0:0:
496,320,186857,5,0,0:0:0:0:
416,320,186964,1,0,0:0:0:0:
336,320,187071,1,8,0:0:0:0:
256,320,187178,1,0,0:0:0:0:
336,240,187285,1,0,0:0:0:0:
256,240,187392,1,0,0:0:0:0:
176,240,187500,1,8,0:0:0:0:
96,240,187607,1,0,0:0:0:0:
16,240,187714,1,0,0:0:0:0:
16,240,187821,1,0,0:0:0:0:
496,160,187928,5,8,0:0:0:0:
496,160,188035,1,0,0:0:0:0:
160,160,188143,1,0,0:0:0:0:
160,160,188250,1,0,0:0:0:0:
384,160,188357,1,8,0:0:0:0:
384,160,188464,1,0,0:0:0:0:
48,160,188571,6,0,B|48:12,1,150,0|8,0:0|0:0,0:0:0:0:
272,160,188892,2,0,B|272:10,1,150
272,240,189214,1,8,0:0:0:0:
272,240,189321,1,0,0:0:0:0:
176,304,189428,6,0,B|112:368,1,75
336,304,189642,2,0,B|400:368,1,75,8|0,0:0|0:0,0:0:0:0:
64,304,189857,2,0,B|0:368,1,75
448,304,190071,2,0,B|512:368,1,75,8|0,0:0|0:0,0:0:0:0:
448,304,190285,1,0,0:0:0:0:
400,82,190392,6,0,B|348:136,2,75,0|8|0,0:0|0:0|0:0,0:0:0:0:
113,82,190714,2,0,B|164:136,2,75,0|0|8,0:0|0:0|0:0,0:0:0:0:
256,184,191035,1,0,0:0:0:0:
288,256,191142,6,0,B|112:256,1,150,0|8,0:0|0:0,0:0:0:0:
224,336,191464,2,0,B|384:336,1,150
256,184,191785,1,8,0:0:0:0:
256,176,191892,1,0,0:0:0:0:
256,176,192000,5,0,0:0:0:0:
80,176,192107,1,0,0:0:0:0:
352,176,192214,1,8,0:0:0:0:
16,176,192321,5,0,0:0:0:0:
400,96,192428,2,0,B|224:96,1,150,0|8,0:0|0:0,0:0:0:0:
176,96,192749,1,0,0:0:0:0:
256,192,192857,6,0,B|160:192,1,75
0,192,193071,2,0,B|100:192,1,75,8|0,0:0|0:0,0:0:0:0:
80,112,193285,2,0,B|192:0,1,150,0|8,0:0|0:0,0:0:0:0:
432,112,193607,2,0,B|320:0,1,150
256,192,193928,6,0,B|256:88,1,75,8|0,0:0|0:0,0:0:0:0:
192,192,194142,2,0,B|192:296,1,75,0|0,0:0|0:0,0:0:0:0:
320,192,194357,2,0,L|320:112,1,75,8|0,0:0|0:0,0:0:0:0:
128,192,194571,2,0,L|128:272,1,75
384,192,194785,2,0,L|384:112,1,75,8|0,0:0|0:0,0:0:0:0:
64,192,194999,2,0,B|64:12,1,150,0|8,0:0|0:0,0:0:0:0:
448,192,195321,2,0,B|448:372,1,150
64,272,195642,6,0,B|160:272,1,75,8|0,0:0|0:0,0:0:0:0:
448,112,195857,2,0,B|352:112,1,75
64,112,196071,2,0,B|144:112,1,75,8|0,0:0|0:0,0:0:0:0:
448,272,196285,5,0,0:0:0:0:
416,272,196392,1,0,0:0:0:0:
384,272,196499,1,8,0:0:0:0:
352,272,196607,1,0,0:0:0:0:
320,272,196714,2,0,B|208:384,1,150,0|8,0:0|0:0,0:0:0:0:
0,192,197035,2,0,B|112:80,1,150
448,112,197357,6,0,L|512:64,1,75,8|0,0:0|0:0,0:0:0:0:
64,112,197571,2,0,L|0:48,1,75
448,192,197785,2,0,L|512:256,1,75,8|0,0:0|0:0,0:0:0:0:
64,336,197999,5,0,0:0:0:0:
96,336,198107,1,0,0:0:0:0:
128,336,198214,1,8,0:0:0:0:
160,336,198321,1,0,0:0:0:0:
192,336,198428,2,0,B|304:224,1,150,0|8,0:0|0:0,0:0:0:0:
512,256,198749,2,0,B|384:128,1,150
0,160,199071,6,0,B|64:80,1,75,8|0,0:0|0:0,0:0:0:0:
256,160,199285,2,0,B|256:52,1,75,0|0,0:0|0:0,0:0:0:0:
512,160,199499,2,0,B|448:80,1,75,8|0,0:0|0:0,0:0:0:0:
240,160,199714,6,0,B|176:96,1,75
272,160,199928,2,0,B|336:96,1,75,8|0,0:0|0:0,0:0:0:0:
64,192,200142,2,0,B|176:304,1,150,0|8,0:0|0:0,0:0:0:0:
448,192,200464,2,0,B|336:304,1,150
128,80,200785,6,0,B|24:80,1,75,8|0,0:0|0:0,0:0:0:0:
384,80,200999,2,0,B|472:80,1,75,0|0,0:0|0:0,0:0:0:0:
80,160,201214,2,0,B|160:160,1,75,8|0,0:0|0:0,0:0:0:0:
432,272,201428,5,0,0:0:0:0:
400,272,201535,1,0,0:0:0:0:
368,272,201642,1,8,0:0:0:0:
336,272,201749,1,0,0:0:0:0:
304,272,201857,2,0,B|192:160,1,150,0|8,0:0|0:0,0:0:0:0:
512,224,202178,2,0,B|384:96,1,150
400,48,202499,6,0,B|304:48,1,75,8|0,0:0|0:0,0:0:0:0:
80,48,202713,2,0,B|5:48,1,75,0|0,0:0|0:0,0:0:0:0:
208,128,202928,2,0,B|312:128,1,75,8|0,0:0|0:0,0:0:0:0:
32,304,203142,5,0,0:0:0:0:
48,304,203249,1,0,0:0:0:0:
64,304,203357,1,8,0:0:0:0:
80,304,203464,1,0,0:0:0:0:
432,304,203571,2,0,B|432:124,1,150,0|8,0:0|0:0,0:0:0:0:
80,304,203892,2,0,B|80:154,1,150
416,128,204214,6,0,B|336:128,1,75,8|0,0:0|0:0,0:0:0:0:
96,128,204428,2,0,B|176:128,1,75
448,208,204642,2,0,B|364:208,1,75,8|0,0:0|0:0,0:0:0:0:
64,208,204857,2,0,B|148:208,1,75
320,208,205071,1,8,0:0:0:0:
192,208,205178,1,0,0:0:0:0:
368,208,205285,2,0,B|368:36,1,150,0|8,0:0|0:0,0:0:0:0:
160,208,205607,2,0,B|160:58,1,150
400,288,205928,6,0,L|528:288,1,112.500004291535,8|0,0:0|0:0,0:0:0:0:
112,288,206142,2,0,L|-16:288,1,112.500004291535
400,208,206357,2,0,L|512:208,1,112.500004291535,8|0,0:0|0:0,0:0:0:0:
0,208,206571,1,4,0:0:0:0:
256,192,206624,12,0,208178,0:0:0:0:
256,192,208232,5,0,0:0:0:0:
256,192,208285,1,0,0:0:0:0:
