osu file format v5

[General]
AudioFilename: Hatsune Miku - This is Sparta.mp3
AudioLeadIn: 1996
PreviewTime: -1
Countdown: 0
SampleSet: Normal
StackLeniency: 0.7
Mode: 0

[Metadata]
Title:THIS IS SPARTAAA!!!
Artist:Hatsune Miku
Creator:James
Version:Normal
Source:
Tags:

[Difficulty]
HPDrainRate:5
CircleSize:4
OverallDifficulty:5
SliderMultiplier:1.6
SliderTickRate:4

[Events]
//Background and Video events
0,0,"miku300fo1.png"
//Break Periods
//Storyboard Layer 0 (Background)
//Storyboard Layer 1 (Failing)
//Storyboard Layer 2 (Passing)
//Storyboard Layer 3 (Foreground)
//Storyboard Sound Samples
//Background Colour Transformations
3,100,163,162,255

[TimingPoints]
3830,428.571428571429,4,1,0,100

[HitObjects]
256,192,401,12,0,3401
96,48,3830,2,2,B|296:48,1,160
384,48,4687,2,2,B|384:216,1,160
384,336,5544,2,2,B|208:336,1,160
96,336,6401,2,2,B|96:152,1,160
96,48,7258,1,0
224,48,7687,1,2
352,48,8115,1,0
224,48,8544,1,2
352,48,8972,1,0
352,176,9401,1,2
352,304,9829,1,2
352,304,10258,1,2
256,192,10687,12,0,11972
256,192,12401,12,0,13687
256,192,14115,12,0,15401
256,192,15829,12,0,17115
64,192,17544,1,0
192,192,17972,1,0
320,192,18401,1,4
448,192,18830,1,4
448,192,19258,1,0
320,192,19687,1,0
192,192,20115,1,4
64,192,20544,1,4
144,288,20972,6,0,B|248:288,3,80
264,240,21830,2,2,B|368:240,3,80
392,280,22687,2,0,B|392:176,3,80
440,160,23544,2,2,B|440:56,3,80
384,56,24401,2,0,B|296:56,2,80
384,120,25044,2,0,B|280:120,2,80
384,184,25687,2,0,B|280:184,2,80
384,248,26330,2,0,B|280:248,2,80
384,312,26972,2,2,B|280:312,4,80
104,168,28687,5,0
320,40,29544,1,0
344,248,30401,1,2
464,144,31258,1,0
288,312,32115,1,0
144,176,32972,1,0
328,128,33830,1,2
64,72,34687,6,2,B|424:72,1,320
456,192,36401,2,2,B|128:192,1,320
48,320,38115,2,2,B|392:320,1,320
256,192,39830,12,4,41115
56,64,41544,2,2,B|160:64,1,80
184,104,41972,2,2,B|184:200,1,80
232,232,42401,2,2,B|344:232,1,80
360,272,42830,2,2,B|360:360,1,80
312,312,43258,2,2,B|248:256,1,80
200,216,43687,2,2,B|128:144,1,80
96,112,44115,2,2,B|208:112,1,80
240,112,44544,2,2,B|336:112,2,80
128,176,45401,5,2
232,256,45829,1,0
120,320,46258,1,2
232,256,46687,1,0
344,200,47115,1,2
456,264,47544,1,0
352,336,47972,1,2
240,272,48401,6,0,B|64:264,1,160
88,136,49258,2,0,B|264:144,1,160
256,16,50115,2,2,B|72:8,3,160
128,136,51829,5,0
128,136,52044,1,2
128,136,52258,1,0
128,136,52472,1,2
224,216,52901,1,2
224,216,53115,1,0
224,216,53329,1,2
352,192,53758,1,2
352,192,53972,1,0
352,192,54187,1,2
280,88,54615,1,2
280,88,54829,1,0
280,88,55044,1,2
256,192,55258,12,0,58258
