osu file format v5

[General]
AudioFilename: Hatsune Miku - This is Sparta.mp3
AudioLeadIn: 1996
PreviewTime: -1
Countdown: 0
SampleSet: Normal
StackLeniency: 0.7
Mode: 0

[Metadata]
Title:THIS IS SPARTAAA!!!
Artist:Hatsune Miku
Creator:James
Version:Insane
Source:
Tags:

[Difficulty]
HPDrainRate:5
CircleSize:5
OverallDifficulty:8
SliderMultiplier:2.6
SliderTickRate:2

[Events]
//Background and Video events
0,0,"miku300fo1.png"
//Break Periods
//Storyboard Layer 0 (Background)
//Storyboard Layer 1 (Failing)
//Storyboard Layer 2 (Passing)
//Storyboard Layer 3 (Foreground)
//Storyboard Sound Samples
//Background Colour Transformations
3,100,163,162,255

[TimingPoints]
3830,428.571428571429,4,1,0,100

[HitObjects]
256,192,79,12,0,401
256,192,1258,1,0
144,40,2115,1,4
256,192,2222,12,4,2544
256,192,2651,12,4,2972
256,192,3080,12,4,3401
56,80,3830,1,2
56,80,3937,1,0
176,40,4151,1,0
176,40,4258,1,2
256,136,4472,1,0
256,184,4580,1,0
256,232,4687,1,2
256,280,4794,1,0
376,320,5008,1,0
376,320,5115,1,2
464,224,5330,5,0
416,224,5437,1,0
368,224,5544,1,2
320,224,5651,1,0
192,224,5865,1,0
192,224,5972,1,2
104,120,6187,5,0
104,168,6294,1,0
104,216,6401,1,2
104,264,6508,1,0
200,312,6722,1,0
200,312,6829,1,2
320,256,7044,6,0,B|384:328,3,65
416,184,7579,2,2,B|416:104,1,65
296,168,7901,2,0,B|200:168,3,65
96,168,8437,2,2,B|176:168,1,65
104,48,8758,6,0,B|144:128,3,65
176,232,9294,2,2,B|256:232,1,65
160,336,9615,2,0,B|80:376,3,65
32,256,10151,2,2,B|32:168,1,65
32,64,10472,5,0
32,64,10579,5,0
32,64,10687,5,0
256,192,10794,12,4,11115
256,192,11222,12,4,11544
256,192,11651,12,4,11972
256,192,12079,12,4,12401
256,192,12508,12,4,12829
256,192,12937,12,4,13258
256,192,13365,12,4,13687
256,32,14115,5,0
256,352,14544,1,0
32,192,14972,1,2
480,192,15401,1,2
472,40,15829,1,0
40,40,16258,1,0
40,344,16687,1,2
472,344,17115,1,2
256,192,17222,12,0,17544
56,48,17972,1,2
256,192,18079,12,0,18401
448,336,18830,1,2
256,192,18937,12,0,19258
32,360,19687,1,2
256,192,19794,12,2,20115
448,32,20544,1,2
184,32,20972,5,0
120,72,21187,1,2
184,112,21401,1,0
120,152,21615,1,2
120,232,21830,1,0
184,192,22044,1,2
184,272,22258,1,0
120,312,22472,5,2
168,320,22580,1,0
216,328,22687,1,0
264,336,22794,1,0
360,296,23008,1,2
360,344,23115,1,2
448,296,23330,1,2
448,248,23437,1,0
448,200,23544,1,0
448,152,23651,1,0
376,72,23865,1,2
328,72,23972,1,2
224,72,24187,6,0,B|224:216,1,130
120,208,24615,2,0,B|40:320,1,130
144,312,25044,2,0,B|296:312,1,130
360,248,25472,2,0,B|360:96,1,130
272,64,25901,2,0,B|168:168,1,130
72,152,26330,2,0,B|72:304,1,130
176,280,26758,2,0,B|288:208,1,130
376,160,27187,2,2,B|440:312,2,130
336,64,27830,5,0
304,64,27937,1,0
272,64,28044,1,0
240,64,28151,1,0
208,64,28258,1,0
176,64,28365,1,0
144,64,28472,1,0
112,64,28580,5,0
112,96,28687,1,0
112,128,28794,1,0
112,160,28901,1,0
112,192,29008,1,0
112,224,29115,1,0
112,256,29222,1,0
112,288,29330,1,0
112,320,29437,5,0
136,304,29544,1,0
160,288,29651,1,0
184,272,29758,1,0
208,256,29865,1,0
232,240,29972,1,0
256,224,30080,1,0
280,208,30187,1,0
304,192,30294,1,0
336,176,30401,5,0
344,208,30508,1,0
352,240,30615,1,0
360,272,30722,1,0
368,304,30830,1,0
376,336,30937,1,0
384,368,31044,1,0
352,368,31151,5,0
320,360,31258,1,0
288,352,31365,1,0
256,344,31472,1,0
224,336,31580,1,0
192,328,31687,1,0
160,320,31794,1,0
128,312,31901,1,0
96,296,32008,5,0
120,272,32115,1,0
144,248,32222,1,0
168,224,32330,1,0
192,200,32437,1,0
216,176,32544,1,0
240,152,32651,1,0
264,128,32758,1,0
288,104,32865,1,0
312,80,32972,5,0
336,104,33080,1,0
360,128,33187,1,0
384,152,33294,1,0
408,176,33401,1,0
432,200,33508,1,0
456,224,33615,1,0
480,248,33722,1,0
504,272,33830,1,0
472,264,33937,5,0
440,256,34044,1,0
408,248,34151,1,0
376,240,34258,1,0
344,232,34365,1,0
312,224,34472,1,0
256,288,34687,6,0,B|256:376,2,65
160,192,35115,2,0,B|72:192,2,65
256,96,35544,2,0,B|256:8,2,65
352,192,35972,2,0,B|440:192,2,65
176,112,36401,2,0,B|120:64,2,65
176,272,36830,2,0,B|128:328,2,65
336,272,37258,2,0,B|392:320,2,65
336,112,37687,2,0,B|384:56,2,65
472,192,38115,6,0,B|416:136,1,65
392,192,38330,1,0
288,192,38544,6,0,B|200:192,1,65
176,192,38758,1,0
40,192,38972,6,0,B|64:280,1,65
104,272,39187,1,0
256,192,39401,12,0,39830
256,192,39937,12,0,40258
256,192,40365,12,0,40687
256,192,40794,12,0,41115
32,192,41544,1,0
96,192,41758,1,2
160,192,41972,1,0
224,192,42187,1,2
288,192,42401,1,0
352,192,42615,1,2
416,192,42830,1,0
480,192,43044,1,2
256,192,43258,12,0,43472
256,192,43687,12,2,43901
256,192,44115,12,2,44329
256,192,44544,12,2,44758
448,72,44972,1,2
448,72,45079,1,2
336,144,45294,1,2
336,144,45401,1,2
224,80,45615,1,0
224,128,45722,1,0
224,176,45829,1,2
224,224,45937,1,0
120,296,46151,1,2
120,296,46258,1,2
248,296,46472,5,0
296,296,46579,1,0
344,296,46687,1,2
392,296,46794,1,0
464,224,47008,1,2
464,224,47115,1,2
384,152,47329,1,0
336,152,47437,1,0
288,152,47544,1,2
240,152,47651,1,0
136,152,47865,1,2
136,152,47972,1,2
256,192,48079,12,0,48401
200,56,48615,1,2
256,192,48722,12,2,49044
200,56,49258,1,0
200,56,49472,1,2
256,192,49579,12,2,49901
440,200,50115,1,0
440,200,50329,1,2
256,192,50437,12,2,50758
72,248,50972,1,0
72,248,51187,1,2
256,192,51294,12,0,51615
448,40,51829,2,0,B|312:40,1,130
248,120,52258,2,2,B|408:120,1,130
448,200,52687,2,0,B|280:200,1,130
248,280,53115,2,2,B|72:280,1,130
48,200,53544,2,0,B|48:64,1,130
136,16,53972,2,2,B|136:168,1,130
224,200,54401,2,2,B|376:200,3,130
256,192,55151,12,0,55472
256,192,56008,12,0,56329
144,40,56972,1,0
256,192,57079,12,0,57401
256,192,57508,12,0,57829
256,192,57937,12,0,58258
