osu file format v5

[General]
AudioFilename: Hatsune Miku - This is Sparta.mp3
AudioLeadIn: 1996
PreviewTime: -1
Countdown: 0
SampleSet: Normal
StackLeniency: 0.7
Mode: 0

[Metadata]
Title:THIS IS SPARTAAA!!!
Artist:Hatsune Miku
Creator:James
Version:Hard
Source:
Tags:

[Difficulty]
HPDrainRate:7
CircleSize:5
OverallDifficulty:7
SliderMultiplier:1.6
SliderTickRate:2

[Events]
//Background and Video events
0,0,"miku300fo1.png"
//Break Periods
//Storyboard Layer 0 (Background)
//Storyboard Layer 1 (Failing)
//Storyboard Layer 2 (Passing)
//Storyboard Layer 3 (Foreground)
//Storyboard Sound Samples
//Background Colour Transformations
3,100,163,162,255

[TimingPoints]
3830,428.571428571429,4,1,0,100

[HitObjects]
256,192,401,12,0,3401
456,88,3830,1,0
456,88,3937,1,2
376,88,4151,1,0
376,88,4258,1,2
296,88,4472,2,0,B|136:88,1,120
96,88,5008,1,0
96,88,5115,1,2
104,168,5330,6,0,B|104:216|232:160,1,120
280,136,5865,1,0
280,136,5972,1,2
360,112,6187,2,0,B|480:92|464:136,1,120
440,208,6722,1,0
440,208,6829,1,2
392,272,7044,6,0,B|336:344|296:336,1,120
216,336,7579,1,0
216,336,7687,1,2
216,256,7901,2,0,B|216:104,1,120
216,56,8437,1,0
216,56,8544,1,2
288,80,8758,6,0,B|368:104|376:160,1,120
408,224,9294,1,0
408,224,9401,1,2
328,224,9615,2,0,B|200:224,1,120
128,224,10151,1,0
128,224,10258,1,2
128,224,10472,5,0
128,224,10579,1,0
256,192,10687,12,4,11544
256,192,11651,12,4,11972
256,192,12401,12,4,13258
256,192,13365,12,4,13687
256,192,14115,12,4,14972
256,192,15079,12,4,15401
256,192,15829,12,4,16687
256,192,16794,12,4,17115
256,192,17544,5,0
256,32,17972,1,0
256,192,18401,1,4
96,192,18830,1,4
256,192,19258,1,0
256,352,19687,1,0
256,192,20115,1,4
416,192,20544,1,4
312,72,20972,6,0,B|200:72,1,80
160,104,21401,2,0,B|128:200,1,80
104,256,21830,2,2,B|208:256,1,80
264,256,22258,2,2,B|264:352,1,80
344,312,22687,2,0,B|424:288,1,80
464,224,23115,2,0,B|472:120,1,80
424,72,23544,2,2,B|312:72,3,80
264,80,24401,6,0,B|152:112|152:184,1,160
312,176,25258,2,0,B|376:232|320:360,1,160
176,312,26115,2,0,B|88:336|24:256,1,160
128,136,26972,2,2,B|192:64|280:64,1,160
256,192,27830,12,0,28687
256,192,29544,12,0,30401
256,192,31258,12,0,32115
256,192,32972,12,0,33830
104,128,34687,1,0
104,128,34794,1,0
104,128,34901,1,2
160,184,35115,1,0
160,184,35222,1,0
160,184,35330,1,2
224,136,35544,1,0
224,136,35651,1,0
224,136,35758,1,2
288,176,35972,1,0
288,176,36080,1,0
288,176,36187,1,2
352,136,36401,5,0
352,136,36508,1,0
352,136,36615,1,2
408,184,36830,1,0
408,184,36937,1,0
408,184,37044,1,2
424,264,37258,1,0
424,264,37365,1,0
424,264,37472,1,2
384,328,37687,1,0
384,328,37794,1,0
384,328,37901,1,2
304,312,38115,6,0,B|160:200,1,160
272,88,38972,2,0,B|408:200,1,160
232,192,39830,2,2,B|56:192,1,160
72,352,40687,2,2,B|272:352,1,160
392,344,41544,5,0
448,280,41758,1,2
376,240,41972,1,0
432,184,42187,1,2
368,128,42401,1,0
424,72,42615,1,2
352,32,42830,1,0
296,88,43044,1,2
224,48,43258,5,0
184,120,43472,1,2
256,152,43687,1,0
216,224,43901,1,2
136,200,44115,1,0
104,272,44329,1,2
168,312,44544,1,2
96,352,44758,1,2
96,352,44972,5,0
256,328,45401,1,2
360,208,45829,1,0
400,48,46258,1,2
240,80,46687,1,0
136,200,47115,1,2
72,344,47544,2,2,B|264:344,1,160
440,272,48401,6,0,B|448:160,1,80
400,144,48829,1,2
344,176,49044,2,0,B|248:160,1,80
232,104,49472,1,2
184,144,49687,2,0,B|192:240,1,80
144,264,50115,1,2
176,320,50329,2,0,B|296:320,1,80
312,288,50758,1,2
368,248,50972,2,2,B|472:240,3,80
448,160,51829,5,0
320,64,52258,1,2
200,168,52687,1,0
80,280,53115,1,2
232,336,53544,2,0,B|320:288,1,80
368,256,53972,2,2,B|368:160,1,80
304,128,54401,2,2,B|208:128,1,80
160,80,54829,2,2,B|248:0,1,80
256,192,55258,12,0,56972
256,192,57079,12,0,57401
256,192,57508,12,0,57829
256,192,57937,12,0,58258
