osu file format v5

[General]
AudioFilename: Hatsune Miku - This is Sparta.mp3
AudioLeadIn: 1996
PreviewTime: -1
Countdown: 0
SampleSet: Normal
StackLeniency: 0.7
Mode: 0
EditorBookmarks: 24421

[Metadata]
Title:THIS IS SPARTAAA!!!
Artist:Hatsune Miku
Creator:James
Version:Easy
Source:
Tags:

[Difficulty]
HPDrainRate:2
CircleSize:3
OverallDifficulty:3
SliderMultiplier:1.6
SliderTickRate:1

[Events]
//Background and Video events
0,0,"miku300fo1.png"
//Break Periods
//Storyboard Layer 0 (Background)
//Storyboard Layer 1 (Failing)
//Storyboard Layer 2 (Passing)
//Storyboard Layer 3 (Foreground)
//Storyboard Sound Samples
//Background Colour Transformations
3,100,163,162,255

[TimingPoints]
3830,428.571428571429,4,1,0,100

[HitObjects]
96,112,3830,1,0
144,320,4687,1,0
360,312,5544,1,0
408,128,6401,1,0
104,104,7258,1,0
280,272,8115,1,0
392,96,8972,1,0
80,104,9829,1,0
88,336,10687,5,0
176,248,11115,1,0
272,160,11544,1,4
360,72,11972,1,4
480,32,12401,5,0
392,120,12829,1,0
296,208,13258,1,0
208,304,13687,1,0
80,272,14115,6,0,B|88:96,1,160
216,112,14972,2,4,B|208:296,1,160
336,280,15829,2,0,B|344:88,1,160
472,112,16687,2,4,B|464:312,1,160
336,272,17544,2,2,B|168:272,3,160
184,144,19258,2,2,B|376:144,3,160
440,56,20972,6,2,B|96:56,1,320
120,56,22258,1,0
24,144,22687,2,2,B|368:144,1,320
344,144,23972,1,0
432,232,24401,2,2,B|88:232,1,320
112,232,25687,1,0
24,328,26115,2,2,B|368:328,1,320
344,328,27401,1,0
256,192,27830,12,0,30401
256,192,31258,12,0,33830
80,96,34687,2,0,B|256:96,1,160
368,96,35544,2,0,B|368:264,1,160
240,256,36401,2,2,B|56:256,3,160
80,128,38115,2,0,B|256:128,1,160
368,128,38972,2,0,B|368:304,1,160
240,288,39830,2,2,B|240:112,3,160
128,64,41544,5,0
64,176,41972,1,2
192,176,42401,1,0
128,288,42830,1,2
240,344,43258,1,0
240,216,43687,1,2
344,288,44115,1,2
344,160,44544,1,2
456,216,44972,5,0
456,88,45401,1,2
344,160,45829,1,0
344,32,46258,1,2
232,88,46687,1,0
128,160,47115,1,2
128,32,47544,1,2
16,88,47972,1,2
144,88,48401,5,0
272,88,48829,1,2
400,88,49258,1,0
328,192,49687,1,2
328,320,50115,1,0
440,264,50544,1,2
312,264,50972,1,2
184,264,51401,1,2
80,192,51829,6,2,B|144:112,3,80
192,136,52687,2,2,B|288:152,3,80
328,168,53544,2,2,B|344:64,3,80
400,96,54401,2,2,B|488:152,3,80
256,192,55258,12,0,58258
