osu file format v9

[General]
AudioFilename: Symphony.mp3
AudioLeadIn: 0
PreviewTime: 53242
Countdown: 0
SampleSet: Soft
StackLeniency: 0.4
Mode: 0
LetterboxInBreaks: 1

[Editor]
Bookmarks: 11999,25714,39428,53142,66857,77142,90857,105428,108857,119142,129428,143142,156856
DistanceSpacing: 1
BeatDivisor: 2
GridSize: 4

[Metadata]
Title:Symphony
Artist:Hatsune Miku
Creator:Disoy
Version:impossiblexu
Source:buzzG
Tags:impossiblexu karenying vocaloid vocaloid2

[Difficulty]
HPDrainRate:2
CircleSize:3
OverallDifficulty:2
ApproachRate:2
SliderMultiplier:0.799999999999999
SliderTickRate:1

[Events]
//Background and Video events
Video,0,"Symphony.flv"
0,0,"BG.jpg"
//Break Periods
2,79057,89297
//Storyboard Layer 0 (Background)
//Storyboard Layer 1 (Fail)
//Storyboard Layer 2 (Pass)
//Storyboard Layer 3 (Foreground)
//Storyboard Sound Samples
//Background Colour Transformations
3,100,163,162,255

[TimingPoints]
12000,428.571428571429,4,2,1,70,1,0
25500,-133.333333333333,4,2,1,40,0,0
49500,-113.636363636364,4,1,0,55,0,0
52928,-100,4,2,1,75,0,0
53142,-100,4,1,1,80,0,1
77142,-100,4,1,1,80,0,0
78857,-100,4,2,1,0,0,0
90428,-100,4,2,1,75,0,0
104357,-100,4,1,1,50,0,0
108642,-100,4,2,1,60,0,0
108856,-100,4,1,1,90,0,1
129428,-100,4,2,1,60,0,0
135856,-100,4,2,1,70,0,0
142928,-100,4,2,1,50,0,0
156642,-100,4,1,1,40,0,0

[Colours]
Combo1 : 255,150,0
Combo2 : 7,193,248
Combo3 : 71,10,235
Combo4 : 240,81,4

[HitObjects]
221,159,11999,2,0,B|238:225|182:275,2,120,4|0|0
293,163,13714,2,0,B|276:97|332:47,2,120,2|0|0
346,210,15428,6,0,B|403:205|403:205|410:213|410:213|469:209,2,120,2|0|0
310,272,17142,1,2
243,244,17571,1,0
200,302,18000,2,0,B|161:286|157:311|116:293,1,79.9999999999999
82,235,18857,6,0,B|89:172|22:131,2,120,2|0|0
148,207,20571,2,0,B|183:152|255:172,2,120,2|0|0
217,238,22285,6,0,B|236:291|236:291|307:287,2,120,2|0|0
287,223,24000,2,0,B|322:192|304:142,1,79.9999999999999,2|0
378,151,24857,2,0,B|368:111|408:82,1,79.9999999999999,2|0
449,141,25714,6,0,B|493:189|469:254,2,119.999996423721,4|2|0
355,215,28285,1,2
264,136,29142,6,0,B|217:182|140:147,1,119.999996423721,0|2
103,187,30428,1,0
131,240,30857,2,0,B|77:272|99:352,1,119.999996423721,0|2
214,319,32571,5,0
328,284,33428,1,2
226,220,34285,1,0
340,184,35142,1,2
242,113,36000,6,0,B|214:69|239:23,2,89.999997317791,0|2|0
297,66,37714,2,0,B|350:59|350:59|354:67|354:67|421:59,1,119.999996423721,0|2
463,89,39000,1,0
450,147,39428,6,0,B|390:187|434:260,1,119.999996423721,4|2
351,343,41142,1,0
244,287,42000,1,2
300,181,42857,6,0,B|254:156|234:183|183:152,2,119.999996423721,0|2|0
252,70,45428,1,2
142,119,46285,6,0,B|23:146,1,119.999996423721,0|2
2,201,47571,1,0
51,235,48000,2,0,B|69:361,1,119.999996423721,0|2
126,368,49285,1,0
173,331,49714,6,0,B|294:326,2,105.60000100708,4|0|0
123,281,51428,2,0,B|138:244|105:208,1,70.4000006713866,4|0
126,146,52285,1,0
195,137,52714,1,0
230,197,53142,6,0,B|252:231|301:214,1,79.9999999999999,4|8
378,191,54000,2,0,B|420:174|454:199,1,79.9999999999999,0|8
409,265,54857,2,0,B|372:340|271:321,1,160
194,305,56142,1,8
176,226,56571,6,0,B|127:232|112:191,1,79.9999999999999,4|8
134,114,57428,2,0,B|98:85|121:37,1,79.9999999999999,0|8
196,23,58285,2,0,B|275:7|269:48|363:30,1,160
423,71,59571,1,8
385,142,60000,6,0,B|423:216,2,79.9999999999999,4|8|0
332,204,61285,1,8
263,161,61714,2,0,B|209:223|96:184,1,160
40,219,63000,1,8
99,272,63428,6,0,B|74:312|74:312|84:329|84:329|56:379,2,120,4|0|8
166,315,65142,2,0,B|195:346|243:325,1,79.9999999999999,0|8
213,250,66000,1,0
247,178,66428,1,8
317,215,66857,6,0,B|359:229|399:196|413:136|366:102,1,160,4|0
301,136,68142,1,8
247,76,68571,2,0,B|171:65|176:106|82:87,1,160
25,136,69857,1,8
75,197,70285,6,0,B|37:224|58:273,2,79.9999999999999,4|8|0
133,251,71571,1,8
199,205,72000,2,0,B|274:265|362:212,1,160
415,175,73285,1,8
362,114,73714,6,0,B|278:158|211:95,1,160,4|0
134,88,75000,1,8
115,165,75428,2,0,B|31:206|68:312,1,160,4|0
125,351,76714,1,8
256,192,77142,12,0,78857
107,71,90857,6,0,B|162:136|258:94,1,160,4|2
316,97,92142,1,0
354,148,92571,2,0,B|318:177|341:222,1,79.9999999999999
281,247,93428,2,0,B|294:291|259:322,1,79.9999999999999,2|0
197,313,94285,6,0,B|141:374|45:340,1,160,0|2
14,286,95571,1,0
53,234,96000,2,0,B|22:147,2,79.9999999999999,0|0|2
102,193,97285,1,0
156,226,97714,6,0,B|222:281|308:241,1,160,0|2
352,198,99000,1,0
321,141,99428,2,0,B|299:99|336:66,1,79.9999999999999
282,28,100285,2,0,B|255:64|200:50,1,79.9999999999999,2|0
209,116,101142,6,0,B|131:124|150:167|51:174,1,160,0|2
41,231,102428,1,0
88,274,102857,2,0,B|56:323|56:323|93:379,2,120,4|4|0
134,318,104571,6,0,B|232:309,1,79.9999999999999
193,249,105428,2,0,B|317:239,2,120,0|0|0
133,226,107142,2,0,B|191:155|128:75,1,160
183,41,108428,1,0
239,69,108856,6,0,B|271:101|322:82,1,79.9999999999999,4|8
338,161,109713,2,0,B|378:141|421:168,1,79.9999999999999,0|8
372,232,110570,2,0,B|287:262|297:363,1,160,4|0
217,348,111856,1,8
175,279,112285,6,0,B|147:309|98:294,1,79.9999999999999,4|8
49,233,113142,2,0,B|84:206|126:221,1,79.9999999999999,0|8
150,144,113999,2,0,B|228:197|308:131,1,160,4|0
356,83,115285,1,8
392,154,115713,6,0,B|451:161|451:161|446:171|446:171|507:178,2,120,4|0|8
319,188,117428,2,0,B|334:231|300:262,1,79.9999999999999,4|8
241,314,118285,1,0
164,290,118713,1,8
169,210,119142,6,0,B|112:179|134:104,2,120,4|0|8
211,141,120856,2,0,B|271:78|372:103,1,160,4|0
403,166,122142,1,8
345,221,122570,6,0,B|364:260|412:249,2,79.9999999999999,4|8|0
265,211,123856,1,8
247,289,124285,2,0,B|191:348|94:311,1,160,4|0
39,258,125570,1,8
81,190,125999,6,0,B|31:128|31:128|56:41,1,160,4|0
124,14,127285,1,8
181,69,127713,2,0,B|243:18|243:18|320:41,1,160,4|0
365,107,128999,1,8
256,192,129428,12,0,132000
256,192,132856,12,0,135428
257,40,136285,6,0,B|256:228,1,160,0|8
256,279,137570,1,0
175,277,137999,2,0,B|175:117,1,160,0|8
178,36,139285,1,0
109,76,139713,6,0,B|73:102|32:76,2,79.9999999999999,0|0|8
72,147,140999,1,0
72,227,141428,2,0,B|45:281|92:281|65:346,2,120
145,258,143142,6,0,B|261:218|384:263,1,240,4|0
376,181,144856,2,0,B|257:143|135:181,1,240,2|0
136,99,146570,5,2
214,81,146999,1,0
294,81,147428,1,0
372,97,147856,1,0
432,149,148285,2,0,B|466:184|451:229,1,79.9999999999999,2|0
389,271,149142,2,0,B|368:308|317:293,1,79.9999999999999
270,230,149999,6,0,B|242:295|152:300|95:226|149:153,1,240,4|0
220,168,151713,2,0,B|248:103|338:98|394:173|341:245,1,240,2|0
428,237,153428,6,0,B|397:272|424:317,2,79.9999999999999,2|0|0
449,160,154713,1,0
390,105,155142,2,0,B|309:78,1,79.9999999999999,2|0
247,123,155999,2,0,B|166:96,1,79.9999999999999,2|0
97,129,156856,6,0,B|59:123|59:123|57:132|57:132|17:125,1,79.9999999999999
38,205,157713,2,0,B|86:213|86:213|89:200|89:200|145:209,1,120,0|8
