osu file format v9

[General]
AudioFilename: Symmetry.mp3
AudioLeadIn: 0
PreviewTime: 29657
Countdown: 0
SampleSet: Soft
StackLeniency: 0.7
Mode: 0
LetterboxInBreaks: 1

[Editor]
Bookmarks: 53240,58990,182656,190656
DistanceSpacing: 0.9
BeatDivisor: 4
GridSize: 8

[Metadata]
Title:Symmetry
Artist:Hatsune Miku
Creator:Kitsuneko
Version:Extreme
Source:Re:nG
Tags:Vocaloid Suzully

[Difficulty]
HPDrainRate:6
CircleSize:4
OverallDifficulty:8
ApproachRate:8
SliderMultiplier:1.6
SliderTickRate:0.5

[Events]
//Background and Video events
0,0,"BG-hinanosuke.jpg"
//Break Periods
2,53440,58240
2,182856,189906
//Storyboard Layer 0 (Background)
//Storyboard Layer 1 (Fail)
//Storyboard Layer 2 (Pass)
//Storyboard Layer 3 (Foreground)
//Storyboard Sound Samples
//Background Colour Transformations
3,100,255,255,255

[TimingPoints]
658,333.333333333333,5,2,0,42,1,0
17241,-100,5,2,0,48,0,0
23907,-100,5,2,0,54,0,0
28907,-100,5,1,0,55,0,0
29574,-100,5,2,0,60,0,0
29991,333.333333333333,4,1,0,50,1,1
50240,-100,4,2,0,50,0,1
51324,-100,4,2,0,26,0,0
58907,-100,4,2,0,42,0,0
73240,-100,4,2,0,46,0,0
73574,-100,4,2,0,50,0,0
73740,-100,4,2,0,54,0,0
85574,-100,4,1,0,54,0,0
86240,-100,4,2,0,50,0,0
86657,333.333333333333,4,1,0,50,1,1
106906,-100,4,2,0,50,0,1
107990,-200,4,2,0,50,0,0
108573,-200,4,2,0,0,0,0
108740,-200,4,2,0,50,0,0
109240,-200,4,2,0,0,0,0
109406,-200,4,2,0,50,0,0
115990,-133.333333333333,4,2,0,50,0,0
122906,-133.333333333333,4,1,0,50,0,0
124073,-133.333333333333,4,2,0,42,0,0
124656,-100,4,2,0,48,0,0
131240,-100,4,2,0,50,0,0
136240,-100,4,1,0,54,0,0
136906,-100,4,2,0,50,0,0
137323,-100,4,1,0,50,0,1
179990,-100,4,2,0,50,0,0
190573,-100,4,1,0,50,0,0
195906,-100,4,1,0,52,0,0
197240,-100,4,1,0,54,0,0
198573,-100,4,1,0,56,0,0
199906,-100,4,1,0,58,0,0
200240,-100,4,1,0,54,0,0
201073,-100,4,2,0,0,0,0

[Colours]
Combo1 : 231,231,231
Combo2 : 141,196,250
Combo3 : 249,202,168
Combo4 : 228,249,187

[HitObjects]
336,112,1991,1,0
336,112,2157,1,0
264,96,2324,2,0,B|200:144|96:136,2,160,4|0|0
440,128,3324,1,2
480,192,3491,1,0
424,240,3657,2,0,B|376:240|336:208,2,80,2|0|2
480,280,4157,5,0
440,336,4324,2,0,B|368:384|272:352,1,160,2|0
232,312,4824,1,2
280,256,4991,1,0
280,256,5157,1,0
240,192,5324,2,0,B|240:144|208:104,2,80,2|0|2
168,216,5824,5,0
160,288,5991,2,0,B|112:344|40:328|8:296,1,160,2|0
0,232,6491,1,2
48,72,6824,1,0
96,128,6991,2,0,B|80:176|80:208,2,80,2|0|2
128,64,7491,2,0,B|200:96|288:88,1,160,2|2
328,32,7991,5,2
400,40,8157,1,0
416,112,8324,1,0
344,136,8491,2,0,B|312:208|328:296,1,160,2|0
392,328,8991,1,2
152,296,9324,1,2
48,136,9657,6,0,B|120:88|200:88,2,160,4|0|0
80,328,10657,1,2
32,272,10824,1,0
64,208,10991,2,0,B|112:192|144:232,1,80,2|0
152,296,11324,2,0,B|176:336|224:328,1,80,2|0
280,288,11657,6,0,B|384:248|456:272,1,160,2|0
488,216,12157,1,2
304,72,12491,1,0
352,128,12657,2,0,B|400:120|424:96,2,80,2|0|2
280,136,13157,5,0
224,88,13324,1,2
224,88,13491,1,0
152,72,13657,2,0,B|64:80|0:144,1,160,2|2
32,208,14157,1,0
56,280,14324,6,0,B|24:304|8:352,2,80,2|0|2
128,256,14824,1,0
200,264,14991,1,2
264,296,15157,2,0,B|312:320|352:304,2,80,0|2|0
200,264,15657,2,0,B|224:184|192:96,1,160,2|2
24,32,16324,5,4
32,160,16657,1,4
168,184,16991,1,4
280,104,17324,6,0,B|360:88|416:136|424:176,1,160,4|0
440,232,17824,2,0,B|464:192|512:192,2,80,2|0|2
408,296,18324,1,2
192,320,18657,1,2
192,320,18824,1,0
408,296,18991,6,0,B|344:352|248:344,1,160,2|0
248,272,19491,2,0,B|288:248|328:256,2,80,2|0|2
192,320,19991,1,2
384,208,20324,1,2
384,208,20491,1,0
440,160,20657,5,2
400,96,20824,1,0
328,104,20991,1,0
312,176,21157,2,0,B|224:184|152:152,1,160,2|0
136,80,21657,1,2
136,80,21824,1,0
200,40,21991,6,0,B|240:32|280:48,2,80,2|2|2
136,80,22491,1,0
96,144,22657,2,0,B|40:160|16:192,1,80,2|2
40,256,22991,1,0
112,264,23157,1,0
152,200,23324,2,0,B|232:160|312:176,2,160,2|2|2
112,264,24157,5,0
160,320,24324,1,0
224,288,24491,2,0,B|264:272|312:288,1,80,2|0
360,336,24824,1,0
432,320,24991,1,2
432,320,25157,1,0
464,256,25324,6,0,B|504:184|488:96,1,160,2|2
448,40,25824,1,0
376,48,25991,1,2
352,120,26157,2,0,B|288:152|192:152,1,160,2|2
136,104,26657,5,0
64,96,26824,1,0
32,160,26991,1,2
72,224,27157,2,0,B|112:216|152:240,1,80,0|2
148,237,27657,1,0
148,237,27824,5,2
208,192,27991,1,0
280,192,28157,1,0
273,261,28324,2,0,B|248:288|200:288,2,80,2|0|0
328,304,28824,1,2
280,360,28991,5,0
176,368,29157,1,0
96,312,29324,1,0
0,336,29491,1,0
0,240,29657,6,0,B|32:208|80:224,1,80,2|0
80,152,29991,2,0,B|104:104|184:96|224:136,1,160,4|8
256,64,30491,1,0
256,64,30657,1,0
344,136,30824,1,0
344,136,30991,1,8
456,120,31157,1,0
400,72,31324,6,0,B|360:40|320:64,2,80,0|0|8
456,120,31824,2,0,B|488:80|464:32,2,80
392,160,32324,2,0,B|360:200|384:240,1,80,8|0
448,264,32657,5,0
392,312,32824,1,0
392,312,32990,2,0,B|352:328|304:328,1,80,8|0
313,327,33490,1,0
256,280,33657,2,0,B|168:256|96:288,1,160,8|0
32,320,34157,6,0,B|0:288|0:248,1,80,0|8
0,176,34491,1,0
0,176,34574,1,0
0,176,34657,1,0
56,128,34824,1,0
56,128,34991,2,0,B|96:112|144:120,1,80,8|0
176,56,35324,6,0,B|256:24|344:56,1,160,0|8
464,104,35824,2,0,B|424:96|384:112,1,80
368,184,36157,1,8
360,216,36241,1,0
352,248,36324,1,0
240,192,36491,6,0,B|160:168|80:192,1,160,0|8
32,248,36991,1,0
32,248,37157,1,0
304,312,37491,1,0
352,248,37657,2,0,B|392:232|432:232,1,80,8|0
440,160,37991,5,0
440,160,38157,1,0
376,120,38324,1,8
328,176,38491,2,0,B|264:216|160:208,1,160
112,168,38991,2,0,B|64:168|24:144,1,80,8|0
56,80,39324,5,0
128,56,39491,2,0,B|160:56|208:72,1,80,0|8
272,96,39824,1,0
368,232,40157,1,8
240,216,40324,1,8
272,96,40491,1,8
272,96,40657,6,0,B|208:136|112:144,1,160,0|8
56,176,41157,1,0
240,344,41491,2,0,B|328:344|400:296,1,160,8|8
368,232,41991,5,0
472,304,42157,1,0
512,192,42324,1,8
408,136,42491,2,0,B|352:168|304:168,1,80
200,144,42824,2,0,B|256:112|304:112,2,80,0|8|0
144,96,43324,6,0,B|80:80|16:112|0:152,1,160,0|8
8,216,43824,1,0
256,320,44157,2,0,B|216:344|168:344,1,80,0|8
128,288,44491,2,0,B|160:240|248:232|280:248,1,160,0|0
336,288,44991,1,8
408,304,45157,1,0
440,296,45241,1,0
464,272,45324,1,8
464,200,45491,5,8
440,128,45657,2,0,B|392:120|336:144,1,80,8|0
296,168,45991,2,0,B|208:184|136:136,1,160,0|8
80,96,46491,2,0,B|32:104|0:136,2,80
120,32,46991,1,8
184,72,47157,6,0,B|232:152|216:232,1,160
176,288,47657,1,8
176,288,47824,1,0
448,80,48157,2,0,B|400:72|368:96,1,80,0|8
328,152,48491,1,0
384,200,48657,5,8
400,216,48741,1,0
416,232,48824,1,0
336,264,48991,5,8
344,280,49074,1,0
352,296,49157,1,0
256,304,49324,5,8
256,320,49407,1,0
256,336,49491,1,0
168,320,49657,5,8
160,336,49741,1,0
152,352,49824,1,0
200,240,49991,5,8
128,200,50157,2,0,B|72:200|32:224,2,80,8|0|0
440,136,50824,1,0
344,112,50991,1,2
256,152,51157,1,0
256,192,51324,12,4,53240
320,312,58990,6,0,B|384:360|488:344,2,160,4|0|0
248,160,59990,1,2
248,160,60157,1,0
320,152,60324,2,0,B|360:160|384:200,1,80,2|0
384,272,60657,1,2
320,312,60824,1,0
256,280,60990,2,0,B|184:312|96:288,1,160,2|0
56,224,61490,5,2
56,224,61824,1,0
96,288,61990,2,0,B|144:288|184:272,1,80,2|0
232,224,62324,1,2
248,152,62490,1,0
192,96,62657,2,0,B|144:104|112:120,2,80,2|0|2
424,56,63324,5,0
352,40,63490,1,0
304,96,63657,1,2
352,152,63824,2,0,B|400:152|432:120,2,80,0|2|0
24,136,64490,5,0
48,208,64657,2,0,B|144:184|192:248,1,160,2|0
192,320,65157,1,2
192,320,65324,1,0
256,360,65490,2,0,B|304:360|344:336,1,80,0|2
408,328,65824,2,0,B|432:368|488:376,2,80,0|2|0
360,264,66324,6,0,B|344:176|392:112,2,160,4|0|0
256,48,67324,1,2
184,32,67490,1,0
136,88,67657,2,0,B|88:80|56:112,1,80,2|0
184,144,67990,2,0,B|232:152|264:120,1,80,2|0
24,176,68324,6,0,B|8:232|16:296|40:336,1,160,2|0
104,296,68824,1,2
176,280,68990,1,0
176,280,69157,1,2
296,304,69324,2,0,B|280:360|200:376|152:344,2,160,2|2|2
368,272,70157,5,0
440,288,70324,1,2
344,48,70657,1,2
408,80,70824,1,0
360,136,70990,2,0,B|288:192|192:168,1,160,2|2
48,56,71657,5,2
120,40,71824,1,0
136,112,71990,2,0,B|128:152|96:184,2,80,2|0|2
24,280,72657,1,2
24,280,72990,5,0
80,352,73157,1,2
176,336,73324,1,2
224,256,73490,1,0
336,312,73657,1,2
432,232,73824,1,0
392,112,73990,6,0,B|320:136|216:128,1,160,4|0
168,96,74490,1,2
24,152,74824,2,0,B|64:136|112:136,2,80,0|2|0
24,152,75324,1,2
0,336,75657,6,0,B|88:336|160:304,1,160,2|2
200,248,76157,2,0,B|168:208|176:160,1,80,2|0
224,120,76490,1,2
224,120,76657,2,0,B|288:152|384:144,2,160,2|2|4
104,40,77657,1,0
104,40,77824,1,2
40,168,78157,1,0
104,200,78324,2,0,B|160:176|208:168,1,80,2|0
224,120,78657,5,2
224,120,78824,1,0
264,56,78990,2,0,B|336:24|424:32,1,160,2|0
488,56,79490,1,2
296,128,79824,1,0
296,128,79990,2,0,B|336:120|376:144,1,80,2|0
504,296,80324,2,0,B|464:304|424:280,1,80,2|0
384,216,80657,6,0,B|288:248|248:320,1,160,6|2
216,368,81157,1,0
216,368,81490,1,0
144,344,81657,2,0,B|96:336|56:344,1,80,2|0
32,264,81990,2,0,B|80:256|120:264,1,80,2|0
160,208,82324,6,0,B|208:128|200:56,1,160,2|0
144,8,82824,1,2
72,32,82990,1,0
88,104,83157,2,0,B|40:112|0:136,2,80,0|2|0
160,120,83657,2,0,B|200:128|240:128,1,80,2|0
288,72,83990,6,0,B|384:32|456:80,1,160,2|0
432,144,84490,1,2
368,184,84657,1,0
304,144,84824,1,0
304,144,84990,1,2
256,200,85157,2,0,B|200:224|160:232,2,80,0|2|2
112,192,85657,5,0
160,336,85824,1,0
80,280,85990,1,0
240,280,86157,1,0
240,280,86324,6,0,B|280:256|328:280,1,80,2|0
360,336,86657,2,0,B|464:336|512:272,1,160,4|8
344,176,87157,2,0,B|248:168|192:216,1,160
112,224,87657,1,8
112,224,87823,1,0
88,152,87990,2,0,B|40:160|0:192,2,80,0|0|8
160,144,88490,2,0,B|168:192|200:216,2,80
168,72,88990,5,8
232,40,89157,1,0
296,72,89323,2,0,B|400:32|464:72,1,160,0|8
480,136,89823,1,0
416,296,90157,1,0
376,232,90323,2,0,B|320:248|272:280,1,80,8|0
248,312,90657,6,0,B|272:352|304:368,2,80,0|0|8
176,280,91157,1,0
176,280,91240,1,0
176,280,91323,1,0
72,320,91490,1,0
32,216,91657,2,0,B|64:240|112:240,1,80,8|0
176,200,91990,6,0,B|264:168|336:184,1,160,0|8
344,256,92490,1,0
488,256,92657,1,0
416,288,92823,1,8
416,288,93157,2,0,B|344:264|256:280,1,160,8|0
192,312,93657,5,8
128,344,93823,2,0,B|80:352|48:344,1,80
104,240,94156,2,0,B|152:232|184:240,2,80,0|8|0
40,208,94656,5,0
0,144,94823,1,0
48,88,94990,1,8
48,88,95156,2,0,B|88:112|160:112|208:88,1,160,0|8
416,64,95823,1,8
408,232,96156,2,0,B|440:200|488:208,2,80,8|8|8
344,360,96823,5,8
328,288,96990,1,8
304,264,97073,1,0
272,256,97156,1,0
208,288,97323,2,0,B|144:336|48:328,1,160,0|8
16,216,97823,2,0,B|48:192|96:200,1,80
224,176,98156,2,0,B|208:208|152:224,2,80,0|8|0
296,144,98656,5,0
280,72,98823,1,0
136,120,98990,2,0,B|176:120|216:104,1,80,8|0
280,72,99323,1,0
280,72,99490,1,0
352,56,99656,2,0,B|400:56|440:72,1,80,8|0
496,104,99990,6,0,B|512:192|488:264,1,160,0|8
416,248,100490,2,0,B|376:224|336:224,2,80,0|0|0
440,320,100990,1,8
384,368,101156,2,0,B|280:368|224:320,1,160
216,256,101656,1,8
200,184,101823,1,0
168,168,101906,1,0
136,168,101990,1,8
64,192,102156,5,8
40,296,102323,1,8
144,344,102490,1,8
216,256,102656,2,0,B|296:224|384:248,1,160,0|8
440,280,103156,2,0,B|432:320|448:368,2,80
448,208,103656,1,8
456,136,103823,6,0,B|496:112|512:64,2,80
384,112,104323,2,0,B|344:96|296:104,1,80,8|0
232,120,104656,1,0
224,192,104823,2,0,B|168:184|136:168,2,80,0|8|0
296,200,105323,5,8
344,144,105490,1,0
320,256,105656,5,8
360,176,105823,1,0
368,296,105989,5,8
384,192,106157,1,0
432,312,106323,5,8
408,200,106490,1,0
496,288,106656,6,0,B|472:256|472:208,1,80,8|8
472,136,106990,1,0
472,136,107156,1,0
312,64,107490,6,0,B|272:40|232:48,1,80,0|2
176,88,107823,1,0
104,112,107990,2,0,B|56:128|32:176|48:216|96:232|104:272|80:304|40:320,2,240,4|2|0
176,88,110323,5,0
192,120,110490,1,2
216,144,110656,1,0
248,160,110823,1,0
288,160,110990,1,2
440,120,111323,1,2
312,72,111656,1,2
432,256,111990,6,0,B|400:288|352:296,1,80,2|0
328,288,112490,1,2
296,280,112656,1,0
224,264,112990,2,0,B|176:280|152:304,2,80,2|2|2
184,192,113990,5,2
296,160,114323,1,2
96,128,114656,1,2
96,128,114823,1,0
96,128,114990,2,0,B|160:80|248:96,1,160,2|2
352,80,115990,5,4
440,144,116323,2,0,B|480:128|504:104,2,59.9999982118607,0|2|2
392,168,116823,1,0
392,168,116990,1,2
272,192,117323,2,0,B|216:216|144:216,1,119.999996423721,2|2
24,160,117990,5,2
24,312,118323,1,0
72,288,118490,2,0,B|128:312|200:312,1,119.999996423721,2|0
240,304,118990,1,2
464,280,119323,2,0,B|408:256|336:264,1,119.999996423721,2|2
256,192,119990,5,4
256,192,120490,1,2
160,240,120823,1,0
112,216,120990,2,0,B|40:224|0:272,2,119.999996423721,2|2|2
160,120,121990,5,2
376,168,122323,1,0
376,168,122490,1,2
216,312,122823,5,0
216,312,122990,2,0,B|168:328|136:336,1,59.9999982118607,0|0
160,272,123323,2,0,B|120:264|96:248,2,59.9999982118607
256,192,123823,1,0
256,192,124156,6,0,B|240:184|240:184|240:168|240:168|224:176|224:176|224:160|224:160|208:168|208:168|208:152|208:152|192:160|192:160|192:144|192:144|136:168,1,179.999994635582,4|2
88,200,124823,2,0,B|40:232|0:248,2,80,0|2|0
248,80,125490,1,0
320,56,125656,2,0,B|408:32|480:64,1,160,2|2
488,136,126156,1,0
440,192,126323,6,0,B|400:184|360:192,2,80,2|0|2
480,256,126823,1,2
464,328,126990,1,0
392,320,127156,2,0,B|352:352|320:360,1,80,0|2
256,328,127490,1,0
192,296,127656,2,0,B|128:312|96:344,2,80,2|0|2
48,240,128323,5,0
48,168,128490,1,2
48,168,128656,1,0
80,104,128823,2,0,B|72:56|48:24,2,80,0|2|0
136,152,129323,5,2
200,120,129490,1,0
264,152,129656,2,0,B|336:184|424:168,1,160,2|0
456,104,130156,1,2
208,200,130490,5,0
216,272,130656,2,0,B|256:296|296:296,1,80,2|0
368,288,130990,1,2
368,288,131156,1,0
408,224,131323,6,0,B|448:208|496:208,2,80,2|0|2
368,152,131823,1,2
344,80,131990,2,0,B|312:48|264:72,1,80,0|0
224,128,132323,1,2
152,144,132490,1,0
152,144,132656,2,0,B|104:152|56:128,1,80,2|0
64,64,132990,6,0,B|112:32|176:32|224:56,1,160,2|0
224,128,133490,1,2
288,176,133656,2,0,B|328:160|352:128,2,80,0|0|2
216,200,134156,1,0
144,208,134323,1,2
80,248,134490,1,0
48,312,134656,6,0,B|104:368|200:376,1,160,2|0
264,360,135156,1,2
328,320,135323,2,0,B|360:360|392:368,2,80,0|0|2
280,256,135823,1,0
432,208,135990,2,0,B|400:224|352:232,1,80,0|2
208,216,136323,5,0
64,152,136490,1,0
256,112,136657,1,0
160,136,136823,1,0
256,112,136990,6,0,B|296:120|344:104,2,80,2|0|4
192,64,137490,1,0
120,48,137656,2,0,B|64:64|32:104,1,80,8|0
64,152,137990,1,0
16,208,138156,1,0
16,208,138323,1,8
64,264,138490,1,0
136,264,138656,6,0,B|168:224|160:184,2,80,0|0|8
184,320,139156,2,0,B|160:360|104:360,2,80
248,288,139656,1,8
232,256,139740,1,0
240,224,139823,1,0
288,168,139990,6,0,B|280:64|216:16,1,160,0|8
152,16,140490,1,0
80,40,140656,1,0
80,40,140823,1,0
48,104,140990,2,0,B|96:104|128:136,1,80,8|0
104,200,141323,6,0,B|72:232|64:272,2,80,0|0|8
112,328,141823,2,0,B|144:352|184:360,2,80
176,280,142323,1,8
208,264,142406,1,0
248,264,142490,1,0
400,304,142656,6,0,B|312:272|304:176,1,160,0|8
352,128,143156,1,0
424,112,143323,2,0,B|464:128|480:176,1,80,0|8
248,264,143823,1,8
64,128,144156,6,0,B|40:88|32:56,2,80,0|8|0
136,152,144656,2,0,B|176:136|224:152,1,80
112,224,144990,1,8
40,240,145156,1,0
112,224,145323,6,0,B|192:264|272:224,1,160,0|8
312,160,145823,1,0
136,88,146156,6,0,B|88:64,2,40,0|0|8
216,72,146490,1,0
296,64,146656,1,0
312,72,146740,1,0
328,80,146823,1,0
344,88,146906,1,0
360,96,146990,2,0,B|344:144|312:160,1,80,8|0
312,160,147490,5,8
152,160,147656,2,0,B|192:152|232:168,1,80,8|8
256,240,147990,5,0
208,296,148156,2,0,B|168:304|128:288,2,80,0|8|0
264,344,148656,1,0
336,320,148823,1,0
336,320,148990,1,8
328,248,149156,1,0
256,240,149323,6,0,B|216:216|216:176,1,80
336,120,149656,2,0,B|376:144|376:184,1,80,8|0
264,120,149990,1,0
192,96,150156,2,0,B|96:88,2,80,0|8|0
88,160,150656,5,0
24,192,150823,1,0
24,264,150990,1,8
80,312,151156,2,0,B|56:352|8:360,2,80,0|0|8
336,304,151823,2,0,B|288:328|216:320|184:288,1,160,8|8
176,216,152323,1,8
176,216,152490,1,8
88,96,152823,6,0,B|40:112|0:80,2,80,0|8|0
152,64,153323,2,0,B|240:48|304:96,1,160,0|8
280,168,153823,1,0
280,168,153990,1,0
208,168,154156,1,0
144,136,154323,1,8
80,96,154490,6,0,B|32:88|0:112,2,80
80,168,154990,1,8
16,200,155156,2,0,B|24:280|72:328|104:336,1,160
168,336,155656,1,8
168,336,155823,1,0
224,280,155990,6,0,B|168:264,2,40,8|0|0
304,224,156323,6,0,B|352:240,2,40,8|0|0
200,168,156656,6,0,B|152:152,2,40,8|0|0
296,80,156990,6,0,B|344:96,2,40,8|0|0
208,32,157323,5,8
192,40,157406,1,0
176,48,157490,1,0
160,56,157573,1,0
144,64,157656,1,0
32,104,157823,5,8
48,112,157906,1,0
64,120,157990,1,0
80,128,158073,1,0
96,136,158156,2,0,B|136:160,5,40,8|0|8|0|0|0
130,156,158656,6,0,B|160:248|128:320,1,160,0|8
64,344,159156,1,0
280,256,159490,1,0
344,296,159656,1,8
416,272,159823,6,0,B|360:328|256:304,1,160
128,272,160323,2,0,B|168:256|208:264,1,80,8|0
80,208,160656,2,0,B|48:176|0:184,2,80,0|0|8
152,184,161156,5,0
224,160,161323,2,0,B|304:208|392:168,1,160,0|8
384,104,161823,2,0,B|424:80|472:88,2,80
328,56,162323,2,0,B|256:24|168:56,1,160,8|0
112,96,162823,6,0,B|72:112|32:96,2,80,0|8|0
40,288,163490,1,0
88,232,163656,1,8
160,208,163823,1,0
160,208,163990,6,0,B|224:256|312:232,1,160,0|8
448,136,164490,2,0,B|384:88|296:112,1,160
224,112,164990,1,8
160,88,165156,2,0,B|128:56|72:72,2,80
104,136,165656,2,0,B|56:136|32:184,1,80,8|0
160,336,166156,5,0
24,336,166323,2,0,B|72:336|96:296,1,80,8|0
128,240,166656,2,0,B|216:216|296:264,1,160,0|8
328,320,167156,1,0
480,112,167490,1,8
480,112,167823,6,0,B|392:96|312:136,1,160,8|8
264,88,168323,1,8
192,72,168490,1,8
192,72,168823,2,0,B|152:56|104:72,1,80,8|8
96,80,169073,1,0
80,88,169156,1,0
64,96,169240,1,0
48,104,169323,6,0,B|128:160|208:144,1,160,0|8
320,120,169823,2,0,B|408:80|480:104,2,160,0|8|8
304,192,170656,5,0
240,232,170823,1,0
168,232,170990,1,8
104,192,171156,2,0,B|128:152|112:112,2,80
40,224,171656,2,0,B|56:264|104:264,1,80,8|0
240,232,171990,6,0,B|224:176|120:168|96:200,1,160,0|8
48,328,172490,1,0
248,312,172823,1,8
40,144,173156,2,0,B|40:72|120:48|152:56,1,160,0|8
200,112,173656,2,0,B|240:104|288:112,1,80,8|8
352,280,174156,5,0
352,280,174323,1,8
432,264,174490,1,8
304,216,174656,2,0,B|216:200|128:232,1,160,0|8
88,272,175156,1,0
64,128,175490,6,0,B|24:112|0:80,2,80,0|8|0
136,104,175990,1,0
208,96,176156,1,0
280,104,176323,1,8
280,104,176490,2,0,B|360:72|448:104,2,160,0|8|8
176,168,177323,5,8
176,168,177490,1,0
80,232,177656,1,8
80,232,177823,1,0
112,336,177990,1,8
112,336,178156,1,0
232,344,178323,1,8
232,344,178490,1,0
272,240,178656,5,8
376,208,178823,2,0,B|408:232|472:216,2,80,8|8|0
336,104,179323,1,8
312,80,179406,1,0
280,72,179490,1,8
248,72,179573,1,0
216,80,179656,1,0
192,104,179740,1,0
184,136,179823,1,12
256,192,179990,12,4,182656
352,296,190656,5,0
288,328,190823,1,0
288,328,190990,1,8
224,352,191156,2,0,B|168:288|88:272,1,160
16,272,191656,1,8
296,144,191990,5,0
296,144,192156,1,8
40,176,192490,1,0
40,176,192656,1,8
160,104,192990,1,8
296,144,193323,6,0,B|248:152|216:184,1,80
152,304,193656,2,0,B|127:330|79:346,2,80,8|0|0
200,248,194156,1,8
200,248,194490,6,0,B|272:288|360:264,1,160,8|8
400,208,194990,1,0
376,136,195156,2,0,B|304:96|216:120,1,160,8|8
176,176,195656,1,8
200,248,195823,1,0
168,312,195990,6,0,B|112:368|16:368,1,160,8|8
8,296,196490,1,0
88,280,196656,1,0
168,312,196823,1,0
256,320,196990,1,8
256,320,197156,1,0
392,320,197323,6,0,B|440:240|383:167,1,160,8|8
248,168,197823,2,0,B|200:248|257:321,1,160,0|0
320,216,198323,1,8
320,216,198490,1,0
352,80,198656,6,0,B|360:40,2,40,8|0|0
248,64,198990,6,0,B|248:24,2,40,8|0|0
144,80,199323,6,0,B|128:32,2,40,8|0|0
56,136,199656,6,0,B|24:96,2,40,8|0|0
128,208,199990,5,8
128,208,200156,1,8
96,288,200323,2,0,B|128:320|168:312,1,80
168,312,200573,1,0
168,312,200656,1,8
224,232,200823,2,0,B|264:216|304:232,1,80,0|8
256,192,201156,12,0,205656
