osu file format v9

[General]
AudioFilename: Symmetry.mp3
AudioLeadIn: 0
PreviewTime: 29657
Countdown: 0
SampleSet: Soft
StackLeniency: 0.7
Mode: 0
LetterboxInBreaks: 1

[Editor]
Bookmarks: 53240,58990,109990,115990,182656,190656
DistanceSpacing: 1
BeatDivisor: 4
GridSize: 8

[Metadata]
Title:Symmetry
Artist:Hatsune Miku
Creator:Kitsuneko
Version:Basic
Source:Re:nG
Tags:Vocaloid Suzully

[Difficulty]
HPDrainRate:0
CircleSize:3
OverallDifficulty:0
ApproachRate:1
SliderMultiplier:1.12
SliderTickRate:0.5

[Events]
//Background and Video events
0,0,"BG-hinanosuke.jpg"
//Break Periods
2,53440,57310
2,110190,114310
2,182856,188976
//Storyboard Layer 0 (Background)
//Storyboard Layer 1 (Fail)
//Storyboard Layer 2 (Pass)
//Storyboard Layer 3 (Foreground)
//Storyboard Sound Samples
//Background Colour Transformations
3,100,255,255,255

[TimingPoints]
658,333.333333333333,5,2,0,42,1,0
17241,-100,5,2,0,48,0,0
23907,-100,5,2,0,54,0,0
28991,-100,5,1,0,55,0,0
29991,333.333333333333,4,1,0,50,1,1
50240,-100,4,2,0,50,0,1
51324,-100,4,2,0,26,0,0
58907,-100,4,2,0,42,0,0
73240,-100,4,2,0,46,0,0
73574,-100,4,2,0,50,0,0
73907,-100,4,2,0,54,0,0
85657,-100,4,1,0,54,0,0
86657,333.333333333333,4,1,0,50,1,1
106906,-100,4,2,0,50,0,1
107990,-133.333333333333,4,2,0,26,0,0
115990,-133.333333333333,4,2,0,50,0,0
122906,-133.333333333333,4,1,0,50,0,0
124656,-100,4,2,0,48,0,0
131240,-100,4,2,0,50,0,0
136323,-100,4,1,0,54,0,0
137323,-100,4,1,0,50,0,1
179990,-100,4,2,0,50,0,0
190573,-100,4,1,0,50,0,0
195906,-100,4,1,0,52,0,0
197240,-100,4,1,0,54,0,0
198573,-100,4,1,0,56,0,0
199906,-100,4,1,0,58,0,0
200240,-100,4,1,0,54,0,0
201073,-100,4,2,0,0,0,0

[Colours]
Combo1 : 231,231,231
Combo2 : 141,196,250
Combo3 : 249,202,168
Combo4 : 228,249,187

[HitObjects]
88,120,1991,2,0,B|24:128,2,56,0|0|0
160,32,2657,2,0,B|224:40|248:96,1,112,0|0
304,192,3324,2,0,B|432:176,2,112,0|0|0
216,256,4324,2,0,B|168:296|64:280|56:240,2,168,0|0|0
312,312,5657,1,2
384,224,5991,6,0,B|496:248,2,112,0|0|0
312,144,6991,2,0,B|328:80,2,56,0|0|0
280,256,7657,1,0
200,176,7991,2,0,B|176:240|104:256|48:232,2,168,0|0|0
144,80,9324,6,0,B|80:72,2,56,2|0|4
248,32,9991,2,0,B|312:16|352:56,1,112,0|0
368,168,10657,2,0,B|488:184,2,112,0|0|0
336,280,11657,2,0,B|304:360|224:360|176:344,2,168,0|0|0
232,248,12991,1,2
120,272,13324,6,0,B|56:264|32:208,2,112,0|0|0
160,168,14324,2,0,B|208:128|272:152,2,112,0|0|0
112,64,15324,2,0,B|0:64,2,112,0|0|0
224,40,16324,5,4
224,40,16657,1,4
336,40,16991,1,4
336,152,17324,6,0,B|424:120|512:152,2,168,4|2|2
256,232,18657,1,2
184,320,18991,6,0,B|96:352|8:320,2,168,0|2|2
288,368,20324,2,0,B|408:344,1,112,2|2
424,176,21157,6,0,B|336:144|248:176,1,168,2|2
152,208,21991,1,0
40,192,22324,1,2
184,112,22824,1,2
352,136,23324,1,2
352,136,23657,1,2
464,160,23991,6,0,B|456:224|392:264|328:248,1,168,4|2
216,360,24991,2,0,B|96:328,1,112,2|2
8,280,25657,6,0,B|0:192|48:112,1,168,0|2
208,104,26657,2,0,B|328:136,1,112,2|2
256,192,27324,12,0,28991
208,224,29991,6,0,B|152:200|88:224,1,112,0|8
72,112,30657,1,0
160,40,30991,1,8
248,112,31324,2,0,B|360:88,3,112,0|8|0|8
456,144,32657,6,0,B|488:200|456:256,1,112,0|8
360,304,33324,2,0,B|328:248|360:192,1,112,0|8
248,160,33990,2,0,B|144:120,3,112,0|8|0|8
104,224,35324,6,0,B|0:232|8:344,1,168,0|8
120,328,36157,1,8
120,328,36490,2,0,B|296:288,1,168,8|8
336,288,37157,2,0,B|384:336|464:320|472:256,1,168,0|8
472,152,37990,6,0,B|352:120,1,112,0|8
296,32,38657,2,0,B|184:88,1,112,0|8
96,32,39324,2,0,B|40:80|80:136,3,112,0|8|0|8
24,224,40657,6,0,B|64:272|128:248,1,112,0|8
176,152,41324,2,0,B|288:192,1,112,0|8
232,288,41990,2,0,B|344:328,3,112,0|8|0|8
448,296,43324,5,0
464,184,43657,1,8
360,224,43990,2,0,B|296:208|272:152,1,112,0|8
232,56,44657,2,0,B|128:96,3,112,0|8|0|8
24,136,45990,5,0
24,136,46324,1,8
64,240,46657,1,0
64,240,46990,1,8
168,208,47324,2,0,B|272:168,1,112,0|8
328,72,47990,2,0,B|392:48|456:72,1,112,0|8
392,168,48657,5,8
488,232,48990,1,8
440,336,49324,1,8
328,336,49657,1,8
296,232,49990,6,0,B|352:248,2,56
216,152,50657,2,0,B|160:136,2,56,0|0|2
256,192,51324,12,4,53240
472,112,58990,5,4
432,216,59324,2,0,B|384:256|312:232,1,112,0|0
360,128,59990,2,0,B|368:64|328:24,2,112
248,96,60990,2,0,B|200:56|96:72|88:112,2,168
272,208,62324,1,2
312,312,62657,6,0,B|432:280,2,112
200,296,63657,2,0,B|136:312,2,56
176,184,64324,1,0
88,120,64657,2,0,B|112:64|200:48|240:96,2,168
56,232,65990,6,0,B|0:216,2,56,2|0|4
120,328,66657,1,0
232,320,66990,1,0
264,216,67324,2,0,B|336:216|344:288,2,112
168,152,68324,2,0,B|144:104|48:104|24:176,2,168
256,80,69657,1,2
360,112,69990,6,0,B|416:72|480:104,2,112
352,224,70990,2,0,B|480:240,2,112
256,160,71990,2,0,B|200:200|136:168,2,112
272,48,72990,5,4
160,48,73324,1,4
72,112,73657,1,4
32,216,73990,6,0,B|0:264|32:344|96:344,1,168,4|2
256,296,74990,1,0
256,296,75324,1,2
256,184,75657,6,0,B|208:224|128:192|128:128,1,168,0|2
256,24,76657,1,0
256,24,76990,2,0,B|368:56,1,112,2|4
480,176,77824,6,0,B|464:272|360:280,1,168,2|0
256,248,78657,1,2
224,352,78990,1,2
56,344,79490,1,2
56,344,79990,2,0,B|88:232,1,112,0|2
104,128,80657,6,0,B|144:88|240:112|248:160,1,168,4|2
256,328,81657,2,0,B|368:320,1,112,0|2
432,224,82324,6,0,B|496:216|520:120|472:80,1,168,0|2
312,104,83324,1,0
200,112,83657,1,2
256,192,83990,12,0,85657
72,288,86657,6,0,B|184:280,1,112,0|8
272,352,87323,2,0,B|328:320|392:344,1,112,0|8
472,272,87990,2,0,B|440:216|464:152,3,112,0|8|0|8
400,72,89323,5,0
288,88,89657,1,8
264,200,89990,2,0,B|328:208|352:264,1,112,0|8
280,344,90657,2,0,B|216:336|192:280,3,112,0|8|0|8
168,176,91990,6,0,B|96:208|24:152|40:96,1,168,0|8
136,64,92823,1,8
136,64,93157,2,0,B|304:40,1,168,8|8
352,64,93823,2,0,B|432:40|496:72|512:112,1,168,0|8
464,200,94656,6,0,B|416:304,1,112,0|8
328,240,95323,2,0,B|208:280,1,112,0|8
208,168,95990,2,0,B|96:136,3,112,0|8|0|8
32,224,97323,6,0,B|16:288|80:320,1,112,0|8
176,272,97990,2,0,B|288:304,1,112,0|8
392,320,98656,1,0
480,256,98990,1,8
472,144,99323,2,0,B|424:104|368:128,1,112,0|8
288,48,99990,6,0,B|192:128,1,112,0|8
96,80,100656,2,0,B|48:128|88:184,1,112,0|8
24,272,101323,2,0,B|64:320|128:296,3,112,0|8|0|8
208,224,102656,5,0
320,200,102990,1,8
320,312,103323,2,0,B|432:288,1,112,0|8
440,176,103990,6,0,B|416:112|352:96,1,112,0|8
256,112,104656,2,0,B|144:136,1,112,0|8
80,224,105323,5,8
128,328,105656,1,8
208,248,105990,1,8
256,352,106323,1,8
328,264,106656,6,0,B|400:280,2,56,0|0|0
288,160,107323,2,0,B|360:176,2,56,0|0|2
256,192,107990,12,4,109990
256,56,115990,6,0,B|336:16|424:56,1,167.99999499321,4|2
472,120,116990,1,2
448,288,117656,1,2
392,352,117990,6,0,B|224:320,1,167.99999499321,0|2
144,304,118990,1,2
184,144,119656,1,2
264,160,119990,6,0,B|352:176|424:112,1,167.99999499321,4|2
488,168,120990,1,2
352,64,121656,1,2
272,40,121990,6,0,B|104:72,1,167.99999499321,0|2
24,88,122990,2,0,B|32:128,5,41.9999987483025
304,72,124656,6,0,B|368:32|456:64|472:112,2,168,4|2|0
376,160,125990,1,2
344,264,126323,6,0,B|512:304,2,168,0|2|0
248,320,127656,2,0,B|192:296|136:336,1,112,2|4
40,200,128490,6,0,B|120:248|208:200,1,168,2|0
200,88,129323,1,2
200,88,129656,1,0
368,64,130156,1,2
368,64,130656,2,0,B|432:56|472:96,1,112,0|2
384,168,131323,6,0,B|320:144|248:168|224:224,2,168,4|2|0
352,280,132656,1,2
256,344,132990,6,0,B|80:296,1,168,0|2
152,144,133990,2,0,B|272:176,1,112,0|2
256,192,134656,12,0,136323
224,200,137323,6,0,B|168:184|112:224,1,112,0|8
48,128,137990,1,0
136,56,138323,1,8
240,96,138656,2,0,B|360:72,3,112,0|8|0|8
456,96,139990,6,0,B|440:160|376:168,1,112,0|8
272,192,140656,2,0,B|211:199|195:263,1,112,0|8
272,344,141323,2,0,B|392:320,3,112,0|8|0|8
488,304,142656,6,0,B|504:240|464:176|408:168,1,168,0|8
320,224,143490,1,8
320,224,143823,2,0,B|264:296|160:264,1,168,8|8
152,216,144490,2,0,B|208:144|312:176,1,168,0|8
400,232,145323,6,0,B|464:248|504:200,1,112,0|8
504,96,145990,2,0,B|384:72,1,112,0|8
288,40,146656,2,0,B|168:80,3,112,0|8|0|8
72,48,147990,6,0,B|40:104|96:152,1,112,0|8
200,184,148656,2,0,B|240:296,1,112,0|8
344,256,149323,2,0,B|304:144,3,112,0|8|0|8
272,48,150656,6,0,B|328:16|384:40,1,112,0|8
472,96,151323,1,0
472,96,151656,1,8
400,184,151990,2,0,B|344:216|288:192,3,112,0|8|0|8
216,112,153323,5,0
120,48,153656,2,0,B|56:48|24:112,1,112,8|0
64,208,154323,1,8
176,224,154656,2,0,B|296:240,3,112,0|8|0|8
368,312,155990,5,8
472,280,156323,1,8
400,192,156656,1,8
488,128,156990,1,8
384,80,157323,6,0,B|408:24,2,56
288,136,157990,2,0,B|232:104|176:136,1,112,0|8
208,240,158656,6,0,B|176:296|72:296|48:256,2,168,0|8|8
312,272,159990,2,0,B|416:312,3,112,0|8|0|8
496,232,161323,6,0,B|512:160|440:112|392:128,1,168,0|8
240,176,162323,1,8
240,288,162656,2,0,B|192:328|128:304,3,112,0|8|0|8
32,256,163990,6,0,B|8:160|96:64|192:72,1,280,0|8
296,48,165156,2,0,B|472:88,1,168,0|8
416,304,166323,1,8
304,336,166656,6,0,B|272:288|200:304,1,112,0|8
104,352,167323,2,0,B|56:248,1,112,0|8
160,208,167990,2,0,B|264:168,1,112,0|8
320,152,168490,2,0,B|224:128|216:24,1,168,0|8
104,56,169323,5,0
56,160,169656,1,8
160,208,169990,2,0,B|200:256|160:328,1,112,0|8
280,336,170656,2,0,B|392:360,3,112,0|8|0|8
392,248,171990,6,0,B|280:224,1,112,0|8
304,112,172656,2,0,B|264:64|192:88,1,112,0|8
96,56,173323,2,0,B|56:168,3,112,0|8|0|8
40,272,174656,6,0,B|208:320,1,168,0|8
360,256,175656,1,8
312,152,175990,2,0,B|200:120,3,112,0|8|0|8
104,168,177323,5,8
208,216,177656,1,8
160,320,177990,1,8
272,296,178323,1,8
328,200,178656,6,0,B|384:184,2,56
256,112,179323,2,0,B|200:128,2,56
256,192,179990,12,4,182656
416,192,190656,6,0,B|296:168,3,112,0|8|0|8
256,72,191990,2,0,B|184:24|72:56|40:128,1,224
56,216,192990,1,8
168,192,193323,6,0,B|288:216,3,112,0|8|0|8
280,328,194656,2,0,B|344:336|376:280,3,112,0|8|0|8
392,168,195990,6,0,B|384:80|280:24|208:56,1,224
128,96,196990,1,8
104,208,197323,6,0,B|112:296|216:352|288:320,1,224
368,272,198323,1,8
440,184,198656,5,8
328,168,198990,1,8
392,80,199323,1,8
280,64,199656,1,8
208,152,199990,6,0,B|136:144,2,56
200,264,200656,2,0,B|256:296|312:264,1,112,0|8
256,192,201156,12,0,205656
