osu file format v8

[General]
AudioFilename: Hatsune Miku - Ame Nochi (Sweet Drops).mp3
AudioLeadIn: 0
PreviewTime: 74926
Countdown: 0
SampleSet: Normal
StackLeniency: 0.7
Mode: 1
LetterboxInBreaks: 0

[Editor]
DistanceSpacing: 1.1
BeatDivisor: 4
GridSize: 8

[Metadata]
Title:Sweet*Drops After the Rain
Artist:Hatsune Miku
Creator:Yes
Version:Taiko
Source:OSTER project
Tags:vocaloid FutanariP Project Diva ame nochi

[Difficulty]
HPDrainRate:5
CircleSize:3
OverallDifficulty:7
ApproachRate:3
SliderMultiplier:1.4
SliderTickRate:2

[Events]
//Background and Video events
0,0,"bg.png"
//Break Periods
//Storyboard Layer 0 (Background)
//Storyboard Layer 1 (Fail)
//Storyboard Layer 2 (Pass)
//Storyboard Layer 3 (Foreground)
//Storyboard Sound Samples
//Background Colour Transformations
3,100,163,162,255

[TimingPoints]
2260,444.444444444444,4,1,0,100,1,0
75148,-100,4,1,0,100,0,1
91148,-100,4,1,0,100,0,0
111148,-100,4,1,0,79,0,0
117704,-100,4,1,0,100,0,0
146259,-100,4,1,0,100,0,1
174704,-100,4,1,0,100,0,0

[Colours]
Combo1 : 153,242,184
Combo2 : 255,166,210
Combo3 : 96,169,231
Combo4 : 247,157,145
Combo5 : 165,124,250

[HitObjects]
240,160,18260,1,0
328,200,18482,1,0
328,200,18704,1,8
304,296,18926,1,0
408,280,19148,1,0
384,112,19371,1,0
280,80,19593,1,8
280,80,19815,1,8
120,72,20037,1,0
96,160,20259,1,0
96,160,20371,1,8
96,160,20593,1,8
96,160,20704,1,0
192,176,20926,1,0
120,256,21148,1,0
120,256,21259,1,0
120,256,21371,1,8
184,264,21482,1,0
184,264,21593,1,8
352,256,21815,1,0
296,112,22259,1,8
216,112,22482,1,0
216,112,22704,1,0
216,112,22926,1,0
120,72,23148,1,8
88,168,23371,1,0
88,168,23482,1,0
88,168,23593,1,8
88,168,23815,1,0
88,168,23926,1,0
88,168,24037,1,8
88,168,24259,1,0
88,168,24482,1,8
88,240,24704,1,8
224,272,24926,1,0
224,272,25037,1,0
224,272,25148,1,8
224,272,25259,1,8
224,272,25371,1,8
288,192,25815,1,8
384,192,26037,1,0
384,192,26259,1,0
400,264,26482,1,0
400,264,26593,1,0
400,264,26704,1,8
472,304,26926,1,8
472,224,27148,1,0
472,224,27371,1,0
472,224,27593,1,8
256,96,27815,1,8
160,144,28037,1,0
160,144,28148,1,0
160,144,28259,1,0
160,144,28371,1,0
160,144,28482,1,8
128,224,28704,1,0
80,312,28926,1,6
200,336,29148,1,0
320,312,29371,1,0
328,216,29593,1,0
472,200,29815,1,8
472,200,29926,1,8
472,200,30037,1,8
416,272,30259,1,0
376,160,30482,1,4
256,152,30704,1,0
256,88,30926,1,8
256,88,31037,1,8
256,88,31148,1,8
256,88,31371,1,0
184,112,31593,2,0,B|344:360,1,280
296,224,33148,1,0
224,176,33371,1,0
144,144,33593,1,0
224,88,33815,1,8
288,136,34037,1,0
296,64,34482,1,0
392,224,34704,1,8
296,288,34926,1,0
184,248,35148,1,0
184,248,35259,1,0
184,248,35371,1,8
104,304,35593,1,8
64,224,35815,1,8
64,144,36037,1,0
104,208,36259,1,0
216,152,36482,1,8
328,224,36704,1,0
384,176,37148,1,0
432,120,37371,1,8
352,64,37593,1,8
264,112,37815,1,0
136,208,38037,1,0
136,208,38148,1,8
136,208,38371,1,8
136,208,38482,1,8
160,288,38704,1,0
160,288,38926,1,0
264,296,39148,1,0
320,304,39371,1,8
336,184,39593,1,8
504,184,40259,1,0
440,144,40482,1,0
368,112,40704,1,0
296,136,40926,1,8
320,208,41148,1,0
184,120,41371,1,0
184,120,41482,1,0
184,120,41593,1,0
112,168,41815,1,8
80,248,42037,1,0
80,248,42148,1,0
80,248,42259,1,8
80,248,42482,1,0
176,312,42704,1,8
312,264,42926,1,8
392,208,43148,1,0
392,208,43482,1,0
392,208,43593,1,2
256,136,43926,1,0
256,136,44037,1,2
320,56,44371,1,0
320,56,44482,1,2
216,64,44704,1,0
96,128,44815,1,0
96,128,44926,1,0
96,240,45148,1,0
152,304,45371,1,8
256,272,45593,1,0
256,272,45704,1,0
256,272,45815,1,8
256,272,45926,1,0
256,272,46037,1,8
256,272,46148,1,0
256,272,46259,1,8
360,272,46482,1,0
360,272,46593,1,0
360,272,46704,1,8
288,240,46926,1,0
224,200,47148,1,8
144,208,47371,1,0
216,128,47593,1,0
128,120,47815,1,0
80,192,48037,1,8
176,296,48259,1,0
320,232,48704,1,0
416,312,48926,1,8
352,176,49148,1,0
280,200,49371,1,0
272,48,49593,1,0
272,48,49704,1,0
272,48,49815,1,2
112,64,50037,1,0
96,176,50259,1,2
96,176,50371,1,2
96,176,50482,1,2
104,288,50704,1,0
184,296,50926,1,0
328,232,51371,1,0
376,176,51593,1,8
296,112,51815,1,0
296,112,52037,1,0
216,120,52259,1,8
96,192,52371,1,8
96,192,52593,1,8
96,192,52704,1,8
192,208,52926,1,0
200,296,53148,1,0
200,296,53371,1,8
360,288,53593,1,8
368,208,53815,1,0
368,208,54037,1,0
368,208,54259,1,8
288,200,54482,1,0
96,280,54704,1,0
136,176,54926,1,0
136,176,55148,1,8
240,216,55371,1,0
240,216,55482,1,8
240,216,55593,1,0
312,112,55815,1,0
312,112,56037,1,8
376,152,56259,1,0
400,304,56704,1,0
336,304,56926,1,8
336,304,57148,1,8
176,280,57371,1,0
176,280,57593,1,0
80,200,57704,1,0
80,200,57815,1,8
80,200,58037,1,0
120,104,58259,1,0
208,88,58482,1,0
208,88,58704,1,8
208,88,58926,1,0
432,168,59148,1,0
384,264,59371,1,0
232,272,59593,1,8
136,256,59815,1,0
64,272,60037,2,0,B|352:304,1,280
448,80,61371,1,0
432,120,61593,1,0
424,176,61815,1,8
424,232,62037,1,8
256,216,62482,1,8
232,280,62926,1,8
120,256,63148,1,0
56,160,63371,1,0
56,160,63482,1,0
56,160,63593,1,0
136,104,63815,1,0
288,104,64037,1,8
288,104,64148,1,0
288,104,64259,1,8
288,104,64371,1,0
288,104,64482,1,8
368,144,64704,1,0
424,256,64926,1,8
272,256,65148,1,8
160,152,65371,1,0
160,152,65593,1,0
104,224,65815,1,8
104,224,66037,1,8
56,280,66259,1,0
56,280,66482,1,0
56,280,66704,1,8
136,312,66926,1,0
264,256,67148,1,8
264,256,67259,1,8
264,256,67371,1,0
264,256,67482,1,0
264,256,67593,1,0
296,208,67704,1,0
296,208,67815,1,8
272,112,68037,1,4
376,112,68259,1,0
432,192,68482,1,8
432,272,68704,1,0
280,304,69148,1,0
112,328,69371,1,8
80,160,69593,1,0
80,160,69704,1,8
80,160,69926,1,8
80,160,70037,1,0
160,168,70259,1,8
184,104,70482,1,0
184,104,70593,1,0
184,104,70704,1,0
184,104,70926,1,0
288,128,71148,1,8
288,128,71371,1,0
288,128,71482,1,0
288,128,71593,1,8
288,128,71815,1,0
288,128,72037,1,8
304,224,72259,1,4
304,224,72482,1,8
304,224,72593,1,8
304,224,72704,1,8
368,264,72926,1,4
416,184,73148,1,4
416,64,73371,1,8
416,64,73482,1,8
416,64,73593,1,8
416,64,73815,1,0
360,120,74037,2,0,B|184:272,1,210
256,80,74926,1,0
136,128,75148,1,14
136,232,75371,1,0
208,288,75593,1,8
208,288,75815,1,8
360,240,76037,1,0
368,160,76259,1,0
368,160,76371,1,0
368,160,76482,1,8
272,200,76704,1,0
152,288,77148,1,0
152,288,77371,1,8
152,288,77593,1,8
352,272,78037,1,0
432,192,78259,1,8
272,160,78482,1,0
272,160,78593,1,0
272,160,78704,1,8
272,160,78926,1,0
192,168,79148,1,8
112,168,79371,1,0
96,240,79593,1,0
200,296,79815,1,8
200,296,79926,1,0
200,296,80037,1,8
200,296,80259,1,0
336,152,80704,1,8
336,152,80926,1,0
240,152,81148,1,8
240,152,81371,1,8
240,152,81593,1,0
240,152,81815,1,0
240,152,81926,1,0
240,152,82037,1,0
240,152,82148,1,0
240,152,82259,1,8
128,144,82482,1,0
104,216,82704,1,8
104,216,82926,1,8
104,216,83037,1,8
104,216,83259,1,0
104,216,83371,1,8
184,272,83593,1,0
104,216,83815,1,8
248,272,84259,1,8
312,192,84482,1,0
312,192,84704,1,8
336,240,84926,1,0
336,240,85148,1,0
336,240,85259,1,0
336,240,85371,1,8
336,240,85482,1,0
336,240,85593,1,8
368,320,85815,1,4
456,256,86037,1,0
400,144,86259,1,8
400,144,86371,1,8
400,144,86482,1,8
320,64,86704,1,4
248,88,86926,1,0
184,128,87148,1,0
144,192,87371,1,0
72,272,87593,1,8
152,304,87815,1,0
152,304,87926,1,0
152,304,88037,1,8
152,304,88148,1,8
152,304,88259,1,8
152,304,88371,1,0
152,304,88482,1,8
224,248,88704,1,0
296,200,88926,1,4
336,128,89148,1,14
256,192,89371,12,0,91148
88,128,91593,5,0
136,184,91815,1,8
192,232,92037,1,8
336,176,92482,1,0
192,120,92926,1,0
192,120,93148,1,0
192,120,93259,1,0
192,120,93482,1,0
376,240,93593,1,8
328,176,93815,1,0
224,248,94259,1,0
112,136,94704,1,8
136,160,94926,1,8
136,160,95037,1,0
136,160,95259,1,0
136,160,95371,1,8
112,232,95593,1,8
160,88,96037,1,0
136,136,96482,5,0
224,128,96704,1,0
312,136,96926,1,8
112,304,97593,1,0
200,280,97815,1,8
288,288,98037,1,0
288,288,98148,1,0
288,288,98259,1,0
376,280,98482,1,0
416,200,98704,1,8
432,112,98926,1,0
344,88,99148,1,0
256,80,99371,1,0
256,72,99593,1,8
168,96,99815,1,0
96,144,100037,1,4
96,232,100259,1,0
112,272,100371,1,8
200,248,100593,1,8
240,232,100704,1,0
328,216,100926,1,4
360,296,101148,1,0
360,296,101259,1,0
360,296,101371,1,8
360,296,101593,1,4
432,136,102037,1,0
432,136,102148,1,0
432,136,102259,1,8
432,136,102482,1,8
344,136,102704,1,0
360,224,102926,1,0
360,224,103148,1,8
392,248,103259,1,0
432,272,103371,1,8
432,272,103482,1,0
392,248,103593,1,8
208,192,104259,5,0
344,192,104482,1,0
272,104,104704,1,0
272,104,104926,1,8
344,128,105148,1,0
344,280,105593,1,0
400,288,105815,1,8
208,256,106037,1,0
112,184,106259,1,0
96,112,106482,1,0
96,112,106593,1,0
96,112,106704,1,8
144,112,106926,1,0
240,104,107148,1,8
240,104,107371,1,8
368,128,107593,1,0
440,72,107815,1,8
464,200,108259,1,8
144,112,108482,1,0
208,152,108704,1,8
248,296,109148,1,0
80,216,109371,1,8
160,208,109593,2,0,B|488:80,1,350
248,192,111371,5,0
304,208,111593,1,8
304,208,111815,1,0
304,208,111926,1,0
304,208,112037,1,8
304,208,112259,1,0
320,128,112704,1,8
320,128,112815,1,0
320,128,112926,1,8
168,96,113148,1,0
96,120,113371,1,0
112,232,113593,1,8
160,256,113704,1,0
160,256,113926,1,0
160,256,114037,1,8
264,224,114259,1,0
368,232,114704,1,8
368,232,115037,1,0
368,232,115148,1,8
272,320,115482,1,0
272,320,115593,1,8
272,320,115815,1,8
352,320,116037,1,0
352,320,116148,1,0
352,320,116259,1,8
352,320,116482,1,8
352,320,116593,1,0
352,320,116704,1,8
456,296,116926,1,0
456,296,117037,1,0
456,296,117148,1,8
456,296,117259,1,8
456,296,117371,1,8
456,296,117593,1,4
456,296,117815,1,14
256,128,118482,1,0
256,128,118704,1,8
152,208,118926,1,0
152,208,119148,1,8
104,136,119371,1,0
80,104,119815,1,8
80,104,120037,1,8
360,216,120259,1,0
360,216,120482,1,0
232,224,120704,1,0
232,224,120815,1,0
232,224,120926,1,8
232,224,121148,1,8
80,192,121371,1,8
80,192,121482,1,0
80,192,121593,1,0
80,192,121704,1,0
80,192,121815,1,8
80,192,122037,1,0
144,296,122482,1,0
224,312,122704,1,8
312,232,122926,1,0
312,232,123037,1,8
312,232,123259,1,8
312,232,123371,1,0
352,256,123593,1,8
400,112,123815,1,0
400,112,124037,1,0
416,232,124259,1,0
344,208,124482,1,8
264,200,124704,1,8
192,184,124926,1,0
192,184,125148,1,0
152,192,125259,1,0
72,264,125371,1,8
72,264,125593,1,0
72,264,125815,1,0
72,264,126037,1,0
72,264,126259,1,8
176,288,126482,1,0
176,288,126704,1,0
176,288,126926,1,0
176,288,127148,1,8
272,264,127370,1,0
376,200,127593,1,8
392,280,127815,1,8
392,280,127926,1,8
392,280,128037,1,8
392,280,128148,1,0
392,280,128259,1,0
304,224,128482,1,0
304,224,128704,1,0
304,224,128926,1,8
232,128,129148,1,0
232,128,129259,1,8
232,128,129482,1,8
232,128,129593,1,0
112,168,129815,1,8
56,256,130037,1,0
56,256,130148,1,0
56,256,130259,1,8
192,280,130482,1,0
312,312,130704,1,8
392,248,130926,1,0
400,152,131148,1,8
288,88,131259,1,0
288,88,131370,1,0
336,80,131482,1,0
336,80,131593,1,8
336,80,131704,1,8
336,80,131815,1,8
336,80,131926,1,8
336,80,132037,1,0
136,240,132482,1,8
208,288,132704,1,0
280,232,132926,1,0
280,232,133148,1,0
352,296,133259,1,0
352,296,133370,1,8
328,192,133593,1,0
176,176,134037,1,0
192,232,134482,1,8
88,224,134704,1,0
96,152,134926,1,0
96,152,135148,1,8
200,136,135370,1,8
288,128,135593,1,0
288,128,135704,1,0
288,128,135815,1,0
288,128,135926,1,0
288,128,136037,1,8
288,128,136259,1,8
304,216,136482,1,0
304,216,136593,1,0
304,216,136704,1,0
304,216,136815,1,0
304,216,136926,1,8
304,216,137148,1,8
304,216,137370,1,0
304,216,137593,1,8
224,312,137815,1,0
144,272,138037,1,0
72,232,138259,1,8
72,232,138370,1,8
72,232,138482,1,8
72,232,138593,1,8
72,232,138704,1,8
72,232,138926,1,0
176,160,139148,1,4
176,160,139370,1,0
176,160,139482,1,0
176,160,139593,1,8
176,160,139815,1,0
216,208,139926,1,8
240,72,140148,1,8
240,72,140259,1,0
240,72,140482,1,8
240,72,140704,1,0
352,248,140926,1,8
352,248,141148,1,8
352,248,141370,1,8
352,248,141593,1,0
352,248,141815,1,8
352,248,142037,1,8
352,248,142148,1,0
352,248,142259,1,8
296,256,142370,1,0
296,256,142482,1,8
312,288,142593,1,8
296,256,142704,1,8
216,248,142926,1,0
216,248,143148,1,0
216,248,143370,1,4
216,248,143593,1,0
144,184,143815,1,0
144,184,144037,1,8
144,184,144259,1,0
144,184,144370,1,0
144,184,144482,1,8
144,184,144704,1,8
72,120,144926,1,8
72,120,145148,1,0
112,112,145259,1,0
72,120,145371,1,0
72,120,145482,1,0
72,120,145593,1,8
72,120,145815,1,8
144,96,146037,1,0
168,160,146259,1,12
168,160,146482,1,8
320,176,146704,1,0
320,176,146815,1,0
320,176,146926,1,0
320,176,147148,1,0
320,176,147371,1,0
320,176,147593,1,8
256,224,147815,1,0
136,264,148259,1,0
320,256,148482,1,8
392,232,148704,1,0
392,232,148926,1,0
360,144,149148,1,0
360,144,149259,1,0
360,144,149371,1,8
360,144,149482,1,0
360,144,149593,1,8
152,120,149815,1,8
152,120,149926,1,8
152,120,150037,1,8
56,200,150259,1,0
128,224,150482,1,0
56,200,150704,1,0
56,200,150815,1,0
56,200,150926,1,8
112,280,151148,1,8
112,280,151371,1,0
112,280,151815,1,0
112,280,152037,1,8
184,296,152259,1,0
256,312,152482,1,0
176,304,152704,1,0
360,176,152926,1,8
360,176,153037,1,8
360,176,153148,1,0
240,176,153259,1,0
272,112,153371,1,8
96,88,153593,1,0
72,160,153815,1,8
72,160,154037,1,0
96,272,154259,1,0
96,272,154482,1,0
96,272,154704,1,8
96,272,154926,1,8
200,280,155371,1,8
248,208,155593,1,8
88,128,155815,1,0
88,128,155926,1,0
88,128,156037,1,0
256,96,156259,1,0
256,96,156371,1,0
256,96,156482,1,8
256,96,156593,1,8
256,96,156704,1,8
304,208,156926,1,0
304,208,157148,1,0
304,208,157259,1,0
304,208,157371,1,8
336,312,157593,1,0
336,312,157815,1,8
336,312,158037,1,0
376,192,158259,1,8
376,192,158482,1,0
376,192,158704,1,8
344,72,158926,1,0
344,72,159037,1,0
344,72,159148,1,8
344,72,159259,1,8
344,72,159371,1,0
344,72,159482,1,0
344,72,159593,1,8
224,184,159704,1,0
160,232,159815,1,8
160,232,159926,1,8
160,232,160037,1,8
160,232,160259,1,0
112,112,160482,1,6
112,112,160704,1,8
200,152,160926,1,0
200,152,161148,1,0
200,152,161371,1,0
200,152,161593,1,0
304,280,161704,1,0
200,152,161815,1,8
200,152,162037,1,0
232,160,162482,1,8
304,192,162704,1,0
304,192,162926,1,0
304,192,163148,1,14
304,192,163371,1,0
304,192,163482,1,0
304,192,163593,1,8
304,192,163704,1,0
304,192,163815,1,8
304,240,164037,1,0
232,224,164259,1,0
304,240,164482,1,8
352,304,164704,1,0
384,248,164926,1,0
384,248,165148,1,8
384,248,165259,1,0
384,248,165371,1,8
384,152,165593,1,0
384,152,166037,1,0
296,112,166259,1,8
296,112,166482,1,0
128,168,166704,1,0
128,168,166926,1,0
128,168,167037,1,0
128,168,167148,1,8
128,168,167371,1,4
128,168,167593,1,4
224,320,167815,1,0
224,320,168037,1,8
224,320,168259,1,0
224,320,168371,1,0
224,320,168482,1,8
232,176,168704,1,0
232,176,168926,1,0
200,248,169148,1,0
344,304,169593,1,0
392,168,169815,1,0
336,80,170037,1,8
128,96,170259,1,0
128,96,170482,1,8
144,208,170704,1,0
104,256,170926,1,8
104,256,171037,1,8
104,256,171148,1,8
176,288,171371,1,8
176,288,171593,1,0
128,224,171815,2,0,B|352:160,1,210
256,304,172704,1,4
256,304,172926,1,8
256,304,173148,1,0
224,264,173259,1,0
224,264,173371,1,8
224,264,173593,1,0
224,264,173704,1,0
224,264,173815,1,8
256,304,174037,1,8
256,304,174148,1,8
256,304,174259,1,0
256,304,174482,1,14
256,304,174704,1,4
