osu file format v8

[General]
AudioFilename: Hatsune Miku - Ame Nochi (Sweet Drops).mp3
AudioLeadIn: 0
PreviewTime: 74926
Countdown: 1
SampleSet: Soft
StackLeniency: 0.7
Mode: 0
LetterboxInBreaks: 0

[Editor]
DistanceSpacing: 1
BeatDivisor: 4
GridSize: 8

[Metadata]
Title:Sweet*Drops After the Rain
Artist:Hatsune Miku
Creator:Yes
Version:Normal
Source:OSTER project
Tags:vocaloid FutanariP Project Diva ame nochi

[Difficulty]
HPDrainRate:2
CircleSize:3
OverallDifficulty:2
ApproachRate:1
SliderMultiplier:1.2
SliderTickRate:2

[Events]
//Background and Video events
0,0,"bg.png"
//Break Periods
2,91348,102579
//Storyboard Layer 0 (Background)
//Storyboard Layer 1 (Fail)
//Storyboard Layer 2 (Pass)
//Storyboard Layer 3 (Foreground)
Sprite,Foreground,Centre,"rain2.png",320,240 S,0,91148,,1.01024 F,0,91148,93148,0,0.75424 M,0,91148,104037,318,-266,324,199 F,0,93148,103371,0.75424,1 F,0,103371,,1 F,0,103371,104037,1,0 F,0,103371,104037,1,0.02702701
Sprite,Foreground,Centre,"rains.png",320,240 S,0,91148,,0.8054402 F,0,91148,93148,0,1 M,0,91148,103593,320,63,324,215 F,0,93148,103148,1 F,0,103148,103593,1,0 F,0,103148,103593,1,0
//Storyboard Sound Samples
//Background Colour Transformations
3,100,163,162,255

[TimingPoints]
2260,444.444444444444,4,2,0,100,1,0
18334,-100,4,2,1,77,0,0
19633,-100,4,1,1,77,0,0
20667,-100,4,2,1,77,0,0
22334,-100,4,2,1,76,0,0
22556,-100,4,2,1,76,0,0
23222,-100,4,1,1,76,0,0
23445,-100,4,1,1,70,0,0
24556,-100,4,2,1,79,0,0
25188,-100,4,2,1,74,0,0
27000,-100,4,1,1,74,0,0
28334,-100,4,2,0,74,0,0
28556,-100,4,1,1,74,0,0
28778,-100,4,2,1,91,0,0
31778,-100,4,2,0,91,0,0
32855,-100,4,2,0,91,0,0
45222,-100,4,2,1,60,0,0
45556,-100,4,2,1,70,0,0
46000,-100,4,2,1,91,0,0
46445,-100,4,2,1,100,0,0
46889,-100,4,2,0,91,0,0
61148,-100,4,2,0,91,0,0
73919,-100,4,2,1,91,0,0
74148,-100,4,2,0,91,0,0
74371,-100,4,2,1,91,0,0
75116,-100,4,2,1,91,0,1
78436,-100,4,1,1,51,0,1
78783,-100,4,2,1,73,0,1
79005,-100,4,1,1,51,0,1
79778,-100,4,2,1,86,0,1
79926,-100,4,2,0,86,0,1
80148,-100,4,2,1,86,0,1
80778,-100,4,2,1,86,0,1
81000,-100,4,1,1,51,0,1
81667,-100,4,2,1,82,0,1
82334,-100,4,2,1,91,0,1
83667,-100,4,1,1,51,0,1
84778,-100,4,2,1,82,0,1
85445,-100,4,1,1,51,0,1
85667,-100,4,2,1,91,0,1
86556,-100,4,1,1,51,0,1
87222,-100,4,1,1,77,0,1
87889,-100,4,2,1,98,0,1
88556,-100,4,1,1,51,0,1
89445,-100,4,2,0,21,0,1
91148,-100,4,2,1,16,0,0
104005,-100,4,2,1,92,0,0
105037,-100,4,2,0,92,0,0
111116,-100,4,2,0,73,0,0
116259,-100,4,2,0,92,0,0
117561,-100,4,2,1,92,0,0
118593,-100,4,2,0,92,0,0
118815,-100,4,2,1,92,0,0
119259,-100,4,2,0,92,0,0
132704,-100,4,2,0,92,0,0
144593,-100,4,2,1,92,0,0
146259,-100,4,2,1,92,0,1
147672,-100,4,1,1,50,0,1
148894,-100,4,2,1,92,0,1
150561,-100,4,1,1,50,0,1
150783,-100,4,2,1,92,0,1
151227,-100,4,1,1,50,0,1
151926,-100,4,1,1,76,0,1
152148,-100,4,1,1,50,0,1
153116,-100,4,2,1,92,0,1
154005,-100,4,1,1,50,0,1
154593,-100,4,1,1,89,0,1
154815,-100,4,1,1,50,0,1
155227,-100,4,2,1,92,0,1
155672,-100,4,1,1,50,0,1
156561,-100,4,2,0,92,0,1
158894,-100,4,1,1,50,0,1
159783,-100,4,2,1,92,0,1
160339,-100,4,2,1,92,0,0
160482,-100,4,2,0,92,0,1
161227,-100,4,1,1,50,0,1
162926,-100,4,2,1,81,0,1
163339,-100,4,2,1,92,0,1
163783,-100,4,1,1,50,0,1
165259,-100,4,2,1,79,0,1
165482,-100,4,1,1,50,0,1
167815,-100,4,1,1,75,0,1
168227,-100,4,2,1,92,0,1
169037,-100,4,1,1,50,0,1
170593,-100,4,1,1,75,0,1
170815,-100,4,1,1,50,0,1
171482,-100,4,1,1,83,0,1
171783,-100,4,2,1,85,0,1
172593,-100,4,2,1,100,0,1
174450,-100,4,1,1,50,0,1
174704,-100,4,1,1,100,0,0

[Colours]
Combo1 : 153,242,184
Combo2 : 255,166,210
Combo3 : 106,180,234
Combo4 : 247,157,145
Combo5 : 165,124,250

[HitObjects]
352,64,18259,2,0,B|408:0|472:88,2,120,4|8|0
232,64,19593,1,8
232,64,19815,2,2,B|184:168|304:144|256:232,1,180,2|8
168,304,20926,1,2
72,232,21371,1,8
168,160,21815,5,4
360,304,22704,2,0,B|416:352|488:304,1,120,2|8
472,256,23371,2,2,B|504:184|440:112|360:192,1,180
376,56,24482,2,0,B|240:56,2,120,2|8|4
366,175,25815,6,0,B|366:215|126:223|142:159,1,240,8|8
88,280,27148,6,0,B|64:320|96:360,2,60,2|0|2
208,280,28037,1,2
328,280,28482,2,0,B|352:248|320:208,2,60,8|2|4
128,152,29815,6,0,B|168:56|208:168,1,120,2|8
264,152,30482,2,0,B|400:152,2,120,4|2|8
200,152,31593,1,8
200,272,32037,2,0,B|232:240|272:328|320:256,1,120,2|4
176,72,33371,6,0,B|208:40|264:72|264:72|312:32|352:80|352:80,1,180,2|2
256,232,34704,1,8
256,232,34926,2,0,B|336:320|424:224,1,180,2|8
408,120,36037,1,2
288,120,36482,5,8
288,120,36704,2,0,C|232:80|184:112|144:64,1,180,2|8
40,128,37815,2,0,B|64:248|240:232,1,240,2|2
352,240,39148,2,0,B|440:240,2,60,8|0|2
160,344,40482,6,0,C|92:344|92:248|172:248,1,240,2|2
280,224,41815,1,8
280,224,42037,2,0,B|336:328|480:264|408:112,1,300,2|2
304,56,43593,5,8
208,128,44037,1,2
200,248,44482,5,8
200,248,44704,2,0,B|208:336|304:336|312:248,1,180,2|4
432,256,45815,1,4
496,360,46259,2,0,B|360:360,1,120,4|4
104,320,47593,6,0,B|112:256|176:288|168:216,1,120,2|8
168,168,48259,2,0,B|168:48|24:80,2,180,2|8|2
256,16,50259,5,2
320,120,50704,2,0,B|320:192,1,60,8|2
456,296,51593,2,8,C|488:240|453:192|488:152|445:96,2,240
336,328,53815,6,0,B|408:368,2,60,2|0|8
216,328,54704,1,2
216,328,54926,2,0,B|144:368|112:272,2,120,2|2|2
216,208,56259,2,0,C|272:144|336:216,1,180,2|8
448,240,57371,6,0,C|504:240|504:168,1,120,2|8
448,72,58259,2,0,C|392:72|392:144,1,120,2|8
272,136,59148,2,0,B|288:16|112:24|160:152,2,240,2|8|4
352,224,61371,6,0,B|360:312|440:320,1,120,8|0
480,216,62259,2,0,B|472:128|392:120,1,120,8|2
320,48,63148,1,8
208,80,63593,1,2
216,200,64037,5,8
336,168,64482,2,0,B|312:204|312:204|336:236|336:236|312:268|312:268|336:300|336:300|311:340|311:340|342:370|342:370,1,240,2|8
120,256,66259,5,2
216,184,66704,1,8
312,112,67148,1,2
416,48,67593,2,0,B|480:88|448:152,1,120,8|4
112,288,69371,5,8
112,288,69593,2,0,B|120:232|400:224|392:312,1,300,2|8
464,200,71148,1,8
376,112,71593,6,0,B|312:160|248:96,1,120,4|8
216,80,72259,2,0,B|160:0|72:56|160:144,1,180,4|8
136,184,73148,2,0,B|104:264|176:320|240:232,1,180,4|8
288,248,74037,2,0,B|360:248|392:160|344:112,1,180,4|8
248,56,75148,5,4
128,56,75593,2,0,B|64:176,1,120,8|0
160,248,76482,1,8
160,248,76704,1,2
280,248,77148,2,0,B|320:320,2,60,2|8|2
440,168,78259,5,8
352,88,78704,2,0,C|312:40|280:96,1,120,2|2
168,88,79593,2,0,C|112:112|128:176|64:200,1,180,2|2
80,312,80704,6,0,B|160:312,2,60,2|8|2
264,312,81815,1,8
384,312,82259,1,4
384,192,82704,6,0,B|488:96,2,120,8|0|8
320,192,83815,2,2,B|320:312|224:328,1,180
168,328,84704,2,2,B|76:312|76:192,1,180,2|8
80,72,85815,5,4
200,40,86259,1,8
320,72,86704,2,2,B|320:208,1,120
320,256,87371,1,8
432,216,87815,6,0,B|520:216,2,60,8|2|8
256,192,88926,1,8
256,192,89371,12,0,91148
104,80,104259,5,2
104,80,104482,2,0,B|168:120|152:208,1,120,0|8
160,240,105148,2,0,B|184:344|312:344|328:224,1,240,2|2
432,184,106482,1,2
320,40,107148,6,0,B|192:40,2,120,2|8|2
320,160,108482,1,8
320,280,108926,2,0,B|352:360|472:328|440:184,2,240,2|8|4
88,224,111593,5,2
88,104,112037,2,0,B|224:56,1,120,2|0
320,64,112926,1,2
320,64,113148,2,0,B|384:0|472:136|376:152,1,180,2|0
328,240,114259,5,2
208,240,114704,2,0,B|80:240,2,120,2|0|2
264,136,116037,1,2
328,32,116482,2,0,B|472:32,3,120,4|4|4|4
432,208,118482,6,0,B|328:240|288:96,1,180,2|8
240,120,119371,2,0,B|192:24|80:72,1,180,2|8
80,128,120259,2,0,B|8:224|112:296,1,180,2|8
216,288,121371,1,2
336,288,121815,1,8
336,288,122037,1,2
392,112,122704,6,0,B|472:56|536:128|488:248|392:176,2,240,8|8|8
272,112,124926,1,2
200,208,125371,1,8
272,304,125815,1,2
120,208,126482,6,0,B|48:192|64:88,2,120,2|2|2
240,72,128037,5,8
352,120,128482,2,0,B|488:160,1,120,2|8
464,272,129371,2,0,B|336:312,1,120,2|8
232,296,130259,2,0,B|130:362|6:223|78:48|273:78|285:199,1,480,2|4
400,152,132482,5,8
400,32,132926,2,0,B|136:32,1,240,2|2
56,96,134259,2,0,B|112:144|40:224,1,120,8|0
40,320,135148,5,8
160,320,135593,2,0,B|200:208|312:360|352:208,1,240,2|2
296,112,136926,1,8
184,64,137371,6,0,B|112:48|80:120,3,120,2|8|2|8
80,232,139148,2,0,B|104:304|176:240|176:240|232:304|280:240,1,240,4|2
344,344,140482,5,8
488,152,141371,1,8
288,16,142259,1,8
288,80,142482,1,8
288,136,142704,6,0,B|248:88|168:232|120:112,1,180,4|4
64,296,144037,1,8
64,296,144259,2,0,B|176:352|216:232,1,180,4|8
208,184,145148,2,0,B|208:80|328:72,1,180,4|8
440,72,146260,5,4
376,176,146704,2,0,B|368:256|456:248,2,120,8|0|8
312,176,147815,2,2,B|304:48|152:88|224:208,1,240
48,272,149371,5,8
48,152,149815,2,0,B|120:40,2,120,2|8|2
48,272,151148,1,8
48,272,151371,2,2,B|112:328|240:320,1,180,2|8
280,320,152260,2,2,B|385:327|449:271,1,180
424,152,153371,5,4
352,56,153815,1,8
280,152,154260,1,2
160,152,154704,2,0,B|72:152,1,60,8|2
112,328,155593,1,8
112,328,155815,2,2,B|224:344|296:312,1,180,2|8
360,216,156926,6,0,B|384:96|520:136|456:256,2,240,4|8|4
240,216,159148,1,2
120,216,159593,1,2
176,320,160037,1,8
296,320,160482,6,0,B|360:376|424:336|448:272|368:208,1,240,4|2
376,96,161815,1,8
376,96,162037,2,2,B|296:32|272:168|200:72,1,180
112,24,163148,1,8
40,120,163593,1,2
136,192,164037,6,0,B|72:304,2,120,2|2|2
256,192,165371,1,8
376,192,165815,2,2,B|520:176|488:360,2,240,2|2|4
376,72,168037,5,8
280,144,168482,1,2
192,224,168926,1,8
192,224,169148,2,2,B|216:120|144:120|80:168,1,180
48,272,170260,6,0,B|152:368,1,120,2|8
256,352,171148,1,4
368,312,171593,1,8
424,208,172037,6,2,B|448:136|376:96,1,120,4|8
352,56,172704,2,0,B|280:32|232:72|240:152,1,180,4|8
232,208,173593,2,0,B|200:280|128:272|96:200,1,180,4|8
40,96,174704,1,4
