osu file format v8

[General]
AudioFilename: Hatsune Miku - Ame Nochi (Sweet Drops).mp3
AudioLeadIn: 0
PreviewTime: 74926
Countdown: 1
SampleSet: Soft
StackLeniency: 0.7
Mode: 0
LetterboxInBreaks: 0

[Editor]
DistanceSpacing: 1
BeatDivisor: 4
GridSize: 8

[Metadata]
Title:Sweet*Drops After the Rain
Artist:Hatsune Miku
Creator:Yes
Version:Hard
Source:OSTER project
Tags:vocaloid FutanariP Project Diva ame nochi

[Difficulty]
HPDrainRate:5
CircleSize:3
OverallDifficulty:5
ApproachRate:5
SliderMultiplier:1.5
SliderTickRate:2

[Events]
//Background and Video events
0,0,"bg.png"
//Break Periods
2,91348,103059
//Storyboard Layer 0 (Background)
//Storyboard Layer 1 (Fail)
//Storyboard Layer 2 (Pass)
//Storyboard Layer 3 (Foreground)
Sprite,Foreground,Centre,"rain2.png",320,240 S,0,91148,,1.01024 F,0,91148,93148,0,0.75424 M,0,91148,104037,318,-266,324,199 F,0,93148,103371,0.75424,1 F,0,103371,,1 F,0,103371,104037,1,0.02702701 F,0,103371,104037,1,0
Sprite,Foreground,Centre,"rains.png",320,240 S,0,91148,,0.8054402 F,0,91148,93148,0,1 M,0,91148,103593,320,63,324,215 F,0,93148,103148,1 F,0,103148,103593,1,0 F,0,103148,103593,1,0
//Storyboard Sound Samples
//Background Colour Transformations
3,100,163,162,255

[TimingPoints]
2260,444.444444444444,4,2,0,100,1,0
18334,-100,4,2,1,77,0,0
19633,-100,4,1,1,77,0,0
20300,-100,4,2,1,76,0,0
22334,-100,4,1,1,76,0,0
22556,-100,4,2,1,76,0,0
23222,-100,4,1,1,76,0,0
23445,-100,4,1,1,70,0,0
25188,-100,4,2,1,74,0,0
27000,-100,4,1,1,74,0,0
28334,-100,4,2,1,74,0,0
28556,-100,4,1,1,74,0,0
28778,-100,4,2,1,81,0,0
31778,-100,4,2,0,81,0,0
32855,-100,4,2,1,81,0,0
33926,-100,4,2,0,81,0,0
36179,-100,4,2,1,81,0,0
36371,-100,4,2,0,81,0,0
45222,-100,4,2,1,63,0,0
46556,-100,4,2,0,50,0,0
46926,-100,4,2,1,80,0,0
48148,-100,4,2,0,80,0,0
53926,-100,4,2,1,80,0,0
54148,-100,4,2,0,80,0,0
57482,-100,4,2,1,80,0,0
58704,-100,4,2,0,80,0,0
59450,-100,4,2,1,71,0,0
61111,-100,4,2,1,91,0,0
62371,-100,4,2,0,91,0,0
63482,-100,4,2,1,91,0,0
69482,-100,4,2,0,91,0,0
70815,-100,4,2,1,91,0,0
72148,-100,4,2,0,91,0,0
72593,-100,4,2,1,91,0,0
73037,-100,4,2,0,91,0,0
73926,-100,4,2,1,91,0,0
75148,-100,4,2,1,91,0,1
76556,-100,4,1,1,49,0,1
77222,-100,4,2,0,91,0,1
78556,-100,4,1,1,49,0,1
78778,-100,4,2,1,65,0,1
79000,-100,4,1,1,49,0,1
79222,-100,4,2,1,65,0,1
79445,-100,4,1,1,49,0,1
79889,-100,4,1,1,91,0,1
80111,-100,4,1,1,49,0,1
80778,-100,4,2,1,91,0,1
81000,-100,4,1,1,49,0,1
82334,-100,4,2,0,91,0,1
83667,-100,4,1,1,49,0,1
84334,-100,4,2,0,91,0,1
84556,-100,4,1,1,49,0,1
84769,-100,4,2,1,91,0,1
85000,-100,4,1,1,49,0,1
85222,-100,4,2,1,91,0,1
85445,-100,4,1,1,60,0,1
87037,-100,4,1,1,78,0,1
87259,-100,4,2,1,82,0,1
87889,-100,4,2,1,98,0,1
88556,-100,4,1,1,49,0,1
89222,-100,4,2,1,25,0,1
91148,-100,4,1,1,67,0,0
103778,-100,4,2,1,79,0,0
105037,-100,4,2,0,79,0,0
108148,-100,4,2,1,79,0,0
108371,-100,4,2,0,79,0,0
110556,-100,4,2,1,45,0,0
110778,-100,4,2,1,45,0,0
112148,-100,4,2,0,45,0,0
114111,-100,4,2,1,56,0,0
114445,-100,4,2,1,63,0,0
114889,-100,4,2,1,71,0,0
116778,-100,4,2,1,87,0,0
117222,-100,4,2,1,94,0,0
117445,-100,4,2,1,88,0,0
117889,-100,4,2,1,79,0,0
119259,-100,4,2,0,79,0,0
124815,-100,4,2,1,79,0,0
126371,-100,4,2,0,79,0,0
127482,-100,4,2,1,79,0,0
130148,-100,4,2,0,79,0,0
130371,-100,4,2,1,79,0,0
133482,-100,4,2,0,79,0,0
134593,-100,4,2,1,79,0,0
140815,-100,4,2,0,79,0,0
142148,-100,4,2,1,79,0,0
146260,-100,4,2,1,79,0,1
147667,-100,4,1,1,49,0,1
148334,-100,4,2,1,79,0,1
148557,-100,4,1,1,49,0,1
149222,-100,4,2,1,79,0,1
150556,-100,4,1,1,49,0,1
151037,-100,4,1,1,78,0,1
151259,-100,4,1,1,49,0,1
151889,-100,4,2,1,79,0,1
152111,-100,4,1,1,49,0,1
153222,-100,4,2,1,79,0,1
154778,-100,4,1,1,49,0,1
155445,-100,4,2,1,77,0,1
156778,-100,4,1,1,63,0,1
157445,-100,4,1,1,79,0,1
157667,-100,4,1,1,68,0,1
158148,-100,4,2,0,89,0,1
158371,-100,4,1,1,51,0,1
159037,-100,4,2,1,74,0,1
159259,-100,4,1,1,51,0,1
159889,-100,4,2,1,68,0,1
160339,-100,4,2,1,79,0,0
160482,-100,4,2,1,61,0,1
160778,-100,4,2,1,76,0,1
161222,-100,4,1,1,51,0,1
161667,-100,4,2,1,72,0,1
161889,-100,4,1,1,47,0,1
162593,-100,4,1,1,73,0,1
162815,-100,4,1,1,47,0,1
163445,-100,4,2,1,75,0,1
163889,-100,4,1,1,51,0,1
164778,-100,4,1,1,51,0,1
165222,-100,4,2,1,75,0,1
165445,-100,4,1,1,49,0,1
166111,-100,4,2,1,72,0,1
166334,-100,4,1,1,49,0,1
167222,-100,4,1,1,49,0,1
167926,-100,4,1,1,76,0,1
168111,-100,4,1,1,49,0,1
168815,-100,4,1,1,76,0,1
169000,-100,4,1,1,49,0,1
169667,-100,4,2,1,76,0,1
169889,-100,4,1,1,49,0,1
170593,-100,4,1,1,74,0,1
170778,-100,4,1,1,61,0,1
171371,-100,4,1,1,74,0,1
172111,-100,4,2,1,84,0,1
174556,-100,4,1,1,100,0,1
174704,-100,4,1,1,100,0,0

[Colours]
Combo1 : 153,242,184
Combo2 : 255,166,210
Combo3 : 106,180,234
Combo4 : 247,157,145
Combo5 : 165,124,250

[HitObjects]
184,64,18260,2,0,B|216:24|288:112|328:56,2,150,4|8|0
40,112,19593,1,8
40,112,19815,2,2,B|0:224|96:240,1,150
152,240,20482,2,0,B|256:240,2,75,8|2|0
304,240,21371,2,0,B|344:184|392:192|392:280,2,150,8|4|8
152,240,22704,6,0,B|152:344,2,75,0|2|8
152,88,23593,2,2,B|240:88,1,75,2|0
304,88,24037,2,2,B|408:88,2,75
296,240,24926,2,0,B|232:288,2,75,10|2|4
448,240,25815,5,8
368,112,26259,2,0,B|440:40|496:120,2,150,2|8|2
216,112,27593,1,8
152,144,27815,1,2
88,176,28037,1,2
88,328,28482,2,0,B|-8:328,2,75,8|2|4
240,328,29371,5,8
304,288,29593,1,2
368,256,29815,2,0,B|424:296|496:224|416:160,1,150,0|8
432,112,30482,6,0,B|376:72|304:144|384:208,1,150,4|2
208,168,31371,1,2
208,168,31593,1,2
296,48,32037,2,0,B|216:-16|144:64,1,150,0|4
64,240,33148,5,2
64,240,33371,2,0,B|0:224|-8:136|88:144,1,150,0|8
144,144,34037,2,0,B|208:32|240:160,1,150,2|2
312,152,34704,1,8
312,152,34926,2,0,B|304:48|224:16,2,150,2|2|2
312,224,36037,6,0,B|304:328|224:360,1,150,0|8
168,352,36704,1,2
64,240,37148,2,0,B|88:208|144:216,1,75,2|8
208,208,37593,2,0,B|296:240|344:160,1,150,2|2
360,96,38259,5,8
472,192,38704,1,2
360,296,39148,2,0,B|392:352|440:344,2,75,8|0|2
256,192,40037,1,8
120,256,40482,6,0,B|176:352,2,75,2|0|8
80,192,41148,2,0,B|16:120|88:56,1,150,2|2
152,64,41815,1,8
224,64,42037,2,0,B|296:8|376:72,1,150,2|2
440,72,42704,1,8
352,192,43148,6,0,B|360:240|424:248,2,75,0|2|8
168,192,44037,2,0,B|160:240|96:248,2,75,0|2|8
232,152,44704,1,2
256,192,45148,12,4,46704
72,208,47371,5,2
72,136,47593,2,0,B|88:80|192:80|192:168,1,150,0|8
264,144,48259,2,0,B|280:200|384:200|384:112,1,150,2|2
456,144,48926,1,8
432,216,49148,2,0,B|376:280|272:264,2,150,2|2|2
472,280,50259,5,2
320,280,50704,1,8
320,280,50926,1,2
400,152,51371,5,2
336,104,51593,1,8
272,56,51815,2,0,B|104:56,2,150,2|2|2
160,152,53148,6,0,B|104:152|88:192,2,75,2|8|8
184,224,53815,2,0,B|280:256|288:144,1,150,0|8
384,40,54704,1,2
384,40,54926,1,2
472,160,55371,2,0,B|440:208|512:240|464:320,2,150,2|2|2
320,152,56704,2,0,B|320:56,2,75,2|8|2
248,152,57371,6,0,B|208:80|160:96|128:176,1,150,0|8
184,288,58259,2,0,B|280:288,1,75,0|2
336,288,58704,1,8
408,288,58926,2,0,B|472:264|464:136,1,150,2|2
408,112,59593,6,0,B|360:80|320:136,1,75,4|0
280,160,60037,2,0,B|280:200|216:224,1,75,4|2
160,240,60482,2,0,B|120:288|160:328,2,75,4|2|4
88,112,61371,5,8
160,112,61593,1,0
232,112,61815,2,0,B|232:24,2,75,2|0|8
224,184,62482,2,0,B|128:264|240:304,2,150,2|2|2
296,184,63593,2,0,B|392:104|280:64,1,150,0|8
168,144,64482,6,0,B|64:144,2,75,0|2|8
344,240,65371,2,0,B|448:240,2,75,0|2|8
216,320,66259,2,0,B|136:296|64:360,2,150,0|8|0
368,328,67593,1,8
288,200,68037,6,0,B|384:120|400:256,1,150,4|8
288,200,68926,2,0,B|192:280|176:144,1,150,2|8
168,96,69593,2,0,B|96:104|80:176|128:240,1,150,2|2
128,280,70259,1,8
192,320,70482,2,0,B|440:320,1,225,2|8
298,188,71593,6,0,B|258:129|321:77|362:156,1,150,4|8
421,108,72259,2,0,B|380:56|341:37|309:36|274:48|244:62|232:89,1,225,4|8
228,163,73148,2,0,B|224:231|132:236|129:147,1,150,4|2
128,96,73815,1,8
56,120,74037,2,0,C|32:152|56:192|24:216|56:248|24:280|56:288,1,225,4|8
120,352,75148,6,0,B|80:296|160:224|200:272,1,150,4|8
192,112,76037,2,0,B|192:24,2,75,2|2|8
264,120,76704,2,2,B|264:216|360:224,1,150
424,240,77371,1,8
352,224,77593,2,0,B|280:208|208:304,1,150,2|2
223,284,78259,1,8
80,224,78704,6,0,B|32:80,2,150,2|2|2
232,224,80037,5,8
304,200,80259,2,2,B|344:144|448:168,1,150
512,184,80926,1,8
456,232,81148,2,2,B|400:288|304:264,1,150
240,264,81815,2,0,B|184:352,2,75,2|0|4
112,192,82704,5,8
112,40,83148,1,2
240,120,83593,1,8
240,120,83815,2,2,C|280:112|328:144|392:120,1,150
448,136,84482,1,8
448,136,84704,2,0,B|496:192|448:288,1,150,2|2
432,352,85371,1,8
288,312,85815,6,2,B|272:360|192:320,2,75,2|0|2
216,184,86704,2,2,B|200:136|120:176,2,75,2|2|8
272,128,87371,6,0,B|288:24|376:40,1,150,4|2
352,112,88037,1,8
424,96,88259,2,0,B|408:216|304:176,1,150,4|2
328,256,88926,1,0
256,192,89371,12,0,91148
296,48,104259,5,2
296,48,104482,2,0,B|232:56|248:144|256:160|312:152,1,150,0|8
368,160,105148,2,0,B|432:168|416:256|408:272|352:264,1,150,2|2
296,264,105815,1,8
296,264,106037,2,0,B|120:264,1,150,2|2
146,264,106704,1,8
80,128,107148,6,0,B|64:80|8:72,2,75,2|0|8
152,128,107815,2,0,B|144:48|240:-8|296:104,1,225,2|8
360,144,108704,2,0,B|392:216|320:232|376:304,1,150,2|2
288,296,109371,2,0,B|280:240|224:224,1,75,8|2
184,272,109815,2,0,B|160:240|112:248,1,75,0|2
80,312,110259,2,0,B|40:312|32:368,2,75,8|0|4
144,96,111371,5,2
144,96,111593,2,0,B|192:32|288:40,1,150
288,112,112259,2,0,B|304:192|416:184,1,150,2|2
464,224,112926,1,0
400,256,113148,2,0,B|301:248|285:328,1,150,2|2
208,328,113815,6,0,B|120:328,2,75,2|0|2
144,192,114704,1,2
280,136,115148,1,2
336,272,115593,1,2
336,272,115815,2,0,B|360:328|488:304|464:240,1,150
464,192,116482,5,4
464,120,116704,2,0,B|288:64|424:64|224:128,1,225,2|4
256,272,117815,1,4
256,120,118259,6,0,B|208:64|152:56|96:96,1,150,8|0
88,224,119148,1,8
88,224,119371,2,0,B|24:288|88:368,1,150,2|2
152,360,120037,1,8
152,360,120259,2,0,B|328:360,1,150,2|2
304,208,121148,5,2
304,136,121371,2,0,B|304:40,3,75,0|2|8|2
448,120,122482,5,2
480,192,122704,1,8
440,256,122926,2,0,B|376:360|344:232,2,150,2|2|2
480,192,124037,5,0
448,120,124259,1,0
416,48,124482,2,0,B|328:48,1,75,8|8
264,40,124926,6,0,B|224:136|288:112|248:208,1,150,0|8
248,336,125815,2,0,B|312:368|360:280|320:224,1,150,0|8
256,264,126482,2,0,B|192:232|144:320|184:376,2,150,2|2|2
328,248,127593,2,0,B|312:152|352:128|320:72,1,150,0|8
184,88,128482,6,0,B|112:32,2,75,2|0|8
184,232,129371,2,0,B|256:296,2,75,2|0|8
112,232,130037,2,0,B|24:264|48:40,1,225,2|4
200,56,131148,1,4
352,56,131593,2,0,B|440:56,2,75,4|2|4
200,56,132482,5,8
272,184,132926,2,0,B|272:272,2,75,2|0|8
344,184,133593,2,0,B|440:192|416:88,2,150,2|2|2
272,184,134704,2,0,B|176:208|288:272|160:296,1,150,0|8
168,144,135593,6,0,B|168:64,2,75,0|2|8
344,240,136482,2,0,B|344:320,2,75,0|2|8
400,112,137371,5,2
248,112,137815,1,2
96,112,138259,2,0,B|56:152|104:184,1,75,2|0
112,248,138704,2,0,B|136:296|112:328,1,75,8|8
48,344,139148,2,0,B|-16:304|16:176,2,150,4|8|0
200,344,140482,5,8
200,344,140704,2,0,B|272:368|232:240|312:272,1,150,2|2
384,272,141371,1,8
384,272,141593,2,0,B|456:296|416:168|496:200,1,150,2|2
488,120,142259,2,0,B|488:32|400:48|368:104,1,150,8|4
232,80,143148,5,8
160,112,143371,2,0,B|120:72|80:104|48:152|40:160,1,150,4|0
32,232,144037,1,8
32,304,144259,2,0,B|88:344|136:280|192:320,1,150,4|0
256,312,144926,1,8
328,288,145148,2,0,C|344:232|408:224|424:176|472:160,1,225,4|8
448,88,146037,6,0,B|408:56|360:96,1,75,2|4
256,168,146704,2,0,B|256:328,2,150,8|0|8
216,104,147815,2,2,B|160:24|72:64,1,150
11,68,148482,1,8
61,123,148704,2,2,B|101:195|205:171,1,150
264,176,149371,6,0,B|352:176,2,75,8|2|4
264,328,150260,1,2
264,176,150704,6,2,B|176:176,2,75,2|2|8
264,248,151371,2,2,B|336:320|392:248,1,150
456,208,152037,1,8
392,176,152260,2,2,B|320:104|264:176,1,150
200,208,152926,2,2,B|112:208,2,75,2|2|4
96,96,153815,6,0,B|160:120|248:96,1,150,8|0
320,104,154482,2,0,B|408:104,1,75,2|8
472,104,154926,2,2,B|464:200|368:184,1,150,2|2
328,248,155593,1,8
368,312,155815,1,2
136,184,156260,5,2
176,120,156482,1,8
136,56,156704,1,8
136,56,156926,2,2,B|88:144|64:16|0:128,1,150
64,256,157815,6,2,B|96:328,1,75
168,352,158260,1,8
240,352,158482,2,2,B|312:368|344:280|296:240,1,150
312,184,159148,1,8
240,184,159371,2,2,B|168:200|136:112|184:72,1,150
248,88,160037,6,0,B|424:88,2,150,8|4|8
96,88,161371,1,2
96,232,161815,1,8
96,304,162037,2,2,B|208:328|200:200,1,150
272,232,162704,5,8
272,304,162926,2,2,B|384:328|376:200,1,150
376,160,163593,2,0,B|376:72,1,75,8|8
304,80,164037,2,0,B|232:40|144:88,2,150,2|2|2
304,232,165371,5,8
304,232,165593,2,2,B|400:264|456:224,1,150
472,160,166260,1,8
440,96,166482,2,2,B|400:48|336:128|288:80,1,150
224,80,167148,6,0,B|168:80|144:128,2,75,2|0|4
224,232,168037,1,8
376,232,168482,2,0,B|464:176,2,75,2|0|8
376,304,169148,2,2,B|352:368|264:360|272:288,1,150
200,304,169815,1,8
128,296,170037,2,2,C|112:256|64:264|56:224|8:224|16:168,1,225,2|8
184,136,171148,5,4
336,136,171593,1,8
256,264,172037,1,4
256,264,172260,1,0
256,264,172482,1,8
256,264,172704,6,0,B|296:392|336:256,1,150,4|2
408,264,173371,1,8
408,264,173593,2,0,B|448:392|488:256,1,150,4|2
488,192,174260,2,0,B|488:32,1,150,8|4
