osu file format v9

[General]
AudioFilename: __PV.mp3
AudioLeadIn: 0
PreviewTime: 66125
Countdown: 0
SampleSet: Normal
StackLeniency: 0.7
Mode: 0
LetterboxInBreaks: 1

[Editor]
Bookmarks: 11213,16135,35900,56291,96125,106135
DistanceSpacing: 1.5
BeatDivisor: 4
GridSize: 8

[Metadata]
Title:Subarashii Sekai
Artist:Hatsune Miku
Creator:val0108
Version:S.S
Source:Vocaloid
Tags:pinokioP

[Difficulty]
HPDrainRate:6
CircleSize:4
OverallDifficulty:7
ApproachRate:9
SliderMultiplier:2.2
SliderTickRate:1

[Events]
//Background and Video events
0,0,"cfvgb.png"
//Break Periods
2,86325,95525
//Storyboard Layer 0 (Background)
//Storyboard Layer 1 (Fail)
//Storyboard Layer 2 (Pass)
//Storyboard Layer 3 (Foreground)
//Storyboard Sound Samples
//Background Colour Transformations
3,100,163,162,255

[TimingPoints]
1125,312.5,4,1,1,67,1,0
15728,-100,4,2,0,67,0,0
15884,-100,4,1,1,67,0,0
36046,-100,4,2,1,67,0,0
40734,-100,4,1,1,67,0,0
41359,-100,4,2,1,67,0,0
44953,-100,4,1,1,67,0,0
46046,-100,4,2,1,67,0,0
50734,-100,4,1,1,67,0,0
51203,-100,4,2,1,67,0,0
53234,-100,4,1,1,67,0,0
53546,-100,4,2,1,67,0,0
56046,-100,4,1,1,67,0,0
64796,-100,4,2,0,67,0,0
65421,-200,4,2,0,67,0,0
65734,-200,4,2,0,0,0,0
65890,-200,4,1,1,74,0,0
66125,-100,4,1,1,73,0,1
73625,-100,4,1,1,73,0,0
76125,-100,4,1,1,73,0,1
86125,-100,4,1,1,100,0,0
97296,-100,4,2,0,100,0,0
98546,-100,4,1,1,100,0,0
99796,-100,4,2,0,100,0,0
101046,-100,4,1,1,100,0,0
102296,-100,4,2,0,100,0,0
103234,-100,4,1,1,100,0,0
104796,-100,4,2,0,100,0,0
105578,-100,4,1,1,100,0,0
115421,-100,4,2,0,100,0,0
117921,-200,4,2,0,100,0,0
118234,-200,4,1,1,100,0,0
118625,-100,4,1,1,71,0,1
126125,-100,4,1,1,71,0,0
128625,-100,4,1,1,71,0,1
136125,-100,4,1,1,71,0,0
138625,-100,4,1,1,71,0,1
158625,-100,4,1,1,72,0,0
159796,-100,4,2,0,72,0,0
167453,-100,4,1,1,72,0,0

[Colours]
Combo1 : 0,255,255
Combo2 : 255,255,255
Combo3 : 255,128,192

[HitObjects]
88,56,11125,1,0
88,56,11281,1,0
120,137,11437,2,0,B|152:209,4,55
256,192,12062,5,8
424,56,12375,5,0
424,56,12531,1,0
391,137,12687,2,0,B|359:209,4,55
256,192,13312,5,8
88,336,13625,5,0
88,336,13781,1,0
117,253,13937,2,0,B|149:181,4,55
256,192,14562,5,8
424,336,14875,5,0
424,336,15031,1,0
394,253,15187,2,0,B|362:181,4,55
256,192,15812,5,2
112,312,16125,5,0
88,224,16281,2,0,B|88:160|136:112,1,110,0|8
176,192,16593,1,0
192,152,16671,1,0
224,120,16750,1,0
272,192,16906,1,0
334,254,17062,2,0,B|398:246,2,55,8|0|0
328,72,17375,6,0,B|272:24|200:64,2,110,0|0|8
408,104,17843,1,0
472,168,18000,1,0
409,230,18156,1,0
369,254,18234,1,0
329,262,18312,1,8
243,241,18468,1,0
416,280,18625,6,0,B|304:280,1,110
224,311,18937,1,8
184,329,19015,1,0
140,336,19093,1,0
160,248,19250,5,0
123,168,19406,1,0
98,252,19562,1,8
72,288,19640,1,0
40,319,19718,1,0
168,192,19875,6,0,B|115:158|108:85,1,110
185,57,20187,2,0,B|237:90|303:85,1,110,8|0
352,148,20500,2,0,B|386:103,3,55
351,147,20812,1,8
374,170,20890,1,0
392,197,20968,1,0
406,226,21046,1,0
402,258,21125,6,0,B|362:290|290:314,1,110,8|0
112,203,21437,2,0,B|152:171|224:147,1,110,8|0
352,240,21750,1,8
264,240,21906,1,0
264,240,21984,1,0
264,240,22062,1,8
252,328,22218,1,0
184,272,22375,5,0
112,320,22531,1,0
112,320,22609,1,0
112,320,22687,1,8
80,240,22843,1,0
80,151,23000,2,0,B|56:103,2,55
166,151,23312,2,0,B|200:104,2,55,8|0|0
256,192,23625,12,0,25812
240,208,26125,6,0,B|288:232|344:240,1,110
344,152,26437,1,8
344,112,26515,1,0
320,72,26593,1,0
232,64,26750,1,0
138,157,26906,1,0
232,64,27062,1,8
138,157,27218,1,0
104,320,27375,5,0
184,352,27531,1,0
227,352,27609,1,0
270,352,27687,1,8
332,289,27843,1,0
232,280,28000,5,0
248,152,28156,1,0
128,208,28312,1,8
97,79,28468,1,0
176,40,28625,5,0
263,40,28781,1,0
306,40,28859,1,0
349,40,28937,1,8
435,60,29093,1,0
480,136,29250,6,0,B|456:256,1,110
341,127,29562,2,0,B|312:256,1,110,8|0
32,136,29875,2,0,B|56:256,1,110
171,127,30187,2,0,B|200:256,1,110,8|0
256,336,30500,5,0
256,303,30578,1,0
256,270,30656,1,0
256,237,30734,1,0
256,204,30812,1,8
256,171,30890,1,0
256,138,30968,1,0
256,105,31046,1,0
256,71,31125,6,0,B|208:48|208:48|152:48,1,110
72,192,31437,2,0,B|48:240,2,55,8|0|0
88,104,31750,1,0
150,220,31906,1,0
212,103,32062,1,8
212,103,32140,1,0
212,103,32218,1,0
300,103,32375,5,0
379,140,32531,1,0
419,218,32687,1,8
419,261,32765,1,0
395,298,32843,1,0
308,316,33000,2,0,B|244:348,2,55
276,233,33312,2,0,B|220:233,2,55,8|0|0
256,192,33625,12,0,35968
80,80,36125,5,2
168,64,36281,1,2
256,80,36437,1,2
344,64,36593,1,2
344,64,36906,5,0
416,112,37062,1,10
344,64,37218,1,2
336,152,37375,2,2,B|272:168|216:160,2,110
416,112,37843,1,2
416,112,38000,2,0,B|488:176|488:336,1,220,2|10
72,240,38625,6,2,B|136:128,1,110
203,102,38937,2,2,B|147:214,1,110,0|2
168,288,39250,2,2,B|224:168,2,110
168,288,39718,1,0
254,308,39875,5,0
254,308,40031,1,2
337,279,40187,1,0
337,279,40343,1,2
343,191,40500,2,0,B|335:127|335:127|303:95,1,110
232,40,40812,1,8
145,56,40968,1,0
72,104,41125,2,0,B|72:240,1,110
136,152,41437,6,2,B|248:152,1,110
334,152,41750,1,2
400,216,41906,2,2,B|400:328,1,110,0|8
469,227,42218,5,2
325,227,42375,1,2
325,84,42531,1,2
467,84,42687,1,2
400,234,42843,1,0
400,145,43000,2,0,B|400:9,1,110
400,35,43312,1,10
119,278,43625,6,2,B|175:318|223:326,1,110
192,240,43937,2,2,B|136:192|56:184,1,110
168,142,44250,2,2,B|224:166|264:198,2,110,0|2|10
86,109,44718,2,0,B|142:45|230:13|326:45,1,220,0|8
283,36,45187,1,8
456,56,45500,5,8
456,56,45578,1,8
456,56,45656,2,0,B|472:96|440:120|464:168,1,110,8|0
462,163,45968,1,8
352,280,46125,6,2,B|368:240|320:216|344:168,2,110,0|2|2
297,350,46593,1,0
233,289,46750,2,0,B|89:289,2,110,0|0|10
170,226,47218,1,2
112,160,47375,5,2
240,56,47531,1,2
240,220,47687,1,2
376,127,47843,1,2
376,292,48000,2,2,B|456:220|456:220|472:92,1,220,0|8
104,48,48625,5,2
172,104,48781,1,2
136,184,48937,1,2
67,130,49093,1,2
40,216,49250,1,0
40,216,49406,2,2,B|80:264|136:296,1,110
196,240,49718,1,2
176,152,49875,6,10,B|160:88|168:40,2,110,0|0|0
260,176,50343,2,10,B|320:128|352:80,2,110,0|0|0
197,238,50812,1,8
165,269,50890,1,0
141,310,50968,1,0
172,341,51046,1,0
216,341,51125,1,0
278,281,51281,6,2,B|326:337|326:337|366:337,2,110
362,256,51750,1,2
432,312,51906,2,2,B|440:248|416:200,2,110,0|8|0
361,256,52375,2,0,B|345:176|329:136,1,110,2|2
271,211,52687,2,0,B|255:131|231:83,1,110,2|2
178,167,53000,2,0,B|162:87|145:40,1,110,2|2
89,122,53312,1,8
79,79,53390,1,0
69,36,53468,1,0
112,192,53625,6,0,B|144:256|176:304,2,110,2|2|2
200,176,54093,1,2
264,112,54250,1,2
286,27,54406,2,2,B|357:63|389:88,2,110,0|8|0
256,192,54875,12,0,56125
400,216,56281,5,0
448,144,56437,1,8
400,72,56593,2,0,B|280:72,1,110
145,153,56906,1,0
112,72,57062,1,8
200,72,57218,1,0
260,137,57375,6,0,B|492:137,1,220,0|8
464,224,57843,2,0,B|240:224,1,220
155,224,58312,1,8
73,257,58468,1,0
114,336,58625,6,0,B|224:336,1,110,4|0
398,336,58937,2,0,B|288:336,1,110,12|0
87,255,59250,6,0,B|197:255,1,110,4|0
422,255,59562,2,0,B|312:255,1,110,12|0
90,177,59875,5,0
256,96,60031,1,0
422,177,60187,1,8
272,264,60343,2,0,B|288:184|240:136|272:24,1,220
267,45,60734,1,8
267,45,60812,1,8
267,45,60890,1,8
267,45,60968,1,8
267,45,61046,1,8
267,45,61125,6,0,B|203:45|203:45|163:85,1,110
19,146,61437,1,8
184,144,61593,1,0
94,283,61750,1,0
184,280,61906,1,0
226,269,61984,1,0
257,237,62062,2,0,B|273:173|273:173|321:117,1,110,8|0
336,232,62375,6,0,B|384:264|384:264|424:320,1,110
480,248,62687,1,8
480,160,62843,1,0
480,71,63000,2,0,B|408:56|344:120|248:80,1,220,0|8
256,256,63625,5,0
193,193,63781,1,0
255,130,63937,1,8
317,192,64093,1,0
256,256,64250,1,0
361,256,64406,5,0
256,129,64562,1,8
152,256,64718,1,0
256,360,64875,6,2,B|200:360,3,55
256,360,65187,2,2,B|328:360,3,55
256,360,65500,6,0,B|280:304|224:280|264:240,1,110,4|0
112,40,66125,6,0,B|80:96|80:152,1,110,0|8
128,216,66437,2,0,B|176:264,2,55,0|0|8
216,192,66750,5,0
208,24,66906,1,8
312,152,67062,1,0
152,112,67218,1,8
307,53,67375,6,0,B|371:53|411:117,1,110,0|8
448,176,67687,1,0
376,224,67843,1,8
421,300,68000,1,0
352,240,68156,1,8
304,168,68312,1,0
323,253,68468,1,8
304,88,68625,6,0,B|256:64|184:64,1,110,0|8
59,154,68937,2,0,B|108:180|179:178,1,110,0|8
296,280,69250,2,0,B|248:304|176:304,1,110,0|8
346,253,69562,2,0,B|370:205|370:133,1,110,0|8
288,224,69875,5,0
208,208,70031,1,8
264,144,70187,1,0
176,208,70343,1,8
248,112,70500,1,0
216,80,70578,1,0
176,61,70656,1,8
132,61,70734,1,0
91,78,70812,1,8
59,109,70890,1,8
37,147,70968,1,8
28,190,71046,1,8
40,232,71125,6,0,B|80:288|160:240,1,110,0|8
120,168,71437,1,0
212,304,71593,1,8
182,140,71750,1,0
271,278,71906,1,8
244,116,72062,1,0
332,254,72218,1,8
384,336,72375,5,0
312,288,72531,1,8
392,248,72687,1,0
384,336,72843,5,8
400,172,72999,1,0
250,240,73155,1,8
384,336,73312,1,0
384,336,73390,1,0
384,336,73468,1,8
256,192,73625,12,0,75812
320,56,76125,6,0,B|392:64|432:112,1,110,0|8
368,168,76437,2,0,B|336:216,2,55,0|0|8
224,88,76750,5,0
256,248,76906,1,8
173,216,77062,1,0
195,178,77140,1,0
235,161,77218,1,8
344,208,77375,6,0,B|384:256|384:320,1,110,0|8
312,352,77687,1,0
224,376,77843,1,8
320,328,78000,1,0
200,368,78156,1,8
328,312,78312,1,0
176,360,78468,1,8
104,312,78625,6,0,B|56:208,1,110,0|8
109,138,78937,1,0
256,63,79093,1,8
405,138,79250,1,0
157,138,79406,5,8
257,96,79562,1,0
357,138,79718,1,8
256,272,79875,5,0
256,184,80031,1,8
256,272,80188,1,0
256,184,80344,1,8
120,232,80500,5,0
256,328,80656,1,8
392,232,80812,1,0
256,136,80968,1,8
88,312,81281,5,8
88,312,81359,1,0
88,312,81437,1,0
175,312,81593,1,8
160,224,81750,2,0,B|120:176|120:176|104:120,1,110,0|8
352,160,82062,2,0,B|392:208|392:208|408:264,1,110,0|8
256,136,82375,6,0,B|256:248,2,110,0|8|0
256,48,82843,1,8
112,192,83000,1,0
256,336,83156,1,8
400,192,83312,1,0
256,192,83468,5,8
256,192,83625,12,0,86125
120,136,96125,5,0
120,136,96281,1,0
80,304,96593,1,0
165,327,96750,2,0,B|285:327,1,110
360,304,97062,5,0
80,304,97218,1,0
278,260,97375,6,2,B|168:260,1,110
168,172,97687,2,2,B|278:172,1,110
392,64,98625,5,0
392,64,98781,1,0
216,64,99093,1,0
133,95,99250,2,0,B|253:95,1,110
320,136,99562,2,0,B|192:136,1,110
104,192,99875,5,2
256,320,100031,1,2
408,192,100187,1,2
256,64,100343,1,2
392,248,101125,5,0
392,248,101281,1,0
432,80,101593,1,0
347,53,101750,2,0,B|227:53,1,110
152,80,102062,5,0
432,80,102218,1,0
237,120,102375,6,2,B|347:120,1,110
347,208,102687,2,2,B|237:208,1,110
121,209,103312,6,0,B|121:329,1,110
121,319,103625,5,0
121,319,103781,1,0
296,320,104093,1,0
376,288,104250,2,0,B|256:288,1,110
192,248,104562,2,0,B|320:248,1,110
408,192,104875,5,2
256,64,105031,1,2
104,192,105187,1,2
256,320,105343,1,2
256,143,105656,5,8
256,143,105734,1,8
256,143,105812,1,8
96,64,106125,5,0
56,144,106281,2,0,B|56:256,1,110,0|8
112,320,106593,1,0
181,265,106750,1,0
112,320,106906,5,0
240,216,107062,1,8
293,60,107218,1,0
416,64,107375,5,0
456,144,107531,2,0,B|456:256,1,110,0|8
400,320,107843,1,0
329,266,108000,1,0
400,320,108156,5,0
271,215,108312,1,8
218,58,108468,1,0
216,144,108625,6,0,B|216:280,1,110
288,304,108937,2,0,B|288:176,1,110,8|0
288,16,109250,6,0,B|288:152,1,110
216,368,109562,2,0,B|216:232,1,110,8|0
136,224,109875,6,0,B|72:160|64:112,2,110,0|0|8
136,224,110343,2,0,B|152:120|152:120|224:80|296:80,1,220
304,82,110734,1,0
347,82,110812,1,8
385,102,110890,1,0
422,124,110968,1,0
448,159,111046,1,0
464,200,111125,6,0,B|464:264|464:264|448:320,2,110,0|0|8
384,240,111593,2,0,B|376:312|376:312|360:352,1,110,0|0
272,344,111906,1,0
192,312,112062,1,8
112,272,112218,1,0
200,280,112375,1,0
120,248,112531,5,0
96,88,112687,1,8
192,224,112843,1,0
160,64,113000,2,0,B|192:128|128:184|56:184|16:96,1,220,0|8
256,192,113625,12,2,115500
160,192,116750,5,0
360,192,117375,1,0
256,360,118000,6,0,B|288:336|224:296|264:248,1,110,0|8
256,240,118390,1,8
257,223,118468,1,8
257,206,118546,1,8
257,189,118625,6,0,B|224:129|224:129|160:129,1,110,0|8
255,189,118937,2,0,B|288:129|288:129|352:129,1,110,0|8
417,129,119250,1,0
323,35,119406,1,8
191,35,119562,1,0
97,128,119718,1,8
97,260,119875,6,0,B|137:324|209:324,1,110,0|8
271,321,120187,1,0
154,204,120343,1,8
301,279,120500,1,0
184,162,120656,1,8
332,233,120812,1,0
215,116,120968,1,8
264,40,121125,5,0
352,32,121281,2,0,B|408:64|408:64|448:112,2,110,8|0|8
352,120,121750,1,0
414,182,121906,1,8
351,244,122062,1,0
413,306,122218,1,8
256,328,122375,6,0,B|192:312|192:312|144:248,1,110,0|8
256,56,122687,2,0,B|320:72|320:72|368:136,1,110,0|8
256,192,123000,5,0
256,192,123078,1,0
256,192,123156,1,8
256,192,123234,1,0
256,192,123312,2,8,B|256:264,3,55
256,192,123625,5,0
336,152,123781,2,0,B|400:160|448:192,2,110,8|0|8
264,104,124250,1,0
224,84,124328,1,0
180,84,124406,1,8
98,116,124562,2,0,B|50:84|42:12,1,110,0|8
56,188,124875,5,0
82,271,125031,1,8
144,333,125187,1,0
217,380,125343,1,8
305,380,125500,1,0
379,332,125656,1,8
441,269,125812,1,0
483,192,125968,1,8
464,104,126125,6,0,B|424:64|424:64|368:40,1,110,0|8
289,24,126437,2,0,B|232:32|232:32|176:48,1,110,0|8
104,88,126750,2,0,B|64:128|64:128|32:184,1,110,0|8
48,264,127062,2,0,B|80:312|80:312|136:360,1,110,0|8
256,304,127375,5,0
376,192,127531,1,8
256,80,127687,1,0
136,192,127843,1,8
256,192,128000,5,8
256,192,128078,1,8
256,192,128156,1,8
256,192,128234,1,8
256,192,128312,1,8
256,192,128390,1,8
256,192,128468,1,8
256,192,128546,1,8
256,192,128625,6,0,B|256:32,2,110,0|8|0
256,192,129093,2,0,B|256:320,2,110,8|0|8
256,192,129562,1,0
256,192,129718,1,8
256,192,129875,6,0,B|112:192,2,110,0|8|0
256,192,130343,2,0,B|384:192,2,110,8|0|8
256,192,130812,1,0
256,192,130968,1,8
256,192,131125,6,0,B|168:104,2,110,0|8|0
256,192,131593,2,0,B|344:280,2,110,8|0|8
256,192,132062,1,0
256,192,132218,1,8
256,192,132375,6,0,B|168:280,2,110,0|8|0
256,192,132843,2,0,B|344:104,2,110,8|0|8
256,192,133312,1,0
256,192,133468,1,8
88,240,133781,6,0,B|56:192|56:128,2,110,8|0|8
137,166,134250,1,0
209,115,134406,1,8
296,115,134562,1,0
369,163,134718,1,8
431,225,134875,2,0,B|463:177|463:113,2,110,0|8|0
352,320,135343,5,8
176,320,135500,1,0
352,320,135656,1,8
176,320,135812,1,0
352,320,135968,1,8
256,192,136125,12,0,137687
104,112,138000,5,8
408,112,138234,5,8
256,328,138468,5,8
400,344,138625,6,0,B|432:288|432:232,1,110,0|8
384,168,138937,2,0,B|336:120,2,55,0|0|8
296,192,139250,5,0
304,360,139406,1,8
200,232,139562,1,0
360,272,139718,1,8
205,331,139875,6,0,B|141:331|101:267,1,110,0|8
64,208,140187,1,0
136,160,140343,1,8
91,84,140500,1,0
160,144,140656,1,8
208,216,140812,1,0
189,131,140968,1,8
208,296,141125,6,0,B|256:320|328:320,1,110,0|8
453,230,141437,2,0,B|405:206|333:206,1,110,0|8
216,104,141750,2,0,B|264:80|336:80,1,110,0|8
166,132,142062,2,0,B|142:180|142:252,1,110,0|8
224,160,142375,5,0
304,176,142531,1,8
248,240,142687,1,0
336,176,142843,1,8
264,272,143000,1,0
295,303,143078,1,0
335,318,143156,1,8
378,318,143234,1,0
419,302,143312,1,8
450,270,143390,1,8
474,233,143468,1,8
492,193,143546,1,8
477,150,143625,6,0,B|437:94|357:142,1,110,0|8
410,212,143937,1,0
304,88,144093,1,8
264,168,144250,1,0
281,208,144328,1,0
312,239,144406,1,8
224,239,144562,1,0
184,239,144640,1,0
144,223,144718,1,8
70,74,144875,5,0
142,122,145031,1,8
62,162,145187,1,0
70,74,145343,5,8
53,240,145499,1,0
198,160,145655,1,8
70,74,145812,1,0
70,74,145890,1,0
70,74,145968,1,8
256,192,146125,12,4,148312
192,328,148625,6,0,B|120:320|80:272,1,110,0|8
144,216,148937,2,0,B|176:168,2,55,0|0|8
288,296,149250,5,0
256,136,149406,1,8
339,168,149562,1,0
316,205,149640,1,0
275,224,149718,1,8
168,176,149875,6,0,B|128:128|128:64,1,110,0|8
202,28,150187,1,0
290,4,150343,1,8
194,52,150500,1,0
314,12,150656,1,8
186,68,150812,1,0
338,20,150968,1,8
408,72,151125,6,0,B|456:176,1,110,0|8
403,246,151437,1,0
256,321,151593,1,8
107,246,151750,1,0
355,246,151906,5,8
255,288,152062,1,0
155,246,152218,1,8
256,112,152375,5,0
256,200,152531,1,8
256,112,152688,1,0
256,200,152844,1,8
392,152,153000,5,0
256,56,153156,1,8
120,152,153312,1,0
256,248,153468,1,8
424,72,153781,5,8
424,72,153859,1,0
424,72,153937,1,0
337,72,154093,1,8
352,160,154250,2,0,B|392:208|392:208|408:264,1,110,0|8
160,224,154562,2,0,B|120:176|120:176|104:120,1,110,0|8
256,248,154875,6,0,B|256:136,2,110,0|8|0
256,336,155343,1,12
400,192,155500,1,4
256,48,155656,1,12
112,192,155812,1,4
256,192,155968,5,4
256,192,156125,12,4,158312
64,72,158625,5,0
64,159,158781,2,0,B|104:151|152:119|152:55,1,110,0|8
223,52,159093,1,0
256,133,159250,1,0
264,173,159328,1,0
272,213,159406,1,0
216,280,159562,2,0,B|160:312,2,55,8|0|0
336,344,159875,6,0,B|392:288|400:248,1,110,2|0
321,211,160187,2,2,B|329:123|361:91,1,110
411,168,160500,1,0
294,51,160656,1,0
322,211,160812,1,2
403,67,160968,1,2
256,144,161125,6,0,B|144:200,1,110
157,105,161437,2,2,B|77:97|77:97|61:73,1,110
256,240,161750,6,2,B|144:184,1,110
157,279,162062,2,2,B|77:287|77:287|61:311,1,110
256,144,162375,6,0,B|368:200,1,110
355,105,162687,2,2,B|435:97|435:97|451:73,1,110
256,240,163000,6,2,B|368:184,1,110
355,279,163312,2,2,B|435:287|435:287|451:311,1,110
304,352,163625,5,0
241,289,163781,1,0
153,289,163937,1,2
90,226,164093,1,2
49,147,164250,2,0,B|57:83|97:43,1,110,0|2
140,121,164562,2,2,B|204:73|260:81,1,110
320,40,164875,5,0
342,124,165031,1,0
314,207,165187,1,0
340,290,165343,1,2
208,344,165500,5,0
186,260,165656,1,2
214,177,165812,1,2
188,94,165968,1,2
112,40,166125,5,0
112,40,166281,1,0
80,120,166437,2,0,B|72:176|72:176|88:232,1,110,0|2
149,289,166750,1,0
224,336,166906,2,2,B|232:280|232:280|216:224,2,110
312,336,167375,6,0,B|432:336,1,110,2|8
468,289,167687,1,8
421,242,167843,1,8
467,195,168000,1,8
420,148,168156,1,8
466,101,168312,5,8
466,101,168390,1,8
466,101,168468,1,8
466,101,168546,1,8
466,101,168625,1,8
392,56,168781,6,0,B|336:40|336:40|272:40,1,110,0|8
323,118,169093,1,0
332,160,169171,1,0
323,203,169250,1,0
280,280,169406,1,0
207,329,169562,1,8
120,352,169718,1,0
99,179,169875,6,0,B|115:235|171:275,1,110
192,184,170187,1,8
254,246,170343,1,0
316,183,170500,1,0
253,120,170656,5,0
253,120,170734,1,0
253,120,170812,1,8
255,247,170968,1,0
88,112,171125,6,0,B|88:224|88:224|72:232|72:232|88:240|88:240|152:296,1,220,0|8
424,272,171750,2,0,B|424:160|424:160|440:152|440:152|424:144|424:144|360:88,1,220,0|8
256,272,172375,6,0,B|200:368|200:368|336:368,1,220,0|8
256,112,173000,2,0,B|312:16|312:16|176:16,1,220,0|8
256,192,173625,5,0
304,264,173781,2,0,B|352:312|400:328,1,110,0|8
480,320,174093,1,0
440,240,174250,2,0,B|400:184|400:184|400:120,1,110
283,26,174562,2,0,B|323:82|323:82|323:146,1,110,8|0
168,72,174875,6,0,B|168:208,1,110
127,341,175187,2,0,B|127:213,1,110,8|0
83,71,175500,2,0,B|83:223,1,110
38,339,175812,2,0,B|38:219,1,110,8|0
32,72,176125,5,0
94,134,176281,1,0
181,134,176437,1,8
243,196,176593,1,0
243,196,176750,5,0
243,196,176906,5,0
305,258,177062,1,8
392,258,177218,1,0
454,320,177374,1,0
365,320,177531,5,8
147,64,177843,5,8
147,320,178156,5,8
365,64,178468,5,12
