osu file format v5

[General]
AudioFilename: Hatsune Miku - Strobe Nights.mp3
AudioLeadIn: 0
PreviewTime: -1
Countdown: 0
SampleSet: Normal
StackLeniency: 0.7
Mode: 0
LetterboxInBreaks: 1

[Metadata]
Title:Strobe Nights
Artist:Hatsune Miku
Creator:Alace
Version:Normal
Source:
Tags:

[Difficulty]
HPDrainRate:2
CircleSize:4
OverallDifficulty:4
SliderMultiplier:1.4
SliderTickRate:2

[Events]
//Background and Video events
0,0,"162641.jpg"
//Break Periods
2,62051,75891
2,154211,168051
//Storyboard Layer 0 (Background)
//Storyboard Layer 1 (Failing)
//Storyboard Layer 2 (Passing)
//Storyboard Layer 3 (Foreground)
//Storyboard Sound Samples
//Background Colour Transformations
3,100,0,0,0

[TimingPoints]
15746,480.000000000001,4,2,1,63,1,0
16705,-100,4,1,2,49,0,0
17545,-100,4,2,1,63,0,0
18625,-100,4,1,2,49,0,0
19465,-100,4,2,1,65,0,0
20546,-100,4,1,2,51,0,0
21386,-100,4,2,1,66,0,0
22466,-100,4,1,2,50,0,0
23306,-100,4,2,1,67,0,0
24386,-100,4,1,2,50,0,0
25226,-100,4,2,1,65,0,0
26306,-100,4,1,2,50,0,0
27146,-100,4,2,1,66,0,0
28226,-100,4,1,2,51,0,0
29066,-100,4,2,2,73,0,0
30026,-100,4,2,2,74,0,0
30986,-100,4,2,2,50,0,0
31466,-100,4,2,1,66,0,0
31681,-100,4,2,2,66,0,0
33146,-100,4,2,2,53,0,0
33386,-100,4,2,1,51,0,0
33626,-100,4,2,1,65,0,0
33866,-100,4,2,2,98,0,0
35066,-100,4,2,2,51,0,0
35306,-100,4,2,1,65,0,0
35546,-100,4,2,2,64,0,0
37226,-100,4,1,2,67,0,0
37466,-100,4,2,2,65,0,0
38666,-100,4,2,1,66,0,0
38906,-100,4,2,2,59,0,0
39146,-100,4,2,1,100,0,0
40335,-100,4,2,1,66,0,0
40826,-100,4,2,2,59,0,0
41066,-100,4,2,1,100,0,0
42746,-100,4,2,2,58,0,0
42986,-100,4,2,1,68,0,0
43706,-100,4,2,2,57,0,0
43946,-100,4,2,2,69,0,0
44906,-100,4,1,2,69,0,0
45146,-100,4,2,1,75,0,0
45373,-100,4,2,1,63,0,0
45613,-100,4,2,1,82,0,0
45853,-100,4,2,1,100,0,0
46586,-100,4,2,2,54,0,0
46826,-100,4,2,1,64,0,0
47066,-100,4,2,2,65,0,0
48626,-100,4,2,1,80,0,0
51011,-100,4,2,1,76,0,0
52090,-100,4,2,2,65,0,0
52570,-100,4,1,2,65,0,0
52810,-100,4,2,1,66,0,0
53546,-100,4,2,1,89,0,0
54266,-100,4,2,2,56,0,0
54506,-100,4,2,1,68,0,0
56289,-100,4,2,1,81,0,0
56768,-100,4,2,1,90,0,0
57248,-100,4,2,1,100,0,0
57746,-100,4,1,2,99,0,0
59786,-100,4,1,2,100,0,1
76706,-100,4,2,1,98,0,0
84717,-100,4,1,2,76,0,0
85676,-100,4,1,2,100,0,0
86516,-100,4,1,2,76,0,0
87596,-100,4,1,2,100,0,0
88555,-100,4,1,2,72,0,0
89515,-100,4,1,2,100,0,0
90474,-100,4,1,2,71,0,0
91434,-100,4,2,2,100,0,0
91946,-100,4,2,2,74,0,0
92306,-100,4,2,1,89,0,0
99266,-100,4,2,2,80,0,0
99626,-100,4,2,2,69,0,1
99986,-100,4,2,1,89,0,0
102266,-100,4,2,2,73,0,0
102506,-100,4,2,1,89,0,0
104186,-100,4,2,2,74,0,0
104426,-100,4,2,1,89,0,0
106106,-100,4,2,2,73,0,0
106346,-100,4,2,1,71,0,0
106706,-100,4,2,1,100,0,0
107066,-100,4,2,2,83,0,0
107306,-100,4,2,2,76,0,0
107666,-100,4,2,1,87,0,0
117146,-100,4,2,2,74,0,0
117386,-100,4,2,1,89,0,0
119786,-100,4,2,2,87,0,0
120026,-100,4,2,2,71,0,0
120266,-100,4,2,2,87,0,0
120506,-100,4,2,1,87,0,0
121346,-100,4,2,1,28,0,1
122786,-100,4,2,2,99,0,0
123266,480.000000000002,4,2,2,88,1,0
124345,-100,4,2,2,71,0,0
124585,-100,4,2,2,88,0,0
124825,-100,4,2,2,67,0,0
125065,-100,4,2,2,69,0,0
125065,-100,4,2,2,69,0,0
128184,-100,4,2,2,69,0,0
128424,-100,4,2,2,88,0,0
128664,-100,4,2,2,71,0,0
128904,-100,4,2,2,89,0,0
130826,-100,4,2,1,88,0,0
131066,-100,4,1,1,88,0,0
131565,-100,4,1,1,69,0,0
131784,-100,4,1,1,88,0,0
132746,-100,4,2,1,89,0,0
132986,-100,4,2,2,90,0,0
134903,-100,4,2,2,66,0,0
135143,-100,4,2,2,87,0,0
136586,-100,4,2,1,89,0,0
136826,-100,4,2,2,88,0,0
137063,-100,4,2,2,71,0,0
137423,-100,4,2,2,89,0,0
139702,-100,4,2,2,71,0,0
139942,-100,4,2,2,87,0,0
140182,-100,4,2,2,71,0,0
140422,-100,4,2,2,89,0,0
142581,-100,4,2,2,70,0,0
142821,-100,4,2,2,87,0,0
143061,-100,4,2,2,71,0,0
143301,-100,4,2,2,87,0,0
144266,-100,4,2,1,88,0,0
144506,-100,4,2,2,87,0,0
149906,-100,4,1,2,100,0,0
151106,-100,4,1,2,30,0,1
152066,-100,4,1,2,51,0,0
152306,-100,4,1,2,100,0,1
168866,-100,4,1,2,78,0,0
181826,-100,4,1,2,32,0,1
182546,-100,4,1,2,32,0,0
182786,-100,4,1,2,78,0,1
183266,-100,4,1,1,45,0,0
184106,-100,4,1,1,88,0,0
184333,-100,4,1,1,69,0,0
184573,-100,4,1,1,87,0,0
185066,-100,4,2,1,76,0,0
185306,-100,4,1,1,88,0,0
188652,-100,4,1,1,70,0,0
188906,-100,4,2,1,90,0,0
189146,-100,4,2,2,89,0,0
189386,-100,4,2,2,77,0,0
189746,-100,4,2,2,89,0,0
190586,-100,4,2,2,71,0,0
191171,-100,4,2,2,88,0,0
192266,-100,4,2,1,91,0,0
192506,-100,4,1,1,73,0,0
192731,-100,4,1,1,89,0,0
194186,-100,4,2,1,87,0,0
194426,-100,4,1,1,72,0,0
194651,-100,4,1,1,91,0,0
198026,-100,4,2,1,91,0,0
198266,-100,4,1,1,71,0,0
198504,-100,4,2,2,89,0,0
199210,-100,4,2,2,72,0,0
199810,-100,4,1,2,89,0,0
200169,-100,4,2,2,68,0,0
200426,-100,4,2,1,88,0,0
200666,-100,4,2,2,88,0,0
205706,-100,4,2,1,89,0,0
205946,-100,4,1,1,70,0,0
206168,-100,4,1,1,87,0,0
209066,-100,4,2,1,88,0,0
209306,-100,4,1,1,88,0,0
211687,-100,4,1,1,71,0,0
211946,-100,4,2,1,91,0,0
212186,-100,4,1,1,91,0,0
213607,-100,4,2,2,67,0,0
213847,-100,4,2,2,89,0,0
214207,-100,4,1,0,61,0,0
214686,-100,4,1,0,71,0,0
215426,-100,4,1,1,39,0,1
218306,-100,4,1,2,76,0,0
219266,-100,4,1,2,97,0,1

[Colours]
Combo1 : 238,187,238
Combo2 : 130,253,228
Combo3 : 157,206,255
Combo4 : 179,179,255

[HitObjects]
32,192,15745,1,2
112,288,16105,1,0
224,336,16465,1,2
344,312,16825,2,0,B|440:296|440:184,1,175,0|0
440,184,17665,5,2
360,88,18025,1,0
248,40,18385,1,2
128,64,18745,2,0,B|32:80|32:200,1,175,0|0
32,192,19585,5,2
32,320,19945,1,0
136,248,20305,1,2
264,248,20665,2,0,B|448:248,1,175,0|0
440,160,21505,5,2
440,32,21865,1,0
336,104,22225,1,2
208,104,22585,2,0,B|16:104,1,175,0|0
32,184,23425,5,2
120,272,23785,1,0
232,216,24145,1,2
320,304,24505,2,0,B|424:352|472:264,1,175,0|0
472,184,25345,5,2
384,96,25705,1,0
272,152,26065,1,2
184,56,26425,2,0,B|80:8|32:96,1,175,0|0
32,176,27265,5,2
120,264,27625,1,0
144,136,27985,1,2
256,72,28345,2,0,B|336:24|424:72,1,175,0|0
472,136,29185,5,2
400,240,29545,1,0
296,312,29905,1,2
208,320,30145,5,0
136,272,30385,5,2
96,200,30625,5,0
136,128,30865,5,2
192,64,31105,6,0,B|280:48|344:56|376:128,1,210,0|2
376,208,32065,1,0
376,208,32305,1,2
376,288,32545,1,0
376,288,32785,1,2
304,248,33025,6,0,B|192:248,2,105,0|0|2
384,248,33985,5,0
488,112,34465,1,0
336,48,34945,2,0,B|184:40|144:112,1,210,0|2
72,152,35905,1,0
16,216,36145,1,2
48,296,36385,1,0
120,344,36625,1,2
192,296,36865,6,0,B|248:248|232:200,2,105,0|0|2
256,352,37825,5,0
320,296,38065,1,2
400,312,38305,1,0
472,264,38545,2,0,B|344:192|576:192|472:104,1,210,2|0
328,32,39745,1,0
160,56,40225,1,0
80,88,40465,2,0,B|16:200|72:296,1,210,2|0
208,192,41665,1,0
304,328,42145,1,0
464,288,42625,6,0,B|528:176|472:80,2,210,0|2|0
392,240,44305,1,2
320,192,44545,2,0,B|272:248|320:296,2,105,0|0|2
392,144,45505,5,2
320,96,45745,5,2
392,48,45985,5,0
224,48,46465,2,0,B|96:56|40:144,1,210,0|2
8,216,47425,1,0
56,288,47665,1,2
120,336,47905,1,0
200,352,48145,1,2
272,312,48385,1,0
432,256,48865,5,2
272,192,49345,1,0
432,136,49825,1,2
272,72,50305,1,0
120,136,50785,1,2
272,192,51265,5,0
200,232,51505,1,2
272,280,51745,1,0
344,232,51985,1,2
272,192,52225,6,0,B|272:80,2,105,0|0|2
200,232,53185,5,0
272,280,53425,5,2
344,232,53665,5,0
352,64,54145,2,0,B|256:0|152:64,1,210,0|2
88,120,55105,1,0
136,240,55585,5,2
192,304,55825,1,0
216,224,56065,1,2
328,344,56545,1,0
464,248,57025,1,2
496,80,57505,1,0
328,80,57985,6,0,B|256:32|192:88,1,140,2|0
136,136,58705,2,0,B|264:224|400:136,1,280,0|0
397,137,59905,5,8
480,280,60385,5,2
328,200,60865,5,0
176,280,61345,5,2
24,200,61825,5,0
8,192,77185,5,0
128,312,77665,1,2
296,344,78145,1,0
376,344,78385,2,2,B|424:344,2,35,0|0|2
456,192,79105,5,0
336,72,79585,1,2
168,40,80065,1,0
88,40,80305,2,0,B|40:40,2,35,0|0|2
128,112,80785,1,2
128,112,81025,5,0
128,280,81505,1,2
272,192,81985,1,0
352,192,82225,2,0,B|392:192,2,35,0|0|2
184,192,82945,5,0
352,192,83425,1,2
264,336,83905,5,0
264,248,84145,5,2
264,160,84385,5,0
264,72,84625,5,2
192,112,84865,6,2,B|80:112,2,105,2|0|2
264,160,85825,1,0
336,112,86065,2,0,B|392:112,2,35,0|0|2
336,280,86785,6,0,B|456:280,2,105,2|0|2
264,232,87745,1,0
192,280,87985,2,2,B|144:280,2,35,0|0|2
192,192,88465,1,0
192,192,88705,6,0,B|192:80,2,105,2|0|2
264,232,89665,1,0
192,280,89905,2,0,B|192:328|192:328|200:320,2,35,0|0|2
352,232,90625,6,0,B|464:232,2,105,2|0|2
264,232,91585,5,0
176,232,91825,5,0
88,232,92065,5,8
8,88,92545,5,0
160,24,93025,1,2
328,32,93505,1,0
408,56,93745,2,0,B|480:144|400:192,1,140,2|2
352,336,94705,5,2
272,352,94945,1,0
192,328,95185,2,0,B|128:328|72:248,1,140,2|2
16,200,95905,1,0
96,168,96145,1,2
32,112,96385,5,0
88,48,96625,6,0,B|160:88,1,70,2|0
216,128,97105,2,0,B|280:80,1,70,2|0
344,48,97585,2,0,B|416:88,1,70,2|0
472,128,98065,2,0,B|504:200|464:272,1,140,2|2
456,344,98785,1,0
392,288,99025,1,2
256,192,99505,5,8
256,192,99745,1,8
128,296,100225,5,0
64,144,100705,1,2
200,48,101185,1,0
280,48,101425,1,2
360,48,101665,1,0
320,120,101905,2,0,B|104:120,1,210,2|0
312,336,103105,5,0
232,336,103345,1,2
152,336,103585,1,0
192,264,103825,2,0,B|408:264,1,210,2|0
496,120,105025,5,0
432,64,105265,1,2
416,144,105505,1,0
352,88,105745,2,0,B|312:192|248:0|176:80,1,210,2|8
32,152,106945,5,0
96,200,107185,1,8
24,232,107425,1,10
160,336,107905,5,0
320,280,108385,1,2
456,176,108865,2,0,B|456:104,1,70,0|2
376,136,109345,2,0,B|376:208,1,70,0|2
240,304,110065,5,2
152,312,110305,1,0
80,264,110545,2,0,B|24:192|80:128,1,140,2|2
80,48,111265,1,0
152,96,111505,1,2
152,96,111745,5,0
224,144,111985,6,0,B|304:144,1,70,2|0
264,224,112465,2,0,B|184:224,1,70,2|0
224,304,112945,2,0,B|304:304,1,70,2|0
368,264,113425,2,0,B|320:192|368:128,1,140,2|2
424,200,114145,1,0
483,133,114385,2,0,B|528:192|480:264,1,140,2|2
424,200,115105,1,4
256,200,115585,5,0
128,304,116065,1,2
48,152,116545,1,0
24,72,116785,1,2
104,88,117025,2,0,B|168:8|216:160|296:104,1,210,0|2
360,64,117985,1,0
424,216,118465,5,2
256,192,118945,1,0
256,192,119185,6,0,B|256:336,1,140,2|2
256,192,119905,6,0,B|136:88,1,140,0|0
256,192,120625,6,0,B|376:88,1,140,2|2
256,192,121345,12,8,122785
256,272,123266,5,2
96,328,123746,1,0
32,272,123986,1,2
40,184,124226,2,0,B|48:80|144:88,2,140,0|0|4
200,224,125666,1,0
280,224,125906,1,2
360,224,126146,5,0
464,96,126626,1,0
304,48,127106,1,2
136,88,127586,1,0
80,152,127826,1,2
40,224,128066,2,0,B|0:288|40:360,2,140,0|0|4
176,320,129506,1,0
176,320,129746,1,2
256,344,129986,5,0
256,344,130226,1,2
336,328,130466,1,0
416,296,130706,2,0,B|464:226|419:167,1,140,2|2
352,216,131426,2,4,B|304:144|352:80,1,140,0|0
408,152,132146,1,2
408,152,132386,5,0
467,85,132626,2,0,B|512:144|464:216,1,140,2|2
392,264,133346,1,0
232,216,133826,1,2
72,264,134306,1,0
72,96,134786,6,4,B|120:40|120:40|200:40,1,140,4|0
248,96,135506,1,2
312,40,135746,1,0
376,192,136226,1,0
440,248,136466,2,4,B|488:312|488:312|432:336,1,140,2|2
360,288,137186,1,4
192,288,137666,1,4
32,352,138146,5,0
88,192,138626,1,2
144,32,139106,1,0
176,112,139346,1,2
232,48,139586,2,4,B|392:48,2,140,0|0|4
72,96,141026,5,0
128,256,141506,1,2
280,328,141986,1,0
360,344,142226,1,2
440,320,142466,2,4,B|488:250|443:191,2,140,0|0|0
376,264,143666,1,2
304,304,143906,1,0
232,264,144146,2,2,B|184:194|229:135,1,140
312,136,144866,1,0
480,136,145346,1,4
392,280,145826,5,0
224,280,146306,1,2
56,280,146786,1,0
0,216,147026,1,2
80,200,147266,1,0
184,72,147746,5,0
248,16,147986,1,2
264,96,148226,1,0
384,216,148706,1,0
248,320,149186,1,2
120,216,149666,1,0
248,320,150146,6,2,B|248:208,2,105,2|0|2
256,192,151106,12,8,152066
256,88,152546,5,0
120,184,153026,1,2
256,280,153506,1,0
392,184,153986,1,2
240,120,169346,6,0,B|240:232,2,105,2|0|2
216,40,170306,1,0
296,56,170546,2,2,B|320:8,2,35,0|0|2
352,128,171026,1,0
400,192,171266,6,0,B|520:192,2,105,2|0|2
352,264,172226,1,0
304,336,172466,2,2,B|319:367,2,35,0|0|2
224,368,172946,1,2
240,288,173186,6,0,B|240:168,2,105,2|0|2
224,368,174146,1,0
144,344,174386,2,2,B|120:392,2,35,0|0|2
104,272,174866,1,0
128,192,175106,6,0,B|16:192,2,105,2|0|2
104,112,176066,2,2,B|184:112,1,70,0|0
144,32,176546,2,2,B|224:32,1,70,0|0
296,32,177026,5,2
424,32,177386,1,0
360,144,177746,1,2
360,144,177986,1,0
360,224,178226,2,8,B|360:280,2,35,0|0|2
224,328,178946,5,2
96,328,179306,1,0
160,216,179666,1,2
160,216,179906,1,0
160,136,180146,2,0,B|160:80,2,35,0|0|2
160,216,180626,1,2
160,216,180866,5,2
96,328,181226,1,0
224,328,181586,1,2
256,192,181826,12,4,182786
256,192,183746,5,4
256,192,183986,1,4
224,272,184226,6,4,B|368:272,1,140,8|0
392,352,184946,2,4,B|240:352,1,140,2|2
168,352,185666,1,0
48,232,186146,1,2
112,72,186626,1,0
176,128,186866,1,2
192,48,187106,5,0
344,120,187586,1,2
224,232,188066,1,0
368,320,188546,2,4,B|504:312|488:176,1,210,0|2
440,112,189506,1,8
288,40,189986,1,2
152,136,190466,1,0
72,160,190706,1,10
128,216,190946,1,8
256,320,191426,5,0
336,336,191666,1,2
416,320,191906,1,0
496,336,192146,2,4,B|496:120,1,210,2|0
256,64,193346,5,0
176,48,193586,1,2
96,64,193826,1,0
16,48,194066,2,4,B|16:264,1,210,2|0
152,360,195266,5,0
176,192,195746,1,2
304,296,196226,1,0
312,128,196706,1,0
392,104,196946,1,2
464,144,197186,1,0
488,224,197426,1,2
440,296,197666,1,0
368,248,197906,2,4,B|312:336|240:176|184:240,1,210,2|8
40,328,199106,1,0
40,240,199346,1,8
40,152,199586,5,8
184,64,200066,2,4,B|288:-8|384:64,1,210,0|2
464,64,201026,1,4
448,232,201506,1,0
416,304,201746,1,2
368,232,201986,1,0
224,320,202466,5,0
88,216,202946,1,2
256,184,203426,1,0
120,80,203906,1,2
280,32,204386,1,2
440,72,204866,1,0
488,144,205106,1,2
464,224,205346,1,0
432,304,205586,2,4,B|336:368|232:296,1,210,2|0
80,232,206786,5,0
40,64,207266,1,0
208,56,207746,1,0
288,56,207986,1,2
248,128,208226,2,4,B|400:128,1,140,0|0
344,200,208946,2,4,B|192:200,1,140,2|2
120,200,209666,1,0
160,272,209906,2,4,B|232:272,1,70,2|0
400,272,210626,1,0
232,272,211106,5,0
232,104,211586,2,4,B|136:32|32:104,1,210,0|2
72,264,212786,1,2
144,312,213026,1,0
224,336,213266,1,2
304,312,213506,2,2,B|392:304|400:216,1,140,0|0
400,56,214466,1,0
256,152,214946,1,4
256,192,215426,12,0,218306
256,192,219266,5,0
