osu file format v5

[General]
AudioFilename: Hatsune Miku - Strobe Nights.mp3
AudioLeadIn: 0
PreviewTime: -1
Countdown: 0
SampleSet: Soft
StackLeniency: 0.7
Mode: 0
LetterboxInBreaks: 1
EditorBookmarks: 129026

[Metadata]
Title:Strobe Nights
Artist:Hatsune Miku
Creator:Alace
Version:Hard
Source:
Tags:

[Difficulty]
HPDrainRate:6
CircleSize:5
OverallDifficulty:7
SliderMultiplier:1.6
SliderTickRate:2

[Events]
//Background and Video events
0,0,"162641.jpg"
//Break Periods
2,62026,76286
2,154186,168446
//Storyboard Layer 0 (Background)
//Storyboard Layer 1 (Failing)
//Storyboard Layer 2 (Passing)
//Storyboard Layer 3 (Foreground)
//Storyboard Sound Samples
//Background Colour Transformations
3,100,0,0,0

[TimingPoints]
15746,480,4,2,1,62,1,0
16706,-100,4,2,1,53,0,0
17546,-100,4,2,1,67,0,0
18626,-100,4,2,1,51,0,0
19466,-100,4,2,1,69,0,0
20546,-100,4,2,1,49,0,0
21386,-100,4,2,1,69,0,0
22466,-100,4,2,1,53,0,0
23306,-100,4,2,1,69,0,0
24386,-100,4,2,1,49,0,0
25226,-100,4,2,1,69,0,0
26306,-100,4,2,1,51,0,0
27146,-100,4,2,1,70,0,0
28226,-100,4,2,1,52,0,0
29186,1920,4,1,2,100,1,0
31106,480.000000000002,4,2,2,71,1,0
32185,-100,4,2,2,56,0,0
32426,-100,4,2,1,72,0,0
32666,-100,4,2,2,70,0,0
34105,-100,4,2,2,56,0,0
34345,-100,4,2,2,70,0,0
35065,-100,4,2,2,56,0,0
35305,-100,4,2,2,70,0,0
36746,-100,4,2,1,88,0,0
37691,-100,4,2,2,70,0,0
47426,-200,4,1,2,100,0,0
48386,-100,4,2,2,71,0,0
49466,-100,4,2,2,54,0,0
49713,-100,4,2,2,71,0,0
50426,-100,4,2,2,55,0,0
50661,-100,4,2,2,71,0,0
52106,-100,4,2,2,86,0,0
53186,-100,4,2,2,71,0,0
57746,-100,4,2,2,89,0,0
58706,-200,4,1,2,88,0,1
59906,-100,4,1,1,76,0,0
60146,-100,4,1,1,100,0,1
76706,-100,4,2,2,82,0,0
89066,-100,4,1,2,81,0,0
90506,-100,4,2,2,81,0,0
90986,-100,4,1,2,81,0,0
92426,-100,4,2,2,88,0,0
92666,-100,4,2,2,72,0,0
92906,-100,4,2,2,88,0,0
99266,-100,4,2,2,69,0,0
99626,-100,4,2,2,57,0,1
99986,-100,4,2,2,85,0,0
104666,-100,4,2,2,72,0,0
104906,-100,4,2,2,85,0,0
105386,-100,4,2,1,86,0,0
105626,-100,4,2,2,87,0,0
105986,-100,4,2,2,77,0,0
106706,-100,4,2,2,100,0,0
107066,-100,4,2,2,72,0,0
107666,-100,4,2,2,89,0,0
110666,-100,4,2,1,88,0,0
110906,-100,4,2,2,88,0,0
114506,-100,4,2,1,89,0,0
114746,-100,4,2,2,88,0,0
115346,-100,4,2,1,87,0,0
117146,-100,4,2,2,69,0,0
117386,-100,4,2,1,87,0,0
119066,-100,4,2,2,69,0,0
119306,-100,4,2,1,90,0,0
119546,-100,4,2,2,89,0,0
123266,480.000000000002,4,2,2,87,1,0
123386,-100,4,2,2,71,0,0
123626,-100,4,2,2,88,0,0
124346,-100,4,2,2,69,0,0
124586,-100,4,2,2,87,0,0
126266,-100,4,2,2,68,0,0
126506,-100,4,2,2,87,0,0
127226,-100,4,2,2,70,0,0
127466,-100,4,2,2,87,0,0
128186,-100,4,2,2,69,0,0
128426,-100,4,2,2,87,0,0
131426,-200,4,1,1,99,0,0
132386,-100,4,2,2,91,0,0
133466,-100,4,2,2,70,0,0
133706,-100,4,2,2,90,0,0
133946,-100,4,2,2,70,0,0
134186,-100,4,2,2,89,0,0
136463,-100,4,2,2,100,0,0
137902,-100,4,2,2,87,0,0
141146,-100,4,2,2,69,0,0
141395,-100,4,2,2,87,0,0
141626,-100,4,2,2,69,0,0
141866,-100,4,2,2,87,0,0
144741,-100,4,1,2,87,0,0
144986,-100,4,2,2,88,0,0
145946,-100,4,2,2,70,0,0
146186,-100,4,2,2,88,0,0
147386,-100,4,2,2,70,0,0
147626,-100,4,2,2,88,0,0
150860,-200,4,1,2,100,0,1
152066,-100,4,1,1,82,0,0
152299,-100,4,1,1,100,0,1
152786,-100,4,1,1,84,0,0
153266,-100,4,1,1,68,0,0
153746,-100,4,1,1,52,0,0
168866,-100,4,1,2,77,0,0
181106,1920,4,1,2,54,1,0
182786,480,4,1,2,66,1,1
183626,-100,4,1,1,42,0,0
183746,-100,4,1,1,51,0,1
184466,-100,4,2,2,88,0,0
184826,-100,4,2,2,69,0,0
185066,-100,4,2,2,88,0,0
185786,-100,4,2,2,69,0,0
186026,-100,4,2,2,88,0,0
188546,-200,4,1,1,87,0,0
189026,-100,4,2,2,89,0,0
195386,-100,4,2,2,69,0,0
195626,-100,4,2,2,89,0,0
195866,-100,4,2,2,69,0,0
196106,-100,4,2,2,89,0,0
196586,-100,4,2,1,89,0,0
196826,-100,4,2,2,89,0,0
198026,-100,4,2,2,100,0,0
199346,-100,4,2,2,88,0,0
200426,-100,4,2,1,88,0,0
200666,-100,4,2,2,88,0,0
203786,-100,4,2,2,67,0,0
204146,-100,4,2,2,85,0,0
205466,-100,4,2,1,89,0,0
205946,-100,4,2,2,69,0,0
206186,-100,4,2,2,89,0,0
211226,-100,4,2,2,70,0,0
211466,-100,4,2,2,89,0,0
213386,-100,4,1,2,100,0,0
214346,-100,4,1,1,61,0,0
214706,-100,4,1,0,76,0,0
215426,-100,4,1,2,12,0,1
218306,-100,4,1,2,100,0,0
219266,-100,4,1,2,100,0,1

[Colours]
Combo1 : 238,187,238
Combo2 : 130,253,228
Combo3 : 157,206,255
Combo4 : 179,179,255

[HitObjects]
128,216,15746,1,2
176,104,16106,1,0
296,80,16466,1,2
176,104,16826,2,0,B|208:144,3,40,0|0|0|2
248,192,17426,1,0
248,192,17666,5,2
296,304,18026,1,0
416,328,18386,1,2
296,304,18746,2,0,B|328:264,3,40,0|0|0|2
368,216,19346,1,0
368,216,19586,5,2
320,104,19946,1,0
200,80,20306,1,2
320,104,20666,2,0,B|288:144,3,40,0|0|0|2
248,192,21266,1,0
248,192,21506,5,2
200,304,21866,1,0
80,328,22226,1,2
200,304,22586,2,0,B|168:264,3,40,0|0|0|2
128,216,23186,1,0
128,216,23426,5,2
176,104,23786,1,0
296,80,24146,1,2
176,104,24506,2,0,B|208:144,3,40,0|0|0|2
248,192,25106,1,0
248,192,25346,5,2
296,304,25706,1,0
416,328,26066,1,2
296,304,26426,2,0,B|328:264,3,40,0|0|0|2
368,216,27026,1,0
368,216,27266,5,2
320,104,27626,1,0
200,80,27986,1,2
320,104,28346,2,0,B|288:144,3,40,0|0|0|2
248,192,28946,1,0
248,192,29186,6,0,B|208:256|160:112|112:184,1,160,0|0
114,180,31346,5,2
114,180,31586,1,0
114,180,31826,1,2
114,180,32066,2,0,B|184:272|256:88|328:184,1,240,0|2
376,232,33026,5,0
440,184,33266,1,2
440,184,33386,1,0
440,184,33506,1,0
376,128,33746,1,2
376,128,33986,6,0,B|336:56|336:56|256:56,1,160,0|0
224,128,34706,1,2
191,56,34946,2,0,B|114:56|114:56|74:128,1,160,0|0
96,200,35666,1,2
160,248,35906,1,0
224,200,36146,1,2
288,248,36386,1,0
352,200,36626,1,2
352,120,36866,5,2
224,8,37226,1,0
96,120,37586,1,2
48,184,37826,6,0,B|48:272,1,80,0|2
128,264,38306,2,0,B|128:176,1,80,0|2
184,120,38786,1,0
232,184,39026,1,2
232,184,39146,1,0
232,184,39266,1,0
280,120,39506,1,2
352,80,39746,6,0,B|440:80,1,80,0|2
432,160,40226,2,0,B|344:160,1,80,0|2
280,120,40706,1,0
232,184,40946,1,0
232,184,41066,1,0
232,184,41186,1,0
184,120,41426,1,2
232,184,41666,5,0
232,264,41906,1,2
232,264,42026,1,0
232,264,42146,1,0
232,344,42386,1,2
160,304,42626,6,0,B|72:304,1,80,0|2
80,224,43106,2,0,B|168:224,1,80,0|2
160,144,43586,2,0,B|72:144,1,80,0|2
80,64,44066,2,0,B|168:64,1,80,0|2
232,104,44546,5,0
312,104,44786,1,2
352,104,44906,1,0
392,104,45026,1,0
472,104,45266,1,2
472,104,45506,5,0
472,208,45746,5,2
472,312,45986,5,0
472,312,46226,1,2
400,352,46466,1,0
400,352,46706,1,2
328,312,46946,1,0
328,312,47186,1,2
400,272,47426,2,0,B|464:208|336:208|408:128,1,160,0|4
404,132,48866,5,0
256,40,49346,2,0,B|88:40,1,160,0|0
256,192,50066,1,2
264,344,50306,2,0,B|432:344,1,160,0|0
424,344,51026,5,2
424,344,51266,1,0
424,264,51506,1,2
352,296,51746,1,0
352,216,51986,1,2
424,176,52226,5,2
296,64,52586,1,0
168,176,52946,1,2
296,280,53306,1,0
296,280,53426,1,2
296,280,53546,1,0
296,280,53666,6,0,B|224:336,1,80,0|2
296,208,54146,2,0,B|232:144,1,80,0|2
360,208,54626,2,0,B|432:152,1,80,0|2
360,280,55106,2,0,B|424:344,1,80,0|2
32,192,55826,5,2
32,192,56066,1,0
256,40,56546,1,2
480,192,57026,1,0
256,344,57506,1,2
168,120,57986,5,2
344,120,58346,1,0
256,280,58706,2,0,B|296:216|216:144|264:80,1,200,2|8
259,86,60386,5,0
40,192,60866,1,2
256,296,61346,1,0
472,192,61826,1,2
80,184,77186,5,0
136,128,77426,2,2,B|152:80,2,40,2|0|0
160,200,77906,1,2
240,216,78146,1,0
184,272,78386,2,0,B|168:320,2,40,2|0|0
160,200,78866,1,2
160,200,79106,5,0
216,144,79346,2,0,B|232:96,2,40,2|0|0
240,216,79826,1,2
320,232,80066,1,0
264,288,80306,1,2
264,288,80426,1,0
264,288,80546,1,0
264,288,80666,1,0
264,288,80786,1,2
240,216,81026,5,0
296,160,81266,2,0,B|312:112,2,40,2|0|0
320,232,81746,1,2
400,248,81986,1,0
344,304,82226,2,0,B|328:352,2,40,2|0|0
320,232,82706,1,2
320,232,82946,5,0
376,176,83186,2,0,B|392:128,2,40,2|0|0
400,248,83666,1,2
400,248,83906,5,0
272,320,84146,1,2
368,184,84386,1,0
240,256,84626,1,2
240,256,84866,5,0
160,248,85106,2,0,B|136:296,2,40,2|0|0
104,192,85586,1,2
96,112,85826,1,0
136,40,86066,2,0,B|104:8,2,40,2|0|0
216,32,86546,1,2
216,32,86786,5,0
296,40,87026,2,0,B|324:11,2,40
336,112,87506,1,2
328,192,87746,1,0
288,256,87986,1,2
288,256,88106,1,0
288,256,88226,1,0
288,256,88346,1,0
288,256,88466,1,2
208,256,88706,6,0,B|80:256,2,120,0|0|2
208,176,89666,1,0
288,176,89906,1,2
288,176,90026,1,0
288,176,90146,1,0
288,96,90386,1,2
368,96,90626,6,0,B|496:96,2,120,0|0|2
288,96,91586,5,0
168,152,91826,1,2
312,152,92066,1,0
192,208,92306,1,2
240,144,92546,6,0,B|328:280,1,160,0|0
272,336,93266,1,2
240,264,93506,1,0
192,328,93746,1,2
152,256,93986,1,0
104,320,94226,1,2
64,248,94466,1,0
64,248,94706,6,0,B|112:176,1,80
216,88,95186,2,0,B|168:168,1,80,2|0
184,280,95666,2,0,B|232:208,1,80,2|0
336,120,96146,2,0,B|288:200,1,80,2|4
294,188,96626,5,2
294,188,96866,1,0
216,160,97106,1,2
216,160,97346,1,0
144,192,97586,1,2
72,160,97826,1,0
72,160,98066,5,2
408,160,98546,1,2
408,160,98786,1,0
408,160,99026,1,2
248,336,99506,5,8
248,336,99746,1,8
248,336,100226,6,0,B|288:280|208:224|248:184,2,160,0|0|0
328,336,101426,2,0,B|416:336,1,80,2|0
184,272,101906,2,0,B|96:272,1,80,2|0
328,192,102386,2,0,B|416:192,1,80,2|0
184,120,102866,2,0,B|96:120,1,80,2|0
328,48,103346,2,0,B|416:48,1,80,2|0
408,48,103826,5,2
408,48,104066,1,0
408,48,104306,1,2
408,128,104546,2,0,B|328:168|248:128,1,160,0|0
184,88,105266,2,0,B|104:48|24:88,1,160,2|2
29,85,106466,5,8
240,280,106946,5,0
240,280,107186,1,8
240,280,107426,1,8
240,280,107906,6,0,B|240:112,1,160,0|0
240,120,108626,5,2
336,176,108866,1,0
296,272,109106,1,2
192,272,109346,1,0
152,176,109586,1,2
240,40,110066,5,2
240,40,110306,1,0
240,40,110546,2,0,B|240:216|240:216|240:208,1,160,2|2
240,200,111266,1,0
240,200,111506,1,2
112,288,111986,6,0,B|200:288,1,80,2|0
368,288,112466,2,0,B|280:288,1,80,2|0
80,216,112946,2,0,B|168:216,1,80,2|0
400,216,113426,2,0,B|312:216,1,80,2|0
240,200,113906,1,2
240,200,114146,1,0
240,200,114386,2,0,B|208:152|296:88|248:48,1,160,2|2
250,50,115106,1,4
248,328,115586,5,0
250,50,116066,1,0
24,184,116546,1,0
24,184,116786,1,2
24,184,117026,2,0,B|72:232|128:120|168:184,1,160,0|0
464,184,117986,1,0
464,184,118466,1,0
464,184,118706,1,2
464,184,118946,2,0,B|416:232|360:120|320:184,1,160,0|0
288,256,119666,5,2
224,304,119906,1,0
152,328,120146,1,2
88,280,120386,1,0
56,208,120626,1,2
56,128,120866,1,0
104,64,121106,1,2
184,48,121346,1,0
256,88,121586,1,2
288,160,121826,1,0
248,232,122066,1,2
184,280,122306,1,0
120,232,122546,1,2
160,160,122786,1,4
472,192,123266,6,0,B|472:360,1,160,0|0
256,192,123986,1,2
40,192,124226,2,0,B|40:24,1,160,0|4
184,72,125186,5,2
256,48,125426,1,0
256,48,125546,1,2
336,72,125786,1,0
336,72,125906,1,2
256,48,126146,6,0,B|88:48,1,160,0|0
256,192,126866,1,2
256,336,127106,2,0,B|424:336,1,160,0|0
256,192,127826,1,2
256,48,128066,2,0,B|88:48,1,160,0|4
184,312,129026,5,2
256,336,129266,1,0
256,336,129386,1,2
336,312,129626,1,0
336,312,129746,1,2
392,256,129986,6,0,B|392:168,1,80,0|2
256,40,130466,2,0,B|256:136,1,80,0|2
128,256,130946,2,0,B|128:168,1,80,0|2
256,344,131426,6,0,B|256:256,2,80,0|0|0
256,344,132626,1,2
256,344,132866,5,0
256,264,133106,1,2
256,264,133226,1,0
256,264,133346,2,0,B|304:208|216:152|264:112,2,160,0|0|4
392,344,134786,5,0
464,200,135266,1,0
464,200,135506,1,0
304,200,135986,1,0
304,200,136226,1,0
392,344,136706,5,2
248,56,137186,1,2
112,344,137666,1,2
248,56,138146,5,0
336,192,138626,1,0
336,192,138866,1,0
176,192,139346,1,0
176,192,139586,1,0
248,328,140066,1,0
88,328,140546,1,4
168,344,140786,5,2
168,344,140906,1,0
168,344,141026,2,0,B|208:280|144:232|176:184,2,160,0|0|0
448,192,142466,5,0
64,192,142946,1,0
312,32,143426,5,0
200,32,143666,1,2
376,104,143906,1,0
144,104,144146,1,2
312,208,144386,2,0,B|264:152|208:208,2,120,0|0|2
256,264,145346,1,4
256,344,145586,5,2
296,344,145706,1,0
336,344,145826,2,0,B|432:344|432:344|472:280,1,160,0|0
416,224,146546,1,2
416,224,146666,1,0
416,224,146786,1,0
416,144,147026,1,2
464,80,147266,2,0,B|431:26|431:26|335:26,1,160,0|4
32,192,148226,5,0
256,344,148706,1,2
480,192,149186,1,0
256,40,149666,1,2
168,264,150146,5,2
344,264,150506,1,0
256,104,150866,2,0,B|296:168|216:240|264:304,1,200,2|8
259,298,152546,5,2
40,192,153026,1,2
256,88,153506,1,2
472,192,153986,1,2
80,328,169346,5,2
152,296,169586,1,0
152,296,169706,1,2
184,224,169946,1,0
184,224,170066,1,2
240,168,170306,1,0
312,128,170546,1,0
312,128,170666,1,0
312,128,170786,1,0
392,264,171266,5,2
336,200,171506,1,0
336,200,171626,1,2
264,224,171866,1,0
264,224,171986,1,2
192,192,172226,1,0
112,200,172466,1,0
112,200,172586,1,0
112,200,172706,1,0
112,200,172826,1,0
112,200,172946,1,0
48,144,173186,5,2
64,64,173426,1,0
64,64,173546,1,2
136,24,173786,1,0
136,24,173906,1,2
208,56,174146,1,0
136,96,174386,1,0
136,96,174506,1,0
136,96,174626,1,0
256,232,175106,6,2,B|256:96,2,120,2|2|2
336,208,176066,5,0
176,208,176306,1,0
384,264,176546,1,0
128,264,176786,1,0
256,144,177026,6,0,B|256:280,2,120,2|2|2
256,64,177986,1,0
328,96,178226,1,0
328,96,178346,1,0
328,96,178466,1,0
400,64,178706,1,0
464,112,178946,5,2
488,192,179186,1,0
488,192,179306,1,2
448,264,179546,1,0
448,264,179666,1,2
384,312,179906,1,0
304,296,180146,1,0
304,296,180266,1,0
304,296,180386,1,0
304,296,180506,1,0
304,296,180626,1,0
256,232,180866,5,2
256,232,181106,6,0,B|256:104,1,120
256,112,182786,5,2
392,248,183146,1,2
120,248,183506,1,2
256,192,183746,5,4
256,192,183986,1,4
256,192,184226,1,4
472,192,184706,6,0,B|472:24,1,160,0|0
256,192,185426,1,2
40,192,185666,2,0,B|40:360,1,160,0|0
120,352,186386,5,2
168,288,186626,1,0
120,224,186866,1,2
120,224,186986,1,0
120,224,187106,6,0,B|120:136,1,80,0|2
256,264,187586,2,0,B|256:360,1,80,0|2
392,224,188066,2,0,B|392:136,1,80,0|2
256,40,188546,6,0,B|256:120,1,80,0|0
256,120,189266,5,2
256,120,189506,1,0
256,344,189986,1,4
256,120,190466,5,2
392,256,190826,1,0
120,256,191186,1,2
120,256,191426,5,0
200,272,191666,1,2
280,256,191906,1,0
360,272,192146,1,2
360,272,192386,1,0
440,256,192626,1,2
440,256,192746,1,0
440,256,192866,1,0
384,200,193106,1,2
456,168,193346,1,0
392,120,193586,1,2
392,120,193706,1,0
392,120,193826,1,0
456,72,194066,1,2
392,120,194306,5,0
320,152,194546,1,2
320,152,194666,1,0
248,120,194906,1,0
248,120,195026,1,2
176,152,195266,2,0,B|96:104|24:152,2,160,0|0|0
248,192,196466,2,0,B|328:240|400:192,1,160,2|2
328,144,197186,1,0
328,64,197426,1,2
328,64,197546,1,0
328,64,197666,1,0
256,104,197906,1,2
256,104,198146,5,2
16,184,198626,1,2
216,344,199106,1,2
216,344,199586,5,0
352,256,200066,1,0
280,296,200306,2,0,B|208:272|256:176|192:176,1,160,2|2
194,176,201026,1,0
136,232,201266,1,2
96,304,201506,1,0
96,304,201626,1,0
96,304,201746,1,2
32,352,201986,1,0
24,272,202226,1,0
24,272,202346,1,0
24,272,202466,6,2,B|24:184,1,80,0|2
256,112,202946,2,0,B|256:200,1,80,0|2
488,272,203426,2,0,B|488:184,1,80,0|0
256,112,203906,5,4
256,112,204386,1,4
152,256,204866,5,0
256,328,205106,1,2
360,256,205346,1,0
256,328,205586,6,0,B|328:280|176:184|264:104,1,240,2|8
259,108,206786,5,0
259,108,207026,5,8
259,108,207266,5,8
416,104,207746,5,0
328,240,208226,1,2
168,240,208706,1,0
168,240,208946,1,2
72,112,209426,1,2
72,112,209666,1,0
144,72,209906,1,2
144,72,210026,1,0
144,72,210146,1,0
208,112,210386,1,2
280,72,210626,1,0
280,72,210746,1,0
280,72,210866,1,2
280,72,210986,1,0
280,72,211106,6,0,B|344:144|280:224,1,160,0|0
256,288,211826,1,2
176,288,212066,6,0,B|88:288,1,80,0|2
376,192,212546,2,0,B|464:192,1,80,0|2
176,104,213026,2,0,B|88:104,1,80,0|2
376,192,213506,6,0,B|248:192,2,120,0|0|0
456,192,214466,5,4
56,192,214946,1,4
256,192,215426,12,0,218306
256,192,219266,5,0
