osu file format v8

[General]
AudioFilename: stargazer.mp3
AudioLeadIn: 0
PreviewTime: 72972
Countdown: 0
SampleSet: Normal
StackLeniency: 0.4
Mode: 0
LetterboxInBreaks: 0

[Editor]
Bookmarks: 29210
DistanceSpacing: 0.800000011920929
BeatDivisor: 2
GridSize: 8

[Metadata]
Title:Stargazer
Artist:Hatsune Miku
Creator:CDFA
Version:Easy
Source:Kotsuban-P
Tags:Garven Death_the_kid samiljul Vocaloid

[Difficulty]
HPDrainRate:2
CircleSize:3
OverallDifficulty:3
ApproachRate:3
SliderMultiplier:0.999999999999999
SliderTickRate:1

[Events]
//Background and Video events
Video,-100,"Miku Hatsune - Stargazer.flv"
0,0,"123467890bg.jpg"
//Break Periods
2,49430,57636
2,93738,101944
2,134199,143790
2,167584,173329
//Storyboard Layer 0 (Background)
//Storyboard Layer 1 (Fail)
//Storyboard Layer 2 (Pass)
//Storyboard Layer 3 (Foreground)
//Storyboard Sound Samples
//Background Colour Transformations
3,100,163,162,255

[TimingPoints]
9846,307.692307692308,4,1,0,100,1,0
73846,-100,4,1,0,100,0,1
93512,-100,4,1,0,100,0,0
133979,-100,4,1,0,0,0,0
144896,-100,4,1,0,100,0,0
145230,-100,4,1,0,100,0,1
164896,-100,4,1,0,100,0,0

[Colours]
Combo1 : 125,91,181
Combo2 : 0,255,255
Combo3 : 74,74,251
Combo4 : 14,133,190

[HitObjects]
27,76,29230,2,2,B|148:76,1,99.9999999999999,2|2
287,76,30153,1,8
287,236,30769,6,0,B|168:264|72:224,2,200,0|8|0
448,240,32615,1,8
447,76,33230,6,0,B|386:152|315:72,2,150,0|8|0
492,141,34461,1,0
378,254,35076,1,8
264,140,35692,6,2,B|176:200|272:264,2,150
320,196,36922,1,0
480,196,37538,1,8
368,80,38153,6,2,B|245:79,1,99.9999999999999
266,161,38769,2,2,B|393:161,2,99.9999999999999,2|2|6
106,161,39999,1,8
106,321,40615,6,2,B|234:417|412:316,1,300,2|8
332,271,41846,1,2
218,157,42461,1,8
331,43,43076,6,2,B|435:187|331:331,1,300,2|8
280,265,44307,1,2
256,192,44615,12,4,49230
67,84,59076,6,0,B|279:84,1,200,4|0
266,240,60307,2,0,B|48:240,1,200,4|0
204,160,61538,2,0,B|431:160,2,200,4|0|4
43,160,63384,1,0
43,319,63999,6,0,B|128:319|200:320,2,150,0|8|0
43,238,65230,2,0,B|146:238|204:238,2,150,0|8|0
256,192,66461,12,4,71384
72,147,73846,6,0,B|176:104|304:160,1,200,4|8
168,272,75076,2,0,B|168:103,2,150,0|8|0
224,328,76307,2,0,B|338:367|458:319,2,200,0|8|0
337,214,78153,1,8
223,100,78769,6,0,B|138:183|218:319,1,200,4|8
86,171,79999,2,0,B|193:206|305:158,1,200,0|8
417,252,81230,5,2
360,308,81538,1,2
303,251,81846,1,2
359,194,82153,1,2
359,113,82461,2,2,B|208:68|32:124,1,300,2|2
62,194,83692,5,4
175,307,84307,1,8
334,307,84922,2,0,B|369:195|329:91,2,200,0|8|0
220,193,86769,2,0,B|165:308|229:396,1,200,8|8
333,270,87999,5,2
333,270,88307,1,2
333,270,88615,1,2
256,192,88922,12,4,93538
259,68,103384,6,0,B|256:216,2,99.9999999999999,0|8|0
178,68,104307,1,8
178,148,104615,2,0,B|177:270,2,99.9999999999999,0|8|0
97,148,105538,1,8
97,228,105846,6,2,B|191:277|293:230,1,200
369,231,106769,1,8
449,231,107076,2,2,B|448:346|314:358,1,200
248,360,107999,1,8
176,360,108307,6,8,B|13:360|-35:360|-35:112|-35:24|77:8|221:24,1,599.999999999999,4|8
338,20,110769,6,4,B|501:20|549:20|549:268|549:356|437:372|293:356,1,599.999999999999
256,224,113230,1,4
256,63,113846,6,2,B|41:64,1,200
169,176,115076,2,2,B|387:177,1,200
480,288,116307,2,0,B|249:285,2,200,2|2|2
480,289,118153,1,8
480,289,118461,1,8
399,289,118769,6,2,B|301:254|197:293,1,200
203,130,119999,2,2,B|300:201|420:121,1,200
389,292,121230,2,0,B|298:371|162:275,2,200,2|2|2
389,131,123076,1,8
389,131,123384,1,8
332,187,123692,6,2,B|194:348,2,200
218,73,125538,1,8
104,186,126153,2,2,B|188:251|316:179,2,200
217,72,127999,1,8
217,72,128307,1,8
273,128,128615,6,2,B|356:195|476:123,1,200
347,245,129846,2,2,B|384:32,1,200
256,192,130769,12,4,133999
256,193,145230,6,0,B|256:318,2,99.9999999999999,0|8|0
256,112,146153,1,8
336,112,146461,2,0,B|461:152|509:0,2,200,0|8|0
255,112,147999,1,8
175,112,148307,2,0,B|50:152|2:0,2,200,8|0|8
255,112,149846,5,8
255,111,150153,2,2,B|254:319,1,200
356,205,151384,2,2,B|133:205,1,200
156,44,152615,6,0,B|267:78|363:46,2,200,2|2|2
253,176,154461,1,2
366,62,155076,6,2,B|310:206|375:383,1,300,6|2
446,358,156307,2,2,B|502:214|437:37,1,300
366,63,157538,2,0,B|201:63,2,150,0|8|0
446,63,158769,1,2
332,176,159384,6,2,B|207:176,2,99.9999999999999
388,232,160307,1,8
331,288,160615,6,0,B|262:392,1,99.9999999999999,0|4
275,291,161230,2,0,B|206:392,1,99.9999999999999,0|4
218,293,161846,2,0,B|150:384,1,99.9999999999999,0|4
158,292,162461,2,0,B|94:375,2,99.9999999999999,0|4|0
214,235,163384,5,4
270,178,163692,1,4
326,234,163999,1,4
269,290,164307,1,4
269,370,164615,1,4
256,192,164922,12,4,167384
356,36,174769,6,2,B|356:167|508:167,1,200
478,165,175692,1,8
478,245,175999,2,2,B|347:245|347:397,1,200
348,367,176922,1,8
268,367,177230,6,2,B|268:236|116:236,1,200
145,237,178153,1,8
144,160,178461,2,2,B|144:16|311:19|311:171,1,300
310,241,179692,6,2,B|200:272|104:224,1,200
171,172,180615,1,8
227,115,180922,2,2,B|328:80|456:128,1,200
480,173,181846,1,8
423,229,182153,6,2,B|304:264|208:224,1,200
169,287,183076,1,8
169,206,183384,2,2,B|168:72|64:144|288:120,2,200,2|2|6
