osu file format v9

[General]
AudioFilename: Hatsune Miku - Starduster.mp3
AudioLeadIn: 0
PreviewTime: 140316
Countdown: 0
SampleSet: Soft
StackLeniency: 0.7
Mode: 0
LetterboxInBreaks: 1
EpilepsyWarning: 1

[Editor]
DistanceSpacing: 1
BeatDivisor: 4
GridSize: 8

[Metadata]
Title:Starduster
Artist:Hatsune Miku
Creator:Kirino Kousaka
Version:Hard
Source:JimmyThumb-P
Tags:project diva extend Vocaloid2

[Difficulty]
HPDrainRate:6
CircleSize:4
OverallDifficulty:5
ApproachRate:7
SliderMultiplier:2
SliderTickRate:2

[Events]
//Background and Video events
0,0,"BG.jpg"
//Break Periods
2,44464,46491
2,117835,137222
2,170518,186979
//Storyboard Layer 0 (Background)
//Storyboard Layer 1 (Fail)
//Storyboard Layer 2 (Pass)
//Storyboard Layer 3 (Foreground)
//Storyboard Sound Samples
//Background Colour Transformations
3,100,163,162,255

[TimingPoints]
562,731.707317073171,4,2,1,75,1,0
40440,-100,4,2,1,5,0,0
40805,-100,4,2,1,75,0,0
47391,-100,4,1,1,35,0,0
70074,-200,4,1,0,50,0,0
70440,-200,4,2,0,5,0,0
70805,-100,4,2,0,75,0,0
71171,-133.333333333333,4,2,1,75,0,0
71537,-133.333333333333,4,2,1,75,0,0
79952,-133.333333333333,4,2,1,5,0,0
81049,-133.333333333333,4,2,1,75,0,0
82513,-133.333333333333,4,2,1,65,0,0
94220,-100,4,2,1,5,0,0
97513,-133.333333333333,4,2,1,75,0,0
100074,-100,4,2,1,5,0,0
103366,-100,4,2,1,75,0,0
106293,-100,4,2,1,5,0,0
106659,-100,4,2,1,75,0,0
116171,-100,4,2,1,65,0,0
140318,-133.333333333333,4,2,1,75,0,0
141049,-100,4,2,1,75,0,1
141415,-100,4,2,0,75,0,1
151476,-100,4,2,0,50,0,1
152757,-100,4,2,0,75,0,1
158610,-100,4,2,0,5,0,1
159342,-100,4,2,0,75,0,1
161537,-100,4,2,0,5,0,1
162269,-100,4,2,0,75,0,1
164464,-100,4,2,0,5,0,1
170318,-100,4,2,1,75,0,0
187879,-100,4,2,0,75,0,0
188244,-100,4,2,1,75,0,0
193366,-133.333333333333,4,2,1,75,0,0
211293,-200,4,2,1,90,0,0
221537,-133.333333333333,4,2,1,75,0,0
232147,-133.333333333333,4,1,1,30,0,0
234708,-133.333333333333,4,2,1,40,0,0
236171,-133.333333333333,4,2,1,5,0,0
236903,-142.857142857143,4,2,1,75,0,0
237635,-100,4,2,0,75,0,1
248062,-100,4,2,0,50,0,1
249342,-100,4,2,0,75,0,1
266903,-100,4,2,1,75,0,1
272574,-100,4,2,1,75,0,0
272757,-100,4,2,1,75,0,1
284464,-100,4,2,0,50,0,0

[Colours]
Combo1 : 224,224,224
Combo2 : 154,250,226
Combo3 : 57,210,203
Combo4 : 44,143,108
SliderBorder : 255,255,255

[HitObjects]
256,192,23976,1,12
192,112,24342,2,0,B|248:48,1,49.9999976158143
256,40,24708,1,0
320,112,25074,2,0,B|264:48,1,49.9999976158143
256,224,25805,1,0
176,288,26171,5,0
208,328,26354,1,0
256,344,26537,1,0
304,328,26720,1,0
336,288,26903,1,2
256,96,27269,5,0
352,96,27635,1,0
448,96,28001,2,0,B|448:224|296:224|296:344,1,300,0|0
184,328,29464,5,0
136,312,29647,1,0
112,264,29830,1,2
184,192,30196,2,0,B|232:192,1,49.9999976158143
280,216,30562,1,0
360,272,30927,5,0
392,232,31110,1,0
392,184,31293,1,2
376,136,31476,2,0,B|320:96,1,49.9999976158143
312,152,31842,2,0,B|256:184,1,49.9999976158143,0|0
168,152,32391,1,0
80,200,32757,6,0,B|120:232,3,49.9999976158143,2|0|0|0
160,256,33488,2,0,B|224:272,3,49.9999976158143,0|0|0|0
256,272,34220,2,0,B|320:264,3,49.9999976158143,2|0|0|0
352,256,34952,2,0,B|416:200,3,49.9999976158143,0|0|0|0
424,184,35683,1,4
424,80,36049,5,0
424,80,36232,1,0
424,80,36415,2,0,B|352:56|296:104|208:80,1,199.999990463257,0|2
128,80,37513,5,0
128,184,37879,1,0
128,80,38244,1,0
128,184,38610,1,2
128,80,38976,6,0,B|128:184,1,99.9999952316285,0|0
88,272,39708,2,0,B|160:240|224:288|224:288|304:352|384:296,1,300,0|0
408,216,41171,5,0
408,216,41537,2,0,B|488:208|408:56|504:48,2,199.999990463257,2|0|2
408,312,43366,5,0
256,176,43732,1,0
120,312,44098,1,0
80,192,47391,5,12
88,288,47757,1,0
136,272,47940,1,0
168,232,48122,1,8
256,192,48488,5,0
256,192,48671,2,0,B|296:208|320:240,1,50,0|8
248,272,49037,2,0,B|272:296|304:304,1,50,0|0
336,336,49403,1,0
384,328,49586,1,8
432,240,49952,1,0
432,240,50318,5,12
432,136,50683,2,0,B|480:80,2,50,0|0|8
336,104,51415,1,0
304,64,51598,1,0
256,48,51781,1,8
208,64,51964,1,0
176,104,52147,1,0
176,104,52330,2,0,B|176:176,1,50,0|8
256,216,52879,6,0,B|224:272|160:288,1,100,0|12
112,208,53610,1,0
72,232,53793,1,0
40,272,53976,1,8
104,344,54342,1,0
152,344,54525,2,0,B|216:336,3,50,0|8|0|0
248,320,55257,1,0
288,296,55440,1,8
256,200,55805,1,0
352,160,56171,5,12
384,128,56354,1,0
400,80,56537,2,0,B|464:56,2,50,0|0|8
304,72,57269,1,0
256,56,57452,1,0
208,56,57635,1,8
160,64,57818,1,0
112,88,58001,1,0
72,120,58183,1,0
40,160,58366,6,0,B|24:192|24:232,1,50,8|0
32,256,58732,2,0,B|40:296|56:320,1,50
88,336,59098,1,12
256,336,59464,1,0
424,336,59830,1,8
352,224,60196,1,0
256,112,60562,2,0,B|232:32,4,50,8|0|0|0|8
296,200,61659,2,0,B|264:248|192:264,1,100,0|8
208,160,62391,5,0
192,64,62757,1,8
128,136,63122,1,0
112,184,63305,1,0
128,232,63488,1,8
160,264,63671,1,0
208,280,63854,1,0
312,280,64220,2,0,B|376:280|448:208|392:104,1,200,8|12
336,64,65318,6,0,B|248:136,1,100,0|8
184,192,66049,2,0,B|200:248,1,50
240,216,66415,2,0,B|272:296,1,50,8|0
288,224,66781,2,0,B|336:272,1,50
336,208,67147,2,0,B|384:232|416:280,1,100,8|0
328,328,67879,2,0,B|272:352|200:328,1,100,8|0
128,344,68610,2,0,B|72:320|40:264,1,100,8|0
40,232,69159,1,0
48,184,69342,1,8
80,144,69525,6,0,B|56:104,2,25
128,144,69891,1,0
128,144,70074,2,0,B|152:168|152:216|128:240,1,100,0|6
112,320,71171,5,0
184,320,71537,1,0
256,320,71903,1,0
296,320,72086,2,0,B|312:288|368:256|368:256|424:296|440:344,1,187.499985471368,0|0
363,349,73366,5,0
432,304,73732,1,2
496,344,74098,1,0
432,304,74464,2,0,B|424:264|376:256|376:256|328:264|312:320,1,149.999988377095,0|2
256,336,75561,1,0
256,336,75927,1,0
256,264,76293,6,0,B|232:224,1,37.4999970942737
224,200,76659,2,0,B|152:200|152:168|72:168,1,149.999995529652,2|0
40,232,77757,2,0,B|-8:232,2,37.4999970942737,0|0|2
112,248,78488,2,0,B|152:248|152:272|192:272,1,74.9999941885474,0|0
256,200,79220,5,0
256,200,79586,2,0,B|296:112|376:112|424:160|408:248|304:272,1,299.99997675419,2|2
256,304,81415,1,0
216,304,81598,1,0
176,304,81781,2,0,B|152:352,4,37.4999970942737,0|0|0|0|2
256,200,82879,5,0
256,200,83062,1,0
256,200,83244,2,0,B|216:112|136:112|88:160|104:248|208:272,1,299.99997675419
200,344,85074,1,0
232,320,85257,1,0
256,296,85440,2,0,B|400:360,2,149.999988377095,2|0|2
256,224,87269,2,0,B|352:264,1,74.9999941885474,0|0
376,312,88001,5,0
376,312,88366,2,0,B|432:320|496:360,2,112.499991282821,2|0|0
376,240,89830,1,2
376,240,90196,2,0,B|384:144,2,74.9999977648259,0|0|0
312,192,91293,5,4
280,168,91476,1,0
240,160,91659,1,0
200,168,91842,1,0
168,184,92025,1,0
136,208,92208,1,0
112,232,92391,1,0
88,264,92574,1,0
72,296,92757,6,0,B|168:296,1,74.9999941885474,2|0
216,328,93488,2,0,B|304:328,1,74.9999941885474,2|0
368,328,94220,1,4
256,192,94403,12,0,97147
472,64,98610,6,0,B|368:64,1,74.9999941885474,2|0
328,32,99342,2,0,B|248:32,1,74.9999941885474
176,32,100074,1,4
256,192,100257,12,0,103001
128,120,104464,5,2
24,120,104830,2,0,B|112:120,2,49.9999976158143,0|0|0
24,224,105562,1,0
24,320,105927,2,0,B|80:368|176:304|256:368,1,199.999990463257,2|0
408,272,107391,5,2
408,272,107757,1,0
408,176,108122,1,0
408,176,108488,1,0
320,224,108854,1,2
320,224,109220,1,0
224,224,109586,2,0,B|88:224,2,99.9999952316285,0|0|2
24,224,111049,1,0
208,152,111781,5,6
264,72,112147,1,0
160,72,112513,2,0,B|96:72,3,49.9999976158143,0|0|0|0
88,112,113244,2,0,B|208:112,1,99.9999952316285,12|0
288,120,113976,5,0
320,160,114159,1,0
288,200,114342,1,0
256,160,114525,1,0
256,160,114708,2,0,B|104:160,2,149.999992847443,12|0|0
360,160,116171,1,12
256,328,116903,1,0
208,240,117269,1,0
304,240,117635,1,0
256,192,138122,12,0,139586
80,192,140318,6,0,B|112:128|152:144|176:80,1,149.999995529652,0|4
256,144,141415,1,0
256,248,141781,1,0
336,192,142147,2,0,B|416:152,4,50,0|0|2|0|0
440,192,143244,5,0
440,192,143610,1,0
384,272,143976,2,0,B|312:312|264:264|184:304,1,199.999990463257,2|0
88,304,145074,5,0
88,256,145257,1,0
88,208,145440,1,2
88,160,145622,1,0
88,112,145805,1,0
168,56,146171,1,0
168,56,146537,2,0,B|248:56,2,49.9999976158143,0|0|6
200,152,147269,6,0,B|320:120,1,99.9999952316285,0|0
392,88,148001,2,0,B|440:72,4,49.9999976158143,0|0|2|0|0
440,176,149098,2,0,B|344:208,1,99.9999952316285,0|0
432,256,149830,6,0,B|376:200|288:216|240:152,2,199.999990463257,2|0|2
480,280,151476,1,0
432,304,151659,1,0
384,304,151842,1,0
344,272,152025,1,0
296,272,152208,2,0,B|224:272,1,49.9999976158143
192,272,152574,1,0
144,272,152757,6,2,B|88:184|144:80,2,199.999990463257,4|0|2
192,184,154586,1,0
256,264,154952,1,0
320,184,155318,1,0
376,272,155683,2,2,B|416:160|352:72,2,199.999990463257,0|0|2
328,272,157330,2,0,B|248:272,1,49.9999976158143
208,344,157879,6,0,B|96:296,1,99.9999952316285,0|0
80,272,158427,2,0,B|32:200|112:104|224:160,1,249.999988079071,0|2
280,80,159708,1,0
344,152,160074,1,0
408,80,160440,1,0
344,152,160805,6,0,B|456:200,1,99.9999952316285,2|0
472,224,161354,2,0,B|520:296|440:392|328:336,1,249.999988079071,0|2
232,336,162635,1,0
128,336,163001,1,2
184,256,163366,2,0,B|184:144,1,99.9999952316285,0|0
136,72,164098,5,0
256,192,164464,12,4,170318
256,192,187879,5,4
184,120,188244,1,0
184,120,188427,1,0
184,120,188610,2,0,B|128:144|104:200,1,100
96,232,189159,1,0
200,344,189708,5,0
256,264,190074,1,0
312,344,190440,1,0
384,272,190805,2,0,B|432:304|464:352,2,100,2|0|0
336,360,191903,1,0
288,272,192269,2,0,B|240:304|208:352,2,100,2|0|0
344,224,193366,5,0
328,192,193549,1,0
320,152,193732,1,2
384,64,194098,1,0
400,96,194281,1,0
408,136,194464,1,0
472,240,194830,6,0,B|520:240,2,37.4999970942737,0|0|2
400,248,195561,2,0,B|360:248|360:272|320:272,1,74.9999941885474,0|0
256,200,196293,5,0
256,200,196659,2,0,B|216:112|136:112|88:160|104:248|208:272,1,299.99997675419,2|2
256,304,198488,1,0
296,304,198671,1,0
336,304,198854,2,0,B|360:352,4,37.4999970942737,0|0|0|0|2
256,200,199952,5,0
256,200,200135,1,0
256,200,200318,2,0,B|296:112|376:112|424:160|408:248|304:272,1,299.99997675419,0|0
320,344,202147,1,0
288,320,202330,1,0
256,296,202513,2,0,B|112:360,2,149.999988377095,2|0|2
256,224,204342,2,0,B|160:264,1,74.9999977648259
136,312,205074,5,0
136,312,205440,2,0,B|80:320|16:360,2,112.499991282821,2|0|0
136,240,206903,1,2
136,240,207269,2,0,B|136:144,2,74.9999941885474,0|0|0
200,272,208366,5,0
232,256,208549,1,0
256,224,208732,1,0
272,192,208915,1,0
272,152,209098,2,0,B|248:96,3,37.4999988824129
232,88,209830,5,0
200,72,210013,1,0
160,72,210196,1,0
128,88,210379,1,0
88,96,210562,2,0,B|40:64,3,37.4999988824129
24,48,211293,6,0,B|80:80|136:48,1,99.9999952316285,4|0
168,56,212391,1,0
216,56,212757,2,0,B|272:40|328:64,1,99.9999952316285,4|0
296,104,213854,1,0
296,152,214220,2,0,B|352:176|408:144,1,99.9999952316285,4|0
432,112,215318,1,0
432,160,215683,6,0,B|464:208|432:264,1,99.9999952316285,4|0
384,256,216781,1,0
344,224,217147,2,0,B|312:272|344:328,1,99.9999952316285,4|0
296,352,218244,1,0
264,312,218610,6,0,B|216:280|160:320,1,99.9999952316285,4|0
120,336,219708,1,0
96,288,220074,2,0,B|128:240|96:184,1,99.9999952316285,4|0
104,144,221171,6,0,B|104:104,2,24.9999988079071,0|0|8
176,144,221903,1,0
176,144,222269,2,0,B|328:144,2,149.999988377095,0|12|0
176,184,223915,2,0,B|112:184,2,37.4999970942737
176,224,224464,2,0,B|328:224,2,149.999988377095,12|0|4
176,296,226293,5,0
128,240,226659,2,0,B|72:176,1,74.9999941885474
136,136,227391,2,0,B|232:136,1,74.9999941885474,4|0
272,176,228122,2,0,B|176:232,2,112.499991282821,0|0|0
280,248,229586,2,0,B|400:248,2,112.499991282821,0|0|0
256,320,231049,6,0,B|176:304|128:240,1,149.999988377095,0|4
128,168,232147,1,0
176,224,232513,1,0
224,168,232879,1,0
272,224,233244,1,0
320,168,233610,1,0
368,224,233976,1,0
416,168,234342,1,0
256,192,234708,12,0,236171
432,192,236903,6,0,B|400:128|360:144|336:80,1,139.99998998642,2|4
256,144,238001,1,0
256,248,238366,1,6
176,192,238732,2,0,B|104:152,4,50,0|0|6|0|0
72,192,239830,5,6
72,192,240196,1,0
128,272,240561,2,0,B|200:312|248:264|328:304,1,199.999990463257,6|4
424,304,241659,5,0
424,256,241842,1,0
424,208,242025,1,6
424,160,242208,1,0
424,112,242391,1,0
344,56,242757,1,6
344,56,243122,2,0,B|264:56,2,49.9999976158143,0|0|6
312,152,243854,6,0,B|192:120,1,99.9999952316285,0|6
120,88,244586,2,0,B|72:72,4,49.9999976158143,0|0|6|0|0
72,176,245683,2,0,B|168:208,1,99.9999952316285,6|0
80,256,246415,6,0,B|136:200|224:216|272:152,2,199.999990463257,6|6|6
32,280,248061,1,0
80,304,248244,1,0
128,304,248427,1,0
168,272,248610,1,4
216,272,248793,2,0,B|288:272,1,49.9999976158143
320,272,249159,1,0
368,272,249342,6,2,B|424:184|368:80,2,199.999990463257,4|6|4
320,184,251171,1,0
256,256,251537,1,6
192,184,251903,1,0
136,272,252269,2,2,B|96:160|160:72,2,199.999990463257,4|6|4
184,272,253915,2,0,B|264:272,1,49.9999976158143
304,344,254464,6,0,B|416:296,1,99.9999952316285,6|0
432,272,255013,2,0,B|480:200|400:104|288:160,1,249.999988079071,0|6
232,80,256293,1,0
168,152,256659,1,4
104,80,257025,1,0
168,152,257391,6,0,B|56:200,1,99.9999952316285,6|0
40,232,257940,2,0,B|-8:304|72:400|184:344,1,249.999988079071,0|6
240,328,259220,1,0
344,328,259586,1,4
288,248,259952,2,0,B|288:136,1,99.9999952316285,0|2
336,64,260683,5,0
288,64,260866,2,0,B|192:96|200:176|88:216,1,249.999988079071,0|2
112,120,262147,2,0,B|8:120,2,99.9999952316285,0|2|0
120,24,263244,2,0,B|200:56|184:120|280:168,1,199.999990463257,2|2
352,208,264342,5,0
352,208,264708,1,2
296,288,265074,2,0,B|400:288,2,99.9999952316285,0|2|0
192,288,266171,6,0,B|80:288|8:184,2,199.999990463257,2|6|2
256,216,268001,2,0,B|256:144,4,49.9999976158143,0|0|2|0|0
320,288,269098,2,0,B|432:288|504:184,2,199.999990463257,2|6|2
272,288,270744,6,0,B|200:288,1,49.9999976158143
168,288,271110,1,0
48,200,271659,2,0,B|48:136,2,49.9999976158143,0|0|2
48,304,272391,1,0
152,304,272757,6,0,B|368:304,2,199.999990463257,4|2|2
208,224,274586,2,0,B|208:160|208:160|248:120,2,99.9999952316285,0|2|0
304,200,275683,2,0,B|304:320|304:320|216:376,2,199.999990463257,4|2|0
256,120,277513,1,0
168,64,277879,2,0,B|192:32|240:0|344:24|352:64|350:98,1,200
256,192,278793,12,2,280074
144,192,280440,5,0
256,88,280805,1,2
368,192,281171,1,0
256,192,281354,12,2,283001
168,208,283732,6,0,B|184:256|256:280|336:256|336:168,1,199.999990463257,0|4
