osu file format v9

[General]
AudioFilename: star story.mp3
AudioLeadIn: 2000
PreviewTime: 68772
Countdown: 0
SampleSet: Soft
StackLeniency: 0.7
Mode: 0
LetterboxInBreaks: 1

[Editor]
DistanceSpacing: 0.8
BeatDivisor: 4
GridSize: 8

[Metadata]
Title:Star Story
Artist:Hatsune Miku
Creator:kanpakyin
Version:Easy
Source:VOCALOID
Tags:kino77 Hatsune miku project diva Kz livetune

[Difficulty]
HPDrainRate:3
CircleSize:4
OverallDifficulty:2
ApproachRate:3
SliderMultiplier:1
SliderTickRate:1

[Events]
//Background and Video events
0,0,"bg.jpg"
//Break Periods
2,96825,108900
//Storyboard Layer 0 (Background)
//Storyboard Layer 1 (Fail)
//Storyboard Layer 2 (Pass)
//Storyboard Layer 3 (Foreground)
Sprite,Foreground,Centre,"lyrics\0.png",320,240 S,0,625,,0.5 F,0,625,1910,0,1 M,0,625,182339,525,63 F,0,1910,98339,1 F,0,98339,100053,1,0 F,0,100053,108625,0 F,0,108625,110339,0,1 F,0,110339,178910,1 F,0,178910,182339,1,0
Sprite,Foreground,Centre,"lyrics\1.png",320,240 F,0,29339,29767,0,1 M,0,29339,36196,162,330,192,330 F,0,29767,35767,1 F,0,35767,36196,1,0
Sprite,Foreground,Centre,"lyrics\2.png",320,240 F,0,32767,33196,0,1 M,0,32767,36196,477,390,462,390 F,0,33196,35767,1 F,0,35767,36196,1,0
Sprite,Foreground,Centre,"lyrics\3.png",320,240 F,0,36196,36625,0,1 M,0,36196,43053,219,330,249,330 F,0,36625,42625,1 F,0,42625,43053,1,0
Sprite,Foreground,Centre,"lyrics\4.png",320,240 F,0,39196,39625,0,1 M,0,39196,43053,448,390,433,390 F,0,39625,42625,1 F,0,42625,43053,1,0
Sprite,Foreground,Centre,"lyrics\5.png",320,240 F,0,43053,43482,0,1 M,0,43053,49910,163,330,193,330 F,0,43482,49482,1 F,0,49482,49910,1,0
Sprite,Foreground,Centre,"lyrics\6.png",320,240 F,0,46482,46910,0,1 M,0,46482,49910,477,390,462,390 F,0,46910,49482,1 F,0,49482,49910,1,0
Sprite,Foreground,Centre,"lyrics\7.png",320,240 F,0,49910,50339,0,1 M,0,49910,56767,191,330,221,330 F,0,50339,56339,1 F,0,56339,56767,1,0
Sprite,Foreground,Centre,"lyrics\8.png",320,240 F,0,52910,53339,0,1 M,0,52910,56767,449,390,434,390 F,0,53339,56339,1 F,0,56339,56767,1,0
Sprite,Foreground,Centre,"lyrics\9.png",320,240 F,0,56767,57196,0,1 M,0,56767,69196,246,330,276,330 F,0,57196,68767,1 F,0,68767,69196,1,0
Sprite,Foreground,Centre,"lyrics\10.png",320,240 F,0,61910,62339,0,1 M,0,61910,69196,393,390,378,390 F,0,62339,68767,1 F,0,68767,69196,1,0
Sprite,Foreground,Centre,"lyrics\11.png",320,240 F,0,69196,69625,0,1 M,0,69196,77339,162,330,192,330 F,0,69625,76910,1 F,0,76910,77339,1,0
Sprite,Foreground,Centre,"lyrics\12.png",320,240 F,0,73910,74339,0,1 M,0,73910,77339,476,390,461,390 F,0,74339,76910,1 F,0,76910,77339,1,0
Sprite,Foreground,Centre,"lyrics\13.png",320,240 F,0,77339,77767,0,1 M,0,77339,82910,134,330,164,330 F,0,77767,82482,1 F,0,82482,82910,1,0
Sprite,Foreground,Centre,"lyrics\14.png",320,240 F,0,80339,80767,0,1 M,0,80339,82910,422,390,407,390 F,0,80767,82482,1 F,0,82482,82910,1,0
Sprite,Foreground,Centre,"lyrics\15.png",320,240 F,0,82910,83339,0,1 M,0,82910,91053,162,330,192,330 F,0,83339,90625,1 F,0,90625,91053,1,0
Sprite,Foreground,Centre,"lyrics\16.png",320,240 F,0,87625,88053,0,1 M,0,87625,91053,504,390,489,390 F,0,88053,90625,1 F,0,90625,91053,1,0
Sprite,Foreground,Centre,"lyrics\17.png",320,240 F,0,91053,91482,0,1 M,0,91053,98339,135,330,165,330 F,0,91482,97910,1 F,0,97910,98339,1,0
Sprite,Foreground,Centre,"lyrics\18.png",320,240 F,0,94482,94910,0,1 M,0,94482,98339,393,390,378,390 F,0,94910,97910,1 F,0,97910,98339,1,0
Sprite,Foreground,Centre,"lyrics\19.png",320,240 F,0,124053,124482,0,1 M,0,124053,128767,60,185,100,185 F,0,124482,128339,1 F,0,128339,128767,1,0
Sprite,Foreground,Centre,"lyrics\20.png",320,240 F,0,128767,129196,0,1 M,0,128767,132196,60,185,100,185 F,0,129196,131767,1 F,0,131767,132196,1,0
Sprite,Foreground,Centre,"lyrics\21.png",320,240 F,0,132196,132625,0,1 M,0,132196,135196,60,157,100,157 F,0,132625,134767,1 F,0,134767,135196,1,0
Sprite,Foreground,Centre,"lyrics\22.png",320,240 S,0,135196,,0.9 F,0,135196,135625,0,1 M,0,135196,137767,60,219,100,219 F,0,135625,137339,1 F,0,137339,137767,1,0
Sprite,Foreground,Centre,"lyrics\23.png",320,240 F,0,137767,138196,0,1 M,0,137767,142482,60,185,100,185 F,0,138196,142053,1 F,0,142053,142482,1,0
Sprite,Foreground,Centre,"lyrics\24.png",320,240 F,0,142482,142910,0,1 M,0,142482,145910,60,157,100,157 F,0,142910,145482,1 F,0,145482,145910,1,0
Sprite,Foreground,Centre,"lyrics\25.png",320,240 F,0,145910,146339,0,1 M,0,145910,149339,60,157,100,157 F,0,146339,148910,1 F,0,148910,149339,1,0
Sprite,Foreground,Centre,"lyrics\26.png",320,240 S,0,149339,,0.8 F,0,149339,149767,0,1 M,0,149339,153196,90,250,90,235 F,0,149767,152767,1 F,0,152767,153196,1,0
Sprite,Foreground,Centre,"lyrics\26.png",320,240 M,0,151482,152767,90,241,90,236 F,0,151482,152767,0.8,0 S,0,151482,152767,0.8,1
Sprite,Foreground,Centre,"lyrics\27.png",320,240 S,0,100053,,1.2 F,0,100053,100910,0,1 M,0,100053,108625,320,130,320,125 F,0,100910,107767,1 F,0,107767,108625,1,0
Sprite,Foreground,Centre,"lyrics\28.png",320,240 S,0,101767,,0.8 F,0,101767,102625,0,1 M,0,101767,108625,315,225,325,225 F,0,102625,107767,1 F,0,107767,108625,1,0
Sprite,Foreground,Centre,"lyrics\29.png",320,240 S,0,101767,,0.8 F,0,101767,102625,0,1 M,0,101767,108625,325,275,315,275 F,0,102625,107767,1 F,0,107767,108625,1,0
Sprite,Foreground,Centre,"lyrics\30.png",320,240 S,0,103482,,0.75 F,0,103482,104339,0,1 M,0,103482,108625,317,340,323,340 F,0,104339,107767,1 F,0,107767,108625,1,0
Sprite,Foreground,Centre,"lyrics\32.png",320,240 S,0,103482,,0.75 F,0,103482,104339,0,1 M,0,103482,108625,323,380,317,380 F,0,104339,107767,1 F,0,107767,108625,1,0
Sprite,Foreground,Centre,"SB\BLACK.jpg",320,240 S,0,-1089,,1.5 F,0,-1089,625,0,0.5 F,0,625,28053,0.5,0.3 F,0,28053,28160,0.3,0
Sprite,Foreground,Centre,"SB\White Effect.png",320,240 F,0,27196,28053,0,0.3 S,0,27196,28053,1,1.5 F,0,28053,28160,0.3,0.5 F,0,28160,29767,0.5,0
Sprite,Foreground,Centre,"SB\WHITE.jpg",320,240 S,0,28053,,1.5 F,0,28053,28160,0,0.5 F,0,28160,29767,0.5,0
Sprite,Foreground,Centre,"SB\White Effect.png",320,240 F,0,67482,69196,0,0.5 S,0,67482,69196,1,1.5 F,0,69196,69303,0.5,0.7 F,0,69303,70910,0.7,0
Sprite,Foreground,Centre,"SB\WHITE.jpg",320,240 S,0,69196,,1.5 F,0,69196,69303,0,0.8 F,0,69303,70910,0.8,0
Sprite,Foreground,Centre,"SB\BLACK.jpg",320,240 S,0,117196,,1.5 F,0,117196,124267,0,0.6
Sprite,Foreground,Centre,"SB\White Effect.png",320,240 F,0,123196,124053,0,0.5 S,0,123196,124053,0.5,1.5 F,0,124053,124160,0.5,0.8 F,0,124160,125767,0.8,0
Sprite,Foreground,Centre,"SB\WHITE.jpg",320,240 S,0,124053,,1.5 F,0,124053,124160,0,1 F,0,124160,125767,1,0
Sprite,Foreground,Centre,"SB\White Effect.png",320,240 F,0,149767,151482,0,0.5 S,0,149767,151482,0.5,1.5 F,0,151482,151589,0.5,0.7 F,0,151589,153196,0.7,0
Sprite,Foreground,Centre,"SB\WHITE.jpg",320,240 S,0,124053,,1.5 F,0,151482,151589,0,0.8 F,0,151589,153196,0.8,0
//Storyboard Sound Samples
//Background Colour Transformations
3,100,163,162,255

[TimingPoints]
626,428.571428571429,4,2,1,30,1,0
835,-100,4,2,1,30,0,0
1271,-100,4,2,1,20,0,0
1700,-100,4,2,1,10,0,0
2129,-100,4,2,1,40,0,0
2557,-100,4,2,1,31,0,0
2986,-100,4,2,1,20,0,0
3414,-100,4,2,1,10,0,0
3843,-100,4,2,1,40,0,0
4271,-100,4,2,1,30,0,0
4700,-100,4,2,1,20,0,0
5129,-100,4,2,1,11,0,0
5557,-100,4,2,1,41,0,0
5986,-100,4,2,1,30,0,0
6414,-100,4,2,1,21,0,0
6843,-100,4,2,1,10,0,0
7271,-100,4,2,1,40,0,0
7700,-100,4,2,1,30,0,0
8129,-100,4,2,1,20,0,0
8557,-100,4,2,1,10,0,0
8986,-100,4,2,1,40,0,0
9414,-100,4,2,1,31,0,0
9843,-100,4,2,1,20,0,0
10271,-100,4,2,1,12,0,0
10700,-100,4,2,1,42,0,0
11128,-100,4,2,1,32,0,0
11557,-100,4,2,1,20,0,0
11986,-100,4,2,1,11,0,0
12414,-100,4,2,1,41,0,0
12843,-100,4,2,1,32,0,0
13271,-100,4,2,1,20,0,0
13700,-100,4,2,1,11,0,0
14128,-100,4,2,1,50,0,0
27843,-100,4,2,1,23,0,0
28271,-100,4,2,1,50,0,0
55271,-100,4,2,1,80,0,0
55697,-100,4,2,1,50,0,0
69197,-100,4,2,1,59,0,1
96626,-100,4,2,1,41,0,0
124054,-100,4,2,1,61,0,1
151483,-100,4,2,1,41,0,0
180626,-100,4,2,1,32,0,0
181054,-100,4,2,1,20,0,0
181483,-100,4,2,1,11,0,0
181911,-100,4,2,1,0,0,0

[Colours]
Combo1 : 128,0,255
Combo2 : 40,205,31
Combo3 : 255,255,0

[HitObjects]
136,120,625,2,0,B|104:168|144:224,3,100,0|2|0|2
208,168,2340,2,0,B|320:168,3,100,0|2|0|2
384,200,4054,2,0,B|416:256|384:304,3,100,0|2|0|2
320,248,5768,5,0
248,216,6197,1,2
168,240,6626,1,0
96,200,7054,1,2
144,136,7483,6,0,B|144:64,4,50,0|0|2|0|0
144,216,8768,1,2
216,256,9197,6,0,B|192:312|224:360,3,100,0|2|0|2
288,304,10911,2,0,B|400:304,3,100,0|2|0|2
368,224,12625,2,0,B|248:224,3,100,0|2|0|2
192,256,14340,6,0,B|160:208|200:152,3,100,0|2|0|2
264,208,16054,2,0,B|296:264|256:312,3,100,0|2|0|2
200,256,17768,6,0,B|80:256,3,100,0|2|0|2
64,184,19483,2,0,B|168:184,3,100,0|2|0|2
240,200,21197,6,0,B|240:248,4,50,0|0|2|0|0
240,120,22483,1,2
296,176,22911,2,0,B|352:176,4,50,0|0|2|0|0
216,176,24197,1,2
216,256,24626,6,0,B|312:256|312:352|400:352,2,200,0|2|0
224,336,26768,2,0,B|120:336,2,100,0|2|0
224,256,28054,5,4
216,176,28483,2,0,B|176:136|120:128,1,100,2|0
144,216,29340,2,0,B|96:184|48:216,2,100,2|0|2
96,280,30626,2,0,B|96:384,2,100,0|2|0
176,280,31911,1,2
304,184,32768,6,0,B|336:128|296:80,2,100,2|0|2
240,136,34054,2,0,B|184:112|128:144,2,100,0|2|0
192,200,35340,2,0,B|192:312,1,100,0|2
272,296,36197,5,2
352,296,36626,2,0,B|352:216|240:192|256:104,2,200,0|2|0
272,296,38768,2,0,B|216:320|168:288,2,100,2|0|2
224,232,40054,2,0,B|224:160,2,50,0|2|0
296,272,40911,2,0,B|352:272,2,50,2|0|2
256,344,41768,1,0
216,272,42197,5,0
280,216,42626,1,2
208,184,43054,2,0,B|176:136|216:72,2,100,0|2|0
272,136,44340,2,0,B|320:104|376:144,1,100,2|0
416,200,45197,2,0,B|392:264|432:312,1,100,2|0
360,352,46054,1,2
312,288,46483,6,0,B|256:296|216:256,1,100,0|2
288,216,47340,2,0,B|240:200|208:160,1,100,0|2
288,136,48197,2,0,B|240:104|240:48,1,100,0|2
320,48,49054,6,0,B|424:48,2,100,0|2|0
264,104,50340,1,2
184,80,50768,1,0
200,160,51197,1,2
152,224,51625,2,0,B|80:224,2,50,0|0|2
224,256,52483,1,0
280,200,52911,6,0,B|384:200,2,100,2|0|2
328,128,54197,2,0,B|224:128,2,100,0|2|0
368,192,55483,5,4
248,296,56340,1,8
152,160,57197,1,2
224,120,57625,1,0
256,192,58054,2,0,B|360:192,2,100,8|0|2
296,264,59340,2,0,B|184:264,2,100,0|8|0
360,216,60625,6,0,B|392:168|360:120,1,100,2|0
296,168,61483,2,0,B|240:152|192:168,1,100,8|0
128,208,62340,6,0,B|128:320,2,100,2|0|8
200,248,63625,2,0,B|248:224|304:248,2,100,0|2|0
128,280,64911,2,0,B|128:176,2,100,8|0|2
288,304,66625,1,8
320,144,67483,1,2
168,104,68340,1,8
112,256,69197,6,0,B|208:304|320:264,2,200,4|8|2
48,296,71340,2,0,B|39:346|-8:392,2,100,0|8|0
72,216,72625,1,2
104,144,73054,1,0
176,176,73483,1,8
232,112,73911,6,0,B|232:40,2,50,0|0|0
304,152,74768,1,2
248,208,75197,2,0,B|224:264|256:312,2,100,8|0|2
312,256,76483,2,0,B|424:256,2,100,0|8|2
320,336,77768,2,0,B|208:336,3,100,0|2|8|2
168,272,79483,1,4
216,120,80340,5,8
280,168,80768,1,2
352,144,81197,2,0,B|352:248,1,100,0|2
352,320,82054,1,8
208,256,82911,6,0,B|152:288|104:248,2,100,4|2|8
272,208,84197,2,0,B|296:152|256:96,2,100,0|2|0
200,168,85483,2,0,B|184:224|112:224,1,100,8|2
120,144,86340,2,0,B|120:40,2,100,2|0|8
120,224,87625,6,0,B|56:224,2,50,2|0|2
200,224,88483,2,0,B|248:200|312:232,3,100,0|8|2|4
152,160,90625,5,8
160,80,91054,2,0,B|208:112|272:72,3,100,2|0|2|8
248,160,92768,2,0,B|248:264,1,100,2|0
408,256,94054,2,0,B|408:144,1,100,8|2
256,192,94911,12,4,96625
256,120,110340,6,0,B|312:88|368:128,3,100,2|0|8|0
312,192,112054,2,0,B|264:224|200:184,3,100,2|0|8|0
144,224,113768,2,0,B|144:336,3,100,2|0|8|0
72,296,115483,2,0,B|72:176,3,100,2|0|8|0
144,168,117197,5,2
208,120,117625,1,0
232,200,118054,1,8
288,144,118483,1,0
344,88,118911,6,0,B|400:184|344:288,2,200,2|8|2
272,128,121054,2,0,B|216:144|168:120,2,100,0|8|0
312,200,122340,2,0,B|312:256,6,50,2|0|0|0|8|0|0
232,176,124054,6,0,B|176:152|120:184,2,100,4|2|8
288,232,125340,1,0
360,272,125768,2,0,B|360:152,3,100,2|2|8|0
280,192,127483,1,4
232,128,127911,1,2
160,160,128340,1,8
200,232,128768,6,0,B|200:304,2,50,2|0|2
280,232,129625,2,0,B|328:208|392:240,3,100,0|8|2|0
328,296,131340,1,2
264,344,131768,1,8
248,264,132197,6,0,B|280:216|240:160,1,100,0|2
176,208,133054,2,0,B|144:160|184:104,1,100,0|8
240,160,133911,2,0,B|352:160,3,100,0|0|0|8
344,240,135625,1,2
288,296,136054,5,0
224,248,136483,2,0,B|160:248,2,50,2|0|2
296,216,137340,1,4
360,168,137768,6,0,B|384:120|352:64,2,100,4|0|8
280,168,139054,1,2
200,168,139483,2,0,B|168:216|208:264,3,100,0|2|8|2
272,208,141197,2,0,B|328:200|360:272,1,100,0|2
352,336,142054,2,0,B|424:336|424:264,1,100,8|2
344,256,142911,6,0,B|344:152,3,100,0|2|8|2
264,136,144625,2,0,B|264:248,2,100,0|2|8
192,104,145911,1,2
128,160,146340,1,0
112,240,146768,1,2
48,192,147197,6,0,B|16:248|56:304,2,100,8|2|0
112,240,148483,2,0,B|224:240,1,100,2|8
208,320,149340,2,8,B|320:320,1,100
368,272,150197,2,0,B|400:224|360:160,3,100
232,88,152340,5,8
120,200,153197,1,2
232,312,154054,1,8
344,200,154911,2,0,B|440:160,2,100,0|2|8
232,80,156626,2,0,B|128:128,4,100,2|2|8|2|0
240,240,159197,5,8
296,296,159626,1,0
352,240,160054,2,0,B|392:184|344:128,3,100,2|0|8|0
288,192,161768,2,0,B|256:152|192:152,1,100,0|2
216,232,162626,2,0,B|120:192|16:232,2,200,8|2|8
368,280,165197,5,4
400,120,166054,1,8
240,88,166911,1,2
200,248,167768,1,8
336,152,168626,6,0,B|368:104|328:48,2,100,2|0|8
272,104,169911,1,0
208,152,170340,1,2
256,216,170768,2,0,B|224:272|272:328,1,100,0|8
328,264,171626,1,2
360,192,172054,6,0,B|360:88,2,100,2|0|8
288,152,173340,2,0,B|288:272,2,100,0|2|0
216,144,174626,2,0,B|168:112|120:144,2,100,8|0|2
168,208,175911,2,0,B|168:312,3,100,0|8|0|2
248,288,177626,2,0,B|352:328|448:288,1,200,0|2
256,192,178911,12,0,182340
