osu file format v6

[General]
AudioFilename: Hatsune miku Project DIVA HD Sono ichibyo Slow motion PSP.mp3
AudioLeadIn: 0
PreviewTime: 50624
Countdown: 0
SampleSet: Soft
StackLeniency: 0.6
Mode: 0
LetterboxInBreaks: 1

[Editor]
DistanceSpacing: 0.800000011920929
BeatDivisor: 8
GridSize: 16

[Metadata]
Title:Slow Motion
Artist:Hatsune Miku
Creator:Krisom
Version:Normal
Source:Vocaloid
Tags:ryo Supercell

[Difficulty]
HPDrainRate:3
CircleSize:5
OverallDifficulty:5
SliderMultiplier:1.5
SliderTickRate:1

[Events]
//Background and Video events
Video,0,"Miku Slow Motion.mpg"
0,0,"Slow Motion BG.jpg"
//Break Periods
2,44096,46697
2,74097,75424
2,96823,99060
2,102642,122333
2,133551,136879
2,163733,174788
//Storyboard Layer 0 (Background)
//Storyboard Layer 1 (Fail)
//Storyboard Layer 2 (Pass)
//Storyboard Layer 3 (Foreground)
//Storyboard Sound Samples
//Background Colour Transformations
3,100,219,167,254

[TimingPoints]
7170,727.272727272727,4,2,0,70,1,0
50658,-100,4,1,0,51,0,1
76600,-100,4,2,0,70,0,0
123342,-100,4,2,0,70,0,0
138056,-100,4,1,0,50,0,0
161351,-100,4,2,0,30,0,0
161351,-100,4,1,0,23,0,1

[Colours]
Combo1 : 255,121,208
Combo2 : 88,9,236
Combo3 : 37,192,84
Combo4 : 236,9,54

[HitObjects]
256,192,13351,5,0
320,192,13715,1,0
384,192,14079,5,0
448,192,14442,1,0
448,128,14806,5,0
416,128,14988,1,0
320,128,15533,5,2
288,128,15715,1,2
256,224,16260,5,0
192,224,16624,1,0
128,224,16988,5,0
64,224,17351,1,0
64,288,17715,5,0
96,288,17897,1,0
96,160,18442,5,2
96,96,18806,1,2
160,96,19170,5,0
224,128,19533,1,8
288,160,19897,1,0
352,192,20260,1,8
352,256,20624,1,0
288,224,20988,5,8
220,184,21351,1,0
192,160,21533,1,0
164,133,21715,6,8,B|175:74|252:51|292:69,1,150
416,64,22988,1,0
448,64,23169,2,0,L|448:160|384:224|256:224,1,300
256,160,24988,5,0
256,96,25351,1,0
320,96,25715,5,0
320,160,26079,1,2
320,224,26442,5,0
288,224,26624,1,2
224,192,26988,5,0
224,160,27170,1,2
224,128,27351,1,2
224,96,27533,1,2
288,96,27897,5,0
288,160,28260,1,0
288,224,28624,1,0
224,224,28988,5,0
160,224,29351,1,0
128,224,29533,1,0
160,144,29897,5,0
160,144,30079,2,2,B|64:144,1,75
144,144,30806,6,0,B|240:144,1,75,0|8
192,192,31533,2,0,B|96:192,2,75,0|8|0
256,192,32624,5,0
288,192,32806,1,0
320,192,32988,1,8
256,96,33897,5,2
224,96,34079,1,2
224,192,34624,5,2
256,192,34806,1,2
128,288,36079,5,0
160,288,36260,1,0
224,288,36624,2,0,B|320:288,1,75
320,224,37351,2,0,B|224:224,1,75
181,224,38079,1,8
182,158,38442,1,8
183,95,38806,1,8
248,96,39170,6,0,B|300:96|350:96|376:96,1,112.5
360,96,39897,1,8
360,185,40442,6,0,B|360:313,1,112.5
299,298,41351,1,8
239,298,41715,1,8
179,298,42079,6,0,B|179:170,1,112.5
180,186,42806,1,8
180,96,43351,6,0,B|301:96,1,112.5
33,32,47897,5,8
64,32,48079,1,8
64,128,48624,1,8
32,128,48806,1,8
32,192,49170,1,8
32,192,49351,2,2,B|128:192,1,75
106,192,49897,1,8
171,193,50260,1,8
192,192,50442,1,4
224,256,50806,6,0,B|259:216|259:215|287:224,1,75,0|8
256,160,51533,2,0,B|308:160|313:101,1,75,0|8
256,64,52260,1,0
320,64,52624,1,8
352,64,52806,1,0
384,128,53351,5,8
384,192,53715,1,0
384,256,54079,2,0,B|352:304,1,37.5,8|0
288,320,54624,1,0
224,288,54988,2,0,B|189:245,3,37.5,0|0|0|8
200,261,55715,2,0,B|200:133,1,112.5,0|0
200,88,56624,6,0,B|342:182,1,150,0|4
325,111,57715,2,0,B|188:192,1,150,0|4
195,247,58806,2,0,B|291:247,1,75
331,247,59533,1,0
331,307,59897,2,0,B|270:307,1,37.5
233,307,60442,1,0
233,247,60806,6,2,B|233:201,1,37.5
293,210,61351,2,2,B|293:160,1,37.5
352,192,61897,2,2,B|352:238,1,37.5,2|10
309,187,62442,6,0,B|292:154|292:154|259:91|305:59|331:125|331:125|393:83|425:119|308:203|308:203,3,300
416,192,67351,1,8
341,128,67897,1,8
341,192,68260,6,0,B|257:192|160:192,1,150,0|4
191,131,69351,2,0,B|353:131,1,150,0|4
341,71,70442,1,0
280,71,70806,1,8
220,71,71170,2,0,B|136:72,1,75,0|8
103,114,71897,2,0,B|103:210,2,75
160,144,72988,6,0,C|224:144,1,37.5
257,144,73533,1,0
317,144,73897,1,0
256,352,76624,5,0
288,288,76988,2,2,B|358:233|375:159,1,150
384,96,78079,1,0
352,32,78442,2,2,B|276:-1|191:86,1,150
224,128,79533,1,0
224,64,79897,2,2,B|124:4|86:67,1,150
64,128,80988,1,0
64,192,81351,2,2,B|85:260|184:305,1,150
224,320,82442,5,0
288,320,82806,2,2,B|384:320|384:192,1,150
384,160,83897,1,0
384,96,84260,2,2,B|384:16|272:16,1,150
208,16,85351,1,0
144,16,85715,2,2,B|48:16|48:144,1,150
48,176,86806,1,0
128,176,87170,6,2,B|177:175|177:175|165:137|140:212|246:170,1,150
272,112,88260,1,0
304,176,88624,2,2,B|352:176|352:176|352:144|352:208|352:176|440:176,1,150
432,240,89715,5,0
352,240,90079,2,2,B|256:240|272:128,1,150
240,80,91170,1,0
208,144,91533,2,2,B|208:240|96:240,1,150
32,240,92624,5,0
32,160,92988,2,2,B|32:80|144:80,1,150
144,160,94079,1,0
160,240,94442,6,4,B|299:155,3,150,4|0|4|0
256,192,100260,12,0,102442
96,128,123533,5,0
96,192,123897,1,0
160,192,124260,1,0
160,128,124624,1,0
224,128,124988,1,0
224,192,125351,1,0
288,192,125715,1,0
288,128,126079,1,0
352,128,126442,2,2,C|416:128|464:128|464:128,1,112.5
464,96,127170,1,2
384,64,127715,5,0
352,64,127897,1,0
288,64,128260,2,0,B|192:64,1,75
96,288,129351,6,0,B|192:288,1,75,2|0
160,224,130079,2,0,B|64:224,1,75,2|0
96,160,130806,2,0,B|192:160,1,75,2|0
160,96,131533,1,4
256,192,132260,5,0
256,128,132624,1,8
256,96,132806,1,8
320,96,133170,1,8
320,128,133351,1,8
192,288,138079,5,0
192,224,138442,2,0,B|288:224,2,75,8|0|8
128,224,139533,1,0
128,160,139897,2,0,B|192:160,1,37.5,8|0
256,160,140624,6,0,B|256:96,1,37.5,8|0
256,96,140988,2,0,B|256:32,2,37.5,0|0|8
256,96,141533,2,0,B|128:96,1,112.5
143,156,142442,2,0,L|239:156,1,75
217,155,142988,2,0,B|313:155,1,75
322,155,143533,1,8
384,160,143897,6,2,B|320:192|288:160|224:128,1,150
288,96,144988,2,2,B|224:64|128:96,1,150
96,128,146079,2,0,B|160:160|192:128,2,75
32,160,147170,2,0,B|96:160,1,37.5
64,224,147715,2,0,B|128:224,1,37.5
160,224,148260,5,4
256,128,148806,5,4
352,224,149351,5,4
416,224,149715,6,0,B|480:192|480:160,1,75,0|8
480,128,150442,1,0
416,128,150806,1,8
352,128,151170,2,0,B|352:64|256:64,1,112.5
211,67,152079,6,0,B|211:164|130:163,1,112.5
96,160,152988,1,8
96,224,153351,1,0
96,288,153715,1,8
160,160,154442,1,8
160,224,154806,1,0
160,288,155170,1,8
224,288,155533,6,2,B|256:256|320:320|384:256,1,150
320,224,156624,2,2,B|288:192|256:256|160:224,1,150
160,160,157715,2,0,B|224:96,1,75
224,160,158442,2,0,B|288:224,1,75
288,160,159170,2,0,B|352:96,1,75
352,160,159897,2,0,B|416:160,2,37.5
352,224,160624,1,0
171,224,161169,1,0
256,192,161533,12,4,163533
256,192,175988,5,4
256,192,178260,1,0
