osu file format v6

[General]
AudioFilename: Hatsune miku Project DIVA HD Sono ichibyo Slow motion PSP.mp3
AudioLeadIn: 993
PreviewTime: 50624
Countdown: 2
SampleSet: Soft
StackLeniency: 0.6
Mode: 0
LetterboxInBreaks: 1

[Editor]
DistanceSpacing: 0.800000011920929
BeatDivisor: 8
GridSize: 32

[Metadata]
Title:Slow Motion
Artist:Hatsune Miku
Creator:Krisom
Version:Hard
Source:Vocaloid
Tags:ryo Supercell

[Difficulty]
HPDrainRate:8
CircleSize:6
OverallDifficulty:6
SliderMultiplier:2
SliderTickRate:0.5

[Events]
//Background and Video events
Video,0,"Miku Slow Motion.mpg"
0,0,"Slow Motion BG.jpg"
//Break Periods
2,23370,23938
2,49006,49756
2,74097,75574
2,96824,99210
2,102278,122301
2,133551,137029
2,163734,174938
//Storyboard Layer 0 (Background)
//Storyboard Layer 1 (Fail)
//Storyboard Layer 2 (Pass)
//Storyboard Layer 3 (Foreground)
//Storyboard Sound Samples
//Background Colour Transformations
3,100,219,167,254

[TimingPoints]
7170,727.272727272727,4,2,0,70,1,0
50658,-100,4,1,0,51,0,1
76600,-100,4,2,0,70,0,0
123372,-100,4,2,0,70,0,0
138056,-100,4,1,0,50,0,1
166054,-100,4,2,0,30,0,0

[Colours]
Combo1 : 255,121,208
Combo2 : 81,4,240
Combo3 : 37,192,84
Combo4 : 239,5,75

[HitObjects]
256,192,1351,5,0
256,96,1897,2,0,B|256:168,1,50
160,192,2806,1,0
256,224,3170,1,0
352,192,3533,1,0
256,32,4260,5,0
256,160,4806,1,0
256,288,5351,1,0
256,224,5715,1,0
256,224,5897,1,0
256,224,6079,1,0
256,224,6260,1,0
256,224,6624,1,0
256,160,6988,1,0
256,160,7170,2,0,B|256:0,1,150
257,9,7897,5,0
160,128,8624,1,0
256,96,8988,1,0
352,128,9351,1,0
256,224,10079,1,0
256,352,10624,1,0
256,224,11170,1,0
256,160,11533,1,0
256,32,12260,1,0
64,224,13351,5,0
96,160,13715,1,0
128,224,14079,1,0
96,160,14442,1,0
96,96,14806,1,0
96,96,14988,2,0,B|96:224,1,100
96,224,15533,1,8
96,224,15715,1,8
448,192,16260,5,0
384,192,16624,1,0
416,256,16988,1,0
384,192,17351,1,0
416,256,17715,1,0
416,256,17897,1,0
416,192,18260,1,2
416,160,18442,1,2
416,128,18624,1,2
416,96,18806,1,2
224,64,19170,6,2,B|320:96,1,100
320,176,19897,2,2,B|192:240,1,100
240,304,20624,1,2
256,208,20988,5,8
288,176,21170,1,0
256,144,21351,1,8
224,176,21533,1,0
192,144,21715,2,8,B|253:0|335:167,1,200
256,256,22988,1,0
256,256,23170,1,0
256,96,24988,6,0,B|256:224,3,100
256,256,26442,1,0
256,256,26624,2,0,B|256:128,1,100
256,128,27170,1,2
256,96,27351,1,2
256,64,27533,1,2
224,192,27897,5,0
288,192,28260,1,0
224,128,28624,1,0
288,128,28988,1,0
256,64,29351,1,0
256,96,29533,2,0,B|256:224,1,100
256,224,30079,1,2
256,224,30260,1,2
256,224,30442,1,2
256,288,30806,6,0,B|320:288|320:224,1,100
320,160,31533,2,0,B|320:96|384:96,1,100
448,96,32260,1,0
448,192,32624,5,2
416,224,32806,1,0
384,192,32988,1,2
416,160,33170,1,0
416,224,33351,2,0,B|384:288|320:320|288:256,1,150,8|0
256,272,34079,2,0,B|212:190|116:190,1,150,8|0
96,192,34806,1,4
96,64,36079,5,0
96,96,36260,2,2,B|96:224,1,100
96,224,36806,1,0
96,256,36988,2,2,B|224:256,1,100
224,256,37533,1,0
224,224,37715,2,4,B|224:96,3,100
288,96,39170,6,8,B|224:160|288:192|288:192|256:256,1,150
256,256,39897,1,8
256,160,40442,5,8
257,116,40624,2,4,B|256:222,2,100
256,160,41715,1,4
192,160,42079,6,8,B|224:96|316:125|320:192,1,150
252,184,42806,1,8
256,64,43351,5,0
256,64,43533,2,0,B|256:192,1,100
253,192,44442,5,0
252,193,44624,1,0
250,192,44806,1,0
251,193,44988,2,2,B|251:65,1,100
262,62,45533,2,2,B|262:190,1,100
256,192,46079,1,0
128,256,46624,6,0,B|128:192,1,50
96,192,46988,1,0
128,160,47170,1,2
96,128,47351,1,2
128,96,47533,1,2
192,96,47897,5,8
192,96,48079,1,8
288,96,48624,1,8
288,96,48806,1,8
256,192,50806,5,0
256,128,51170,2,0,B|256:0,2,100,8|0|8
256,32,52260,1,0
256,128,52624,1,8
256,128,52806,1,0
128,128,53351,5,8
128,192,53715,1,0
192,224,54079,1,8
224,224,54260,1,0
256,288,54624,1,0
288,224,54988,1,0
320,224,55170,1,0
288,224,55351,1,0
320,224,55533,1,8
352,224,55715,2,0,B|352:160|448:160,1,100
417,162,56260,1,8
384,64,56624,6,2,B|224:64,1,150,0|0
192,64,57351,1,0
128,128,57715,2,2,B|320:128,1,150,0|0
320,128,58442,1,0
256,192,58806,5,8
224,128,59170,1,8
256,64,59533,1,8
288,128,59897,1,0
288,128,60079,2,0,B|256:192|256:224,1,100
256,288,60806,5,2
256,256,60988,1,2
192,256,61351,1,2
192,224,61533,1,2
320,256,61897,1,2
320,224,62079,1,2
307,161,62442,6,0,B|371:129|307:65,1,100
311,68,62988,1,0
256,32,63351,1,0
203,68,63715,1,0
190,80,63897,2,0,B|136:131|205:168,1,100
192,160,64442,1,0
256,352,64988,5,0
256,272,65351,2,0,B|256:144,1,100,0|2
215,172,65897,2,0,B|215:48,1,100,0|2
215,71,66442,1,0
215,72,66624,1,0
255,72,66806,2,0,B|255:137,2,50,0|0|2
253,72,67351,2,0,B|253:8|317:8,1,100
314,7,67897,1,2
384,96,68260,6,0,B|384:160|352:224|256:224,1,200
256,160,69351,2,0,B|256:96|192:32|96:32,1,200
96,96,70442,5,0
96,160,70806,1,0
96,224,71170,2,0,B|160:288|192:256,1,100
224,224,71897,1,0
256,224,72079,1,0
288,224,72260,1,0
320,224,72442,1,0
352,224,72624,1,0
384,224,72806,1,0
416,224,72988,1,0
448,224,73170,5,0
448,144,73533,1,0
448,64,73897,1,4
32,32,76624,5,0
32,96,76988,2,2,B|32:160|96:192|224:192,1,200,2|0
256,192,78079,1,0
288,192,78260,1,0
320,192,78442,2,2,B|384:192|384:256,1,100
384,320,79170,2,2,B|320:320|320:256,1,100
320,192,79897,2,2,B|384:128|384:128|416:160|352:160|448:64,1,200
480,32,80988,5,0
480,64,81170,1,0
480,96,81351,2,2,B|512:192|384:192|384:192,1,150
352,192,82079,2,2,B|242:193,1,100
176,192,82806,2,2,B|80:256|80:256|80:224|-16:320,1,200
32,352,83897,5,0
64,320,84079,1,0
32,288,84260,1,2
64,320,84442,1,0
96,288,84624,1,2
160,256,84988,2,2,B|288:192,1,100
320,224,85715,2,2,B|384:224|416:288|416:288|384:288|448:352,1,200
512,352,86806,5,0
480,320,86988,1,2
512,288,87170,1,0
480,320,87351,1,2
448,288,87533,1,2
480,320,87715,1,2
416,320,87897,2,2,B|320:224,1,100
288,224,88624,2,2,B|320:160|288:96|224:96|224:192,1,200
224,256,89715,5,2
256,288,89897,1,0
288,256,90079,1,0
320,288,90260,1,0
288,256,90442,1,2
352,256,90806,2,2,B|352:128,1,100
320,96,91533,2,2,B|288:64|192:96|192:96|224:64|256:160,1,200
256,192,92624,5,0
224,256,92988,1,2
256,288,93170,1,2
288,256,93351,1,2
256,192,93715,2,0,B|256:64,1,100
256,128,94442,5,4
352,224,95170,1,4
160,224,95897,1,4
256,320,96624,1,4
256,192,100260,12,0,102078
256,192,123351,5,0
256,160,123533,1,0
224,96,123897,1,0
256,64,124079,1,0
288,96,124260,1,0
288,192,124624,1,0
256,192,124806,1,0
224,192,124988,2,4,B|224:64,3,100
224,96,126442,2,2,B|424:95,1,150
416,96,127170,1,2
384,192,127715,5,0
384,224,127897,1,0
448,256,128260,2,4,B|384:320|352:288,1,100
256,288,129170,5,0
224,288,129351,1,0
224,224,129715,1,0
256,224,129897,1,0
288,224,130079,2,2,B|320:192|320:128|288:64,1,150
260,80,130806,1,0
220,80,130988,1,0
182,80,131170,1,0
256,160,131715,5,0
256,192,131897,1,0
256,224,132079,1,0
256,256,132260,2,0,B|256:384,1,100
272,319,132806,2,0,B|272:191,1,100
272,179,133351,1,0
192,288,138079,5,0
192,224,138442,2,0,B|224:160|256:256|288:160,1,100,8|0
288,128,139170,2,0,B|256:64|224:128|192:64,1,100,8|0
256,32,139897,1,8
256,32,140079,1,0
256,96,140624,5,8
256,128,140806,1,0
224,160,140988,1,0
256,128,141170,1,0
288,160,141351,1,8
256,192,141533,2,0,B|288:256|224:288|256:320,1,100,0|0
272,320,142079,1,8
256,352,142260,1,0
208,352,142442,2,0,B|176:352|144:320,1,50
128,304,142806,1,8
128,256,142988,2,0,B|128:192|128:192|192:192,1,100
192,224,143533,1,8
128,160,143897,6,0,B|192:128|256:192|288:128,1,150
288,128,144624,1,8
320,192,144988,2,0,B|256:256|192:192|160:224,1,150
160,224,145715,1,8
224,288,146079,5,0
288,288,146442,1,0
256,224,146806,1,0
256,160,147170,1,0
256,128,147351,1,0
256,64,147715,1,0
256,96,147897,1,0
256,192,148260,5,4
256,192,148806,5,4
256,192,149351,5,4
256,256,149715,6,0,B|256:320|192:320,1,100
128,320,150442,2,0,B|64:320|64:224,1,100
64,192,151170,1,0
64,128,151533,1,0
64,128,151715,1,0
128,160,152079,6,0,B|192:128|224:160,1,100
256,192,152624,1,0
288,160,152806,1,0
320,192,152988,1,0
352,160,153170,1,0
416,192,153533,1,0
352,160,153897,1,0
320,192,154079,1,0
288,160,154260,1,0
256,192,154442,1,0
224,160,154624,2,0,B|160:96|96:160,1,100
96,160,155170,1,0
160,256,155533,6,0,B|192:224|256:288|320:224,1,150
320,224,156260,1,0
320,320,156624,2,0,B|288:288|256:352|160:320,1,150
160,320,157351,1,0
160,224,157715,5,0
224,224,158079,1,0
256,192,158260,1,0
288,224,158442,1,0
256,192,158624,1,0
256,128,158988,2,0,B|256:32|256:0,1,100
288,64,159715,1,0
256,96,159897,1,0
224,128,160079,1,0
256,160,160260,1,0
256,224,160624,1,0
256,256,160806,1,0
256,192,161170,12,0,163534
256,192,175988,5,4
256,192,178260,1,0
