osu file format v5

[General]
AudioFilename: Hatsune Miku - Shooting Star.mp3
AudioLeadIn: 3000
PreviewTime: -1
Countdown: 1
SampleSet: Soft
StackLeniency: 0.7
Mode: 0
LetterboxInBreaks: 1

[Metadata]
Title:Shooting Star
Artist:Hatsune Miku
Creator:Shinxyn
Version:Normal
Source:
Tags:

[Difficulty]
HPDrainRate:5
CircleSize:4
OverallDifficulty:6
SliderMultiplier:1.6
SliderTickRate:2

[Events]
//Background and Video events
0,0,"Hatsune_Miku_wp_II_by_Purin_tan.jpg"
//Break Periods
2,17597,24424
2,37212,38501
2,79905,84194
2,109444,115809
2,138982,143270
//Storyboard Layer 0 (Background)
//Storyboard Layer 1 (Failing)
//Storyboard Layer 2 (Passing)
//Storyboard Layer 3 (Foreground)
4,3,1,"play-warningarrow.png",168,221 M,0,163705,163705,168,221,168,221 F,0,163705,164397,0,1 S,0,163705,163936,0.5289602,0.5084803 R,0,163705,163705,1.96608,1.96608 S,0,163936,164167,0.5084803,0.5494403 S,0,164167,164397,0.5494403,0.5289602 F,0,164397,165321,1,1 S,0,164397,164628,0.5289602,0.5699202 S,0,164628,164859,0.5699202,0.5187202 S,0,164859,165090,0.5187202,0.5494403 S,0,165090,165321,0.5494403,0.5187202 F,0,165321,166013,1,0 S,0,165321,165551,0.5187202,0.5494403 S,0,165551,165782,0.5494403,0.5187202 S,0,165782,166013,0.5187202,0.5494403
4,3,1,"play-warningarrow.png",419,263 M,0,167397,167397,419,263,419,263 F,0,167397,168321,0.03744003,1 S,0,167397,167628,0.4675204,0.4368002 R,0,167397,167397,-0.6144006,-0.6144006 S,0,167628,167859,0.4368002,0.4675204 S,0,167859,168090,0.4675204,0.4470404 S,0,168090,168321,0.4470404,0.4880005 F,0,168321,169244,1,1 S,0,168321,168551,0.4880005,0.4675204 S,0,168551,168782,0.4675204,0.4982404 S,0,168782,169013,0.4982404,0.4675204 S,0,169013,169244,0.4675204,0.5084803 F,0,169244,169936,1,0 S,0,169244,169244,0.5084803,0.5084803
//Storyboard Sound Samples
//Background Colour Transformations
3,100,0,0,0

[TimingPoints]
309,461.538461538462,4,2,0,100,1,0
2155,-100,4,2,0,100,0,1
17385,-100,4,2,0,100,0,0
79693,-100,4,2,0,100,0,1
109232,-100,4,2,0,100,0,0
138770,-100,4,2,0,100,0,1
164385,-200,4,2,0,100,0,0

[Colours]
Combo1 : 232,232,232
Combo2 : 128,255,255
Combo3 : 255,164,255
Combo4 : 94,234,167

[HitObjects]
256,192,309,12,2,2155
32,208,3309,6,0,B|80:144|128:160,1,80,0|2
152,160,3770,1,0
208,160,4001,1,2
376,160,4693,1,2
320,64,5155,6,0,B|384:56|368:144,1,80
376,160,5616,1,2
368,216,5847,1,0
296,296,6309,1,2
243,316,6539,1,0
286,213,7001,1,0
88,184,9078,5,0
88,296,9539,2,0,B|240:296,2,120,0|2|2
168,224,10693,2,0,B|248:152,1,80
272,136,11155,1,0
312,176,11385,2,2,B|344:208|384:248,1,80,2|0
424,232,11847,2,2,B|496:160,1,80
382,120,12539,5,0
340,82,12770,1,2
301,122,13001,1,0
259,84,13232,2,0,B|187:140,1,80
198,189,13693,1,2
199,245,13924,1,0
103,187,14385,6,0,B|103:75,5,80
256,192,15770,12,0,17385
104,144,25462,6,2,B|168:80,1,80
216,88,25924,1,0
328,88,26385,6,0,B|400:168,1,80,0|2
384,200,26847,1,2
344,304,27309,5,0
288,304,27539,1,2
232,304,27770,1,0
176,304,28001,1,2
256,232,28462,1,0
256,176,28693,1,2
160,232,29155,6,0,B|96:152,1,80
152,136,29616,1,2
192,96,29847,6,0,B|264:176,1,80,0|2
200,192,30309,1,2
256,64,30885,5,0
256,64,31001,1,2
256,120,31232,1,0
256,176,31462,1,0
424,200,32155,6,0,B|488:112|416:16,1,160,0|2
437,49,32847,1,0
392,80,33078,1,2
336,56,33309,1,0
288,88,33539,1,2
239,56,33770,2,0,B|189:119|253:207,1,160,0|2
192,296,34693,1,2
79,296,35155,5,0
79,239,35385,1,2
79,71,36078,1,0
190,70,36539,6,2,B|286:70,2,80
112,296,39539,6,0,B|184:240,1,80
232,248,40001,2,0,B|304:312,1,80
344,304,40462,2,0,B|424:240,1,80
432,208,40924,2,0,B|432:96,1,80
161,199,42309,6,0,B|241:263,1,80
280,240,42770,2,0,B|144:136,1,160
152,144,43462,1,0
152,144,43924,1,2
204,142,44155,1,2
316,142,44616,5,0
372,142,44847,1,2
372,254,45309,5,2
316,254,45539,1,0
72,240,46924,6,0,B|72:72,1,160
128,80,47616,1,0
128,136,47847,1,2
128,192,48078,1,2
128,248,48309,1,2
240,248,48770,6,0,C|240:136,1,80
240,56,49462,2,0,C|240:168,1,80
160,56,50155,2,2,B|160:184|264:224|160:312|80:304,1,320
88,248,51309,1,2
88,192,51539,2,2,C|88:88,1,80,2|0
208,296,52693,5,0
208,240,52924,1,2
288,168,53385,1,2
288,112,53616,1,0
120,112,54309,5,2
120,168,54539,1,2
16,216,55001,1,2
72,216,55232,1,2
120,312,55693,1,2
120,256,55924,1,0
224,216,56385,1,2
168,216,56616,1,0
224,216,56847,1,0
168,216,57078,1,2
168,104,57539,6,2,C|232:48,1,80
232,104,58001,2,2,C|296:168,1,80
344,160,58462,2,2,C|272:224,2,80
344,216,59155,1,2
344,272,59385,2,2,C|416:200,1,80
400,272,59847,2,2,C|464:336,2,80
48,192,61693,5,2
88,152,61924,1,2
128,192,62155,1,2
232,232,62616,1,2
128,272,63078,1,2
88,312,63309,1,2
48,272,63539,1,2
88,112,64232,5,0
144,112,64462,1,2
256,112,64924,2,0,C|360:112,1,80
392,112,65385,2,0,C|392:216,1,80
336,192,65847,2,0,C|248:192,3,80
200,192,66770,1,2
200,248,67001,1,2
152,216,67232,1,2
152,160,67462,1,0
56,184,69078,5,0
56,72,69539,1,0
56,128,69770,1,0
152,184,70232,1,2
264,184,70693,1,2
376,184,71155,1,2
376,72,71616,5,0
376,128,71847,1,0
376,184,72078,1,0
376,240,72309,1,0
328,336,72770,5,0
280,312,73001,1,0
176,264,73462,1,0
120,240,73693,1,0
72,216,73924,2,0,C|72:112,2,80
72,216,74616,1,0
184,214,75078,5,2
196,102,75539,1,2
291,160,76001,1,2
356,250,76462,1,2
304,280,76693,1,2
200,304,77155,5,2
216,248,77385,1,2
232,192,77616,2,0,B|144:128|288:112|216:56,1,160,0|2
264,88,78309,2,0,B|332:141|188:157|276:221,1,160,0|2
320,248,79001,2,0,B|232:184|376:168|304:112,1,160,0|2
307,115,79693,1,2
56,200,85232,6,2,B|152:200,1,80
160,248,85693,2,2,B|192:168,1,80
208,224,86155,2,2,B|256:296,1,80
280,240,86616,2,2,B|376:240,1,80
416,240,87078,1,2
136,200,88232,5,0
168,248,88462,1,2
200,296,88693,1,2
232,248,88924,2,0,B|296:216|312:304|384:240,1,160
380,242,89616,1,2
384,128,90078,5,0
352,80,90308,1,2
320,32,90539,1,2
288,80,90770,2,0,B|224:112|208:24|136:88,1,160
140,86,91462,1,2
80,184,91924,6,0,B|144:264,1,80
184,248,92385,1,2
240,248,92616,2,0,B|312:328,2,80,0|2|2
296,248,93308,1,2
256,192,93539,12,0,95155
40,48,95616,5,0
40,48,95847,1,0
72,88,96078,1,0
72,88,96308,1,0
48,328,97232,5,0
136,264,97693,5,0
232,200,98155,5,0
328,136,98616,5,0
328,136,98847,1,0
256,192,100001,12,0,101847
56,192,103232,5,0
128,112,103693,1,0
128,280,104385,1,0
56,192,104847,5,0
112,192,105078,1,2
168,192,105308,1,0
224,192,105539,2,2,B|320:192,1,80
360,192,106001,2,2,B|448:192,1,80
344,328,106924,1,0
288,328,107155,1,0
312,216,107616,5,0
328,160,107847,1,2
312,104,108078,1,2
256,80,108308,1,0
200,104,108539,1,0
184,160,108770,1,2
208,216,109001,1,2
256,232,109232,1,0
80,192,116847,6,2,B|80:240,2,40
136,192,117308,1,2
248,192,117770,6,2,B|248:256,2,40
304,192,118232,1,2
416,192,118693,6,2,B|416:240,6,40
296,136,120539,6,2,L|216:136,1,80
160,136,121001,1,2
144,248,121462,5,2
192,272,121693,1,0
240,296,121924,1,2
288,320,122155,2,0,B|384:320,1,80
368,264,122616,1,0
320,240,122847,1,2
272,216,123078,1,0
56,144,124001,6,0,L|32:208|16:136|64:184|0:176|56:144,1,320
96,112,125155,5,0
152,120,125385,1,2
160,176,125616,1,2
216,168,125847,1,0
376,184,126539,1,0
263,184,127001,5,0
272,128,127232,1,0
312,160,127462,1,0
312,216,127693,2,0,B|264:272|208:256|176:192|200:152,1,160
156,145,128385,2,0,B|124:177|132:217|156:249,1,80
162,270,128847,2,0,B|230:344|337:288,1,160
357,274,129539,2,0,B|425:206|392:123|380:69|320:56|262:51|233:68,1,320,0|2
161,133,130924,1,2
161,244,131385,1,0
232,176,132539,5,0
288,176,132770,1,0
344,176,133001,1,0
400,176,133232,2,0,B|376:216|328:216|232:224|184:200|160:192|192:160,1,240
96,240,134385,5,0
128,192,134616,1,0
158,239,134847,1,0
191,284,135078,1,0
292,236,135539,1,0
347,236,135770,1,0
128,192,136693,5,2
208,112,137155,1,0
256,88,137385,1,2
312,104,137616,1,0
344,144,137847,1,2
344,256,138308,1,2
240,224,138770,1,0
32,184,144308,6,2,B|104:112,1,80
128,168,144770,2,2,B|192:232,1,80
224,184,145232,2,2,B|296:112,1,80
312,168,145693,2,0,B|376:232,1,80
408,184,146155,1,0
256,216,147308,5,0
280,168,147539,1,2
264,112,147770,1,2
216,80,148001,1,2
384,104,148693,1,2
320,192,149155,5,0
264,208,149385,1,2
224,168,149616,1,2
240,112,149847,1,2
344,64,150308,1,0
288,88,150539,1,2
320,192,151001,5,0
288,240,151232,1,2
256,288,151462,1,2
168,216,151924,1,0
200,170,152155,1,2
230,123,152385,1,2
256,192,152616,12,0,154462
72,192,155385,5,2
168,136,155847,1,2
216,136,156078,2,2,B|408:136,1,160
368,248,157001,1,2
256,248,157462,1,2
200,248,157693,1,0
88,248,158847,6,2,B|24:168|144:120,1,160
176,168,159539,2,2,B|240:248,1,80
272,264,160001,2,0,B|384:184|288:136,1,160
192,104,160924,2,0,B|72:224|200:336,1,240,0|2
62,64,163232,5,2
116,52,163462,1,2
176,144,163924,1,0
176,144,164385,6,0,L|152:224|72:224|136:272|104:352|176:296|256:352|216:272|288:224|200:224|432:72|320:120|368:16|200:224|176:144,1,1640
176,120,174078,6,2,L|136:120,2,40
176,40,174770,1,2
288,40,175232,1,0
256,192,175693,12,0,177539
