osu file format v5

[General]
AudioFilename: Hatsune Miku - Shooting Star.mp3
AudioLeadIn: 3000
PreviewTime: -1
Countdown: 1
SampleSet: Soft
StackLeniency: 0.7
Mode: 0
LetterboxInBreaks: 1

[Metadata]
Title:Shooting Star
Artist:Hatsune Miku
Creator:Shinxyn
Version:Hard
Source:
Tags:

[Difficulty]
HPDrainRate:8
CircleSize:5
OverallDifficulty:7
SliderMultiplier:1.6
SliderTickRate:2

[Events]
//Background and Video events
0,0,"Hatsune_Miku_wp_II_by_Purin_tan.jpg"
//Break Periods
2,17597,24574
2,79905,84344
2,109444,115959
2,138982,143420
//Storyboard Layer 0 (Background)
//Storyboard Layer 1 (Failing)
//Storyboard Layer 2 (Passing)
//Storyboard Layer 3 (Foreground)
4,3,1,"play-warningarrow.png",254,188 F,0,166936,167397,0,1 S,0,166936,167167,0.4675198,0.4111668 S,0,167167,167397,0.4111668,0.4367999 M,0,167397,167397,254,188,254,188 F,0,167397,167859,1,1 S,0,167397,167628,0.4367999,0.3958401 R,0,167397,167397,2.00704,2.00704 S,0,167628,167859,0.3958401,0.4367999 F,0,167859,168551,1,0 S,0,167859,168090,0.4367999,0.40608 S,0,168090,168321,0.40608,0.4470399 S,0,168321,168551,0.4470399,0.41632
4,3,1,"play-warningarrow.png",366,120 M,0,169244,169244,366,120,366,120 F,0,169244,169705,0,1 S,0,169244,169474,0.42656,0.37536 R,0,169244,169244,-0.9216,-0.9216 S,0,169474,169705,0.37536,0.41632 F,0,169705,170167,1,1 S,0,169705,169936,0.41632,0.37536 S,0,169936,170167,0.37536,0.4060799 F,0,170167,170859,1,0 S,0,170167,170397,0.4060799,0.3753599 S,0,170397,170628,0.3753599,0.3958399 S,0,170628,170859,0.3958399,0.3753599
4,3,1,"play-warningarrow.png",322,394 M,0,168090,168090,322,394,322,394 F,0,168090,168551,0.07839996,1 S,0,168090,168321,0.4777594,0.4265591 S,0,168321,168551,0.4265591,0.4777594 F,0,168551,168782,1,1 S,0,168551,168782,0.4777594,0.4265591 F,0,168782,169013,1,1 S,0,168782,169013,0.4265591,0.4982394 F,0,169013,169244,1,1 S,0,169013,169244,0.4982394,0.4572794 F,0,169244,169705,1,0.01695984 S,0,169244,169474,0.4572794,0.5084796 S,0,169474,169705,0.5084796,0.4470392
4,3,1,"play-warningarrow.png",544,192 F,0,171090,171551,0,1 S,0,171090,171321,0.4470398,0.4095424 R,0,171090,171090,2.47808,2.47808 S,0,171321,171551,0.4095424,0.45728 F,0,171551,171782,1,1 S,0,171551,171782,0.45728,0.4265597 F,0,171782,172013,1,1 S,0,171782,172013,0.4265597,0.4879996 F,0,172013,172244,1,1 S,0,172013,172244,0.4879996,0.4367998 F,0,172244,172705,1,0 S,0,172244,172474,0.4367998,0.4675197 S,0,172474,172705,0.4675197,0.4265597
4,3,1,"play-warningarrow.png",546,59 M,0,170167,170167,546,59,546,59 F,0,170167,170397,0,0 S,0,170167,170397,0.35488,0.39584 F,0,170397,170628,0,1 S,0,170397,170628,0.39584,0.36512 R,0,170397,170397,0.7168,0.7168 F,0,170628,170859,1,1 S,0,170628,170859,0.36512,0.39584 F,0,170859,171090,1,1 S,0,170859,171090,0.39584,0.36512 F,0,171090,171321,1,1 S,0,171090,171321,0.36512,0.39584 F,0,171321,171782,1,0 S,0,171321,171551,0.39584,0.36512 S,0,171551,171782,0.36512,0.39584
//Storyboard Sound Samples
//Background Colour Transformations
3,100,0,0,0

[TimingPoints]
309,461.538461538462,4,2,0,100,1,0
2155,-100,4,2,0,100,0,1
17385,-100,4,2,0,100,0,0
79693,-100,4,2,0,100,0,1
109232,-100,4,2,0,100,0,0
138770,-100,4,2,0,100,0,1
167847,-100,4,2,0,100,0,0

[Colours]
Combo1 : 232,232,232
Combo2 : 128,255,255
Combo3 : 255,164,255
Combo4 : 94,234,167

[HitObjects]
256,192,309,12,0,2155
32,208,3309,6,0,B|80:144|128:160,1,80,0|0
144,136,3770,1,0
200,120,4001,2,0,B|280:96|368:120,1,160,0|0
408,136,4693,1,0
472,224,5155,6,0,B|456:280|392:280,1,80,0|0
368,296,5616,2,2,B|328:312|272:296,1,80,0|0
200,232,6309,1,0
144,208,6539,2,0,B|176:168|232:176,1,80
200,232,7001,1,0
288,88,7693,6,2,B|232:48|184:80,1,80,2|2
160,80,8155,2,0,B|112:96|88:136,1,80,2|0
72,176,8616,2,0,B|56:248|88:272,1,80,2|2
112,296,9078,2,0,B|160:336|208:328,1,80,2|0
240,336,9539,2,2,B|328:344|376:320,2,120,4|2|2
144,216,10693,6,0,B|136:168|184:144,1,80
200,200,11155,1,0
232,152,11385,2,0,B|280:184|256:248|216:256,2,120,6|2|0
416,320,12539,5,0
376,280,12770,1,0
336,240,13001,1,0
296,200,13232,2,0,B|224:128,1,80
200,104,13693,1,2
160,64,13924,1,0
224,288,14385,5,0
288,288,14616,1,0
256,240,14847,1,0
224,288,15078,1,0
256,336,15308,1,2
288,288,15539,1,0
256,240,15770,1,2
200,240,16001,5,2
200,240,16116,1,2
232,192,16347,1,2
232,192,16462,1,2
288,192,16693,1,2
261,142,16924,1,0
231,94,17155,1,2
231,94,17385,1,4
104,144,25462,6,10,B|144:104,2,40
104,200,25924,1,2
160,200,26155,6,10,B|160:264,2,40,10|10|10
184,200,26501,1,2
208,200,26616,1,10
264,200,26847,1,2
344,344,27309,5,2
288,344,27539,1,10
232,344,27770,1,2
176,344,28001,1,10
256,288,28347,1,8
256,200,28693,1,2
184,120,29155,6,8,B|136:64,2,40
184,120,29616,1,2
184,176,29847,6,8,B|232:232,2,40
184,176,30309,1,2
184,176,30539,1,8
256,64,30885,5,12
256,64,31001,1,14
256,120,31232,1,10
256,176,31462,1,2
256,232,31693,1,4
360,296,32155,6,0,B|280:240|328:152,1,160
360,112,32847,1,2
416,128,33078,1,0
440,176,33309,1,2
440,232,33539,1,0
416,280,33770,2,0,B|304:296|280:192,1,160,2|0
248,104,34693,1,0
80,288,35155,5,0
80,232,35385,2,0,B|144:200|24:160|144:120|72:80,1,160
80,30,36078,1,0
192,64,36539,6,2,B|288:64,2,80
192,120,37232,1,2
192,176,37462,1,10
192,176,37578,1,10
248,176,37809,2,10,B|304:176,2,40
248,176,38155,1,8
248,232,38385,2,0,B|248:320,1,80,8|8
304,312,38847,2,2,B|304:256,2,40,10|2|12
96,216,39539,6,2,B|168:144,1,80,2|0
264,168,40001,2,2,B|192:96,1,80,2|0
216,0,40462,2,2,B|144:72,1,80,0|2
48,48,40924,2,2,B|120:120,4,80,2|0|0|0|0
140,196,42309,5,0
183,231,42539,1,0
218,187,42770,2,0,B|138:115,1,80,0|0
209,109,43232,1,0
255,140,43462,1,0
183,230,43924,1,0
140,196,44155,1,2
288,208,44616,5,10
344,208,44847,2,10,B|384:184,2,40,10|10|8
344,152,45309,2,10,B|320:104,2,40,10|2|10
288,152,45770,2,10,B|232:176,2,40
288,208,46232,1,10
288,208,46462,1,6
88,304,46924,5,0
200,112,47385,1,0
312,112,47616,1,0
216,176,47847,1,0
256,72,48078,1,0
288,176,48309,1,0
368,80,48770,6,0,C|472:40,1,80
376,144,49462,2,0,B|472:136,1,80,0|0
256,192,50155,12,0,51078
216,152,51309,5,0
272,168,51539,1,0
320,144,51770,2,0,B|360:40|208:-16|184:136,1,240,0|2
104,192,52693,5,0
152,192,52924,1,0
408,192,53385,1,0
360,192,53616,1,0
256,64,54309,5,2
256,112,54539,1,0
120,320,55001,1,2
152,280,55232,1,0
376,320,55693,5,2
344,280,55924,1,0
256,152,56385,1,2
296,192,56616,1,0
256,232,56847,1,0
216,192,57078,1,2
138,111,57539,6,2,C|202:183,1,80,2|2
224,208,58001,2,2,C|280:272,1,80
224,208,58462,2,2,C|152:272,2,80
264,168,59155,1,2
296,208,59385,2,2,C|224:272,1,80
296,208,59847,2,2,C|232:136,1,80
296,208,60309,5,2
296,208,60539,2,2,B|344:208,2,40,2|2|2
240,208,61001,1,0
184,208,61232,1,12
48,192,61693,5,2
88,152,61924,1,2
128,192,62155,1,2
168,152,62385,1,2
208,192,62616,1,2
128,112,63078,1,2
128,56,63309,1,2
128,168,63770,1,0
128,280,64232,5,0
184,280,64462,1,0
296,280,64924,2,0,C|400:280,1,80,2|0
376,224,65385,2,0,C|480:224,1,80,2|0
456,168,65847,2,0,C|368:168,3,80,2|0|2|0
320,168,66770,1,2
320,224,67001,5,2
320,224,67116,1,2
272,248,67347,1,2
272,248,67462,1,2
272,192,67693,1,2
224,216,67924,2,0,B|120:216,1,80,0|6
48,272,69078,6,0,B|128:272|144:216|128:160|80:176,1,160,2|0
48,160,69770,2,0,B|-8:120|40:56|120:48,1,160,2|0
168,160,70462,1,0
168,48,70693,1,2
280,48,70924,1,2
280,160,71155,1,2
376,296,71616,5,0
336,256,71847,2,0,C|224:256,1,80,0|2
296,296,72309,2,0,C|200:296,1,80,2|0
256,256,72770,1,2
200,256,73001,2,0,C|112:256,2,80
168,296,73693,1,2
112,296,73924,1,2
64,256,74155,2,0,C|168:256,2,80,0|0|0
64,144,75078,5,2
64,144,75193,1,2
120,136,75424,1,2
120,136,75539,1,2
176,144,75770,1,2
224,168,76001,1,2
224,168,76232,1,0
248,216,76462,1,0
248,216,76693,1,2
208,344,77155,5,2
264,336,77385,1,2
304,296,77616,1,2
320,240,77847,2,2,B|304:152,3,80,2|0|2|0
256,136,78770,2,2,B|144:128,1,80
120,152,79232,2,0,B|72:256,1,80
104,280,79693,1,4
112,200,85232,6,0,B|208:200,1,80
192,200,85693,2,0,B|240:120,1,80
192,200,86155,2,0,B|240:272,1,80,0|0
192,200,86616,2,0,B|288:200,1,80,0|0
328,208,87078,1,0
104,32,88232,5,0
56,64,88462,1,2
8,96,88693,1,2
56,128,88924,2,0,B|88:192|0:208|64:280,1,160
62,276,89616,1,2
384,312,90078,5,0
432,280,90308,1,2
480,248,90539,1,2
432,216,90770,2,0,B|400:152|488:136|424:64,1,160
426,68,91462,1,2
256,32,91924,5,0
208,56,92155,1,2
248,88,92385,1,0
200,112,92616,1,2
240,144,92847,1,2
192,168,93078,1,0
232,200,93308,5,2
232,200,93424,1,2
176,216,93655,1,2
176,216,93770,1,2
224,248,94001,1,2
168,264,94232,1,0
216,296,94462,1,2
256,192,95616,5,2
208,168,95847,1,2
256,136,96078,1,0
304,168,96308,2,0,B|344:248|256:288|160:248|216:160,1,240
64,320,97232,5,2
64,64,97693,5,0
448,64,98155,5,2
448,320,98616,5,2
448,320,98847,2,0,B|376:248,1,80,2|0
352,224,99308,5,0
352,224,99539,2,0,B|288:160,1,80
256,192,100001,12,0,101847
56,192,103232,5,0
280,168,103693,2,0,B|352:144|432:176|416:224|320:224|272:208,1,240
56,192,104847,5,0
168,192,105078,1,2
280,192,105308,1,0
392,192,105539,2,0,B|488:192,2,80,2|0|2
280,192,106232,2,0,B|96:192,1,160
8,192,106924,1,0
120,192,107155,1,2
336,144,107616,5,10
360,192,107847,1,10
360,192,107962,1,10
344,245,108193,1,10
344,245,108308,1,10
292,265,108539,1,10
246,231,108770,1,10
243,174,109001,1,2
283,134,109232,1,8
88,352,116847,6,8,B|88:288,2,40
88,240,117308,1,8
280,120,117770,6,8,B|280:184,2,40
280,232,118232,1,2
280,232,118462,1,10
280,120,118693,6,8,B|232:120,2,40
280,120,119155,2,8,B|328:120,2,40
280,120,119616,2,8,B|280:184,2,40
280,120,120078,1,8
456,264,120539,5,8
424,264,120655,1,8
392,264,120770,1,8
280,264,121001,1,10
144,248,121462,5,10
192,272,121693,1,8
240,296,121924,1,2
288,320,122155,2,2,B|344:320,2,40,10|2|10
240,296,122616,5,10
192,272,122847,1,10
144,248,123078,1,2
96,224,123308,2,2,B|24:224,2,40,10|2|10
48,120,124001,6,0,L|72:56|88:128|40:80|104:88|48:120,1,320
112,264,125155,5,2
168,248,125385,1,0
157,303,125616,1,0
210,286,125847,2,0,C|258:270|274:310|322:286|346:318,1,160,2|0
386,290,126539,1,2
264,184,127001,5,0
272,128,127232,1,0
312,160,127462,1,0
304,216,127693,2,0,B|296:248|264:264|211:224|216:216,1,80
208,192,128155,1,0
224,136,128385,2,0,B|225:126|264:110|297:142,1,80
320,184,128847,2,0,B|328:240|280:288|208:248,1,160
184,208,129539,2,0,B|176:144|232:88|304:96|360:160|336:240|272:264,1,320,0|0
184,208,130924,5,2
80,256,131385,2,0,B|152:224|192:232|160:312|232:288,1,160
272,288,132078,1,2
208,192,132539,1,0
256,168,132770,1,0
304,144,133001,1,0
352,176,133232,2,0,B|336:280|208:256,1,160
181,258,133924,2,0,B|196:196|268:198,1,80,2|0
352,256,134385,5,0
352,144,134616,1,2
352,32,134847,1,2
464,32,135078,1,0
464,256,135539,1,2
464,144,135770,1,0
256,192,136232,5,2
224,112,136693,5,0
224,112,136924,1,4
224,272,137155,1,0
336,160,137385,1,4
176,160,137616,1,0
288,272,137847,1,4
288,112,138078,1,0
176,224,138308,1,4
336,224,138539,1,2
336,224,138770,1,4
48,224,144308,6,0,B|112:224,2,40,0|0|0
128,160,144770,2,0,B|192:160,2,40,0|0|0
208,224,145232,2,2,B|272:224,2,40,0|0|0
304,160,145693,2,2,B|368:160,2,40,0|0|0
408,224,146155,1,0
128,344,147308,5,2
72,336,147539,1,0
40,288,147770,1,0
56,232,148001,1,2
360,96,148693,1,2
384,344,149155,5,2
440,336,149385,1,0
472,288,149616,1,0
456,232,149847,1,2
240,184,150308,1,0
192,152,150539,1,2
392,200,151001,5,0
352,240,151232,1,0
298,255,151462,1,2
392,200,151924,5,0
400,144,152155,1,2
384,88,152385,1,0
336,56,152616,1,2
280,48,152847,1,2
224,64,153078,1,0
192,112,153308,1,2
192,168,153539,2,0,B|194:269|310:254,1,160
296,160,154232,5,0
296,160,154462,1,0
72,192,155385,5,4
136,136,155732,1,4
216,136,156078,1,8
216,136,156193,1,8
216,136,156308,1,8
272,136,156539,1,8
328,136,156770,1,8
288,248,157232,5,8
232,248,157462,1,8
288,152,157924,1,10
288,152,158039,1,8
288,152,158155,1,10
96,264,158847,6,0,B|48:216|48:168|96:136|136:168,1,160
168,192,159539,1,0
192,240,159770,1,0
240,264,160001,2,0,B|303:257|280:184,1,80
283,155,160462,1,0
256,192,160924,12,0,162308
88,232,163232,5,4
112,184,163462,1,4
184,96,163924,1,4
288,144,164385,2,2,B|280:232|360:232|400:128|312:72|256:24|296:96|280:-8|328:-80|384:8|352:32|352:96|344:80|288:128,1,400
256,96,165770,5,12
256,96,165885,1,12
256,96,166001,1,12
256,200,166232,1,8
160,272,166462,5,12
160,272,166578,1,12
160,272,166693,1,12
256,200,166924,1,8
352,272,167155,5,12
352,272,167270,1,12
352,272,167385,1,12
256,200,167616,1,8
256,96,167847,6,0,L|232:176|152:176|216:224|184:304|256:248|336:304|296:224|368:176|280:176|424:-24|400:64|520:32|280:176|256:104,1,1600,0|0
264,256,172924,5,2
208,272,173155,1,2
200,160,173847,5,0
312,160,174078,1,14
312,160,174193,1,14
200,160,174424,1,14
200,160,174539,1,14
312,160,174770,1,2
312,216,175001,1,0
312,272,175232,2,2,B|280:344|216:336|200:264,1,160,2|6
256,192,175924,12,0,177539
