osu file format v9

[General]
AudioFilename: Hatsune Miku - Shiroi Yuki no Princess wa - VOCALOID.mp3
AudioLeadIn: 0
PreviewTime: 211859
Countdown: 1
SampleSet: Normal
StackLeniency: 0.7
Mode: 0
LetterboxInBreaks: 1

[Editor]
Bookmarks: 21075,29925,42675,107475,130275
DistanceSpacing: 1
BeatDivisor: 4
GridSize: 8

[Metadata]
Title:Shiroi Yuki no Princess wa
Artist:Hatsune Miku
Creator:KingsAL2
Version:Normal
Source:VOCALOID
Tags:EXIT TUNES Supernova 2 Noboru-P

[Difficulty]
HPDrainRate:3
CircleSize:3
OverallDifficulty:3
ApproachRate:2
SliderMultiplier:1.6
SliderTickRate:1

[Events]
//Background and Video events
0,0,"meola_1.jpg"
//Break Periods
//Storyboard Layer 0 (Background)
//Storyboard Layer 1 (Fail)
//Storyboard Layer 2 (Pass)
//Storyboard Layer 3 (Foreground)
//Storyboard Sound Samples
//Background Colour Transformations
3,100,163,162,255

[TimingPoints]
21065,600,4,1,1,81,1,0
61859,-100,4,1,0,81,0,1
62009,-100,4,1,1,81,0,0

[Colours]
Combo1 : 0,64,64
Combo2 : 43,164,61
Combo3 : 0,111,111
Combo4 : 0,196,196

[HitObjects]
256,64,21065,1,0
416,64,21665,1,0
424,224,22265,1,0
344,232,22565,1,8
264,224,22865,1,0
256,104,23315,6,0,B|120:96|88:224,1,200
96,280,24365,1,8
256,296,24965,1,8
256,176,25415,2,0,B|256:72,1,80,0|2
376,96,26165,5,8
376,176,26465,1,0
376,256,26765,1,8
256,360,27365,1,8
256,280,27665,1,0
256,200,27965,1,8
144,80,28565,6,0,B|64:232|24:320,1,240,8|0
152,336,29915,2,0,B|248:144,1,200,4|0
256,80,30965,1,8
408,128,31565,1,8
408,208,31865,1,0
128,192,32915,5,4
232,256,33365,2,0,B|320:256,1,80,8|0
336,96,34265,2,0,B|240:96,2,80,2|8|2
336,216,35315,2,0,B|336:368,1,120,0|8
144,192,36665,5,0
144,112,36965,1,8
144,32,37265,1,0
256,144,37865,1,0
376,40,38465,1,0
376,120,38765,1,8
376,200,39065,1,0
376,280,39365,6,8,B|200:280,1,160
144,136,40565,2,8,B|312:136,1,160
304,56,41465,5,8
384,56,41765,1,8
384,136,42065,1,8
384,216,42365,1,8
304,216,42665,1,4
64,216,43565,5,8
144,216,43865,1,0
320,56,44765,1,8
240,56,45065,1,0
240,296,45965,6,8,B|416:288,1,160
400,208,46865,1,0
400,128,47165,2,8,B|216:128,1,160
80,120,48365,1,8
80,200,48665,1,0
256,32,49565,1,8
256,112,49865,1,0
112,304,50765,5,8
152,232,51065,2,0,B|248:232,1,80,2|8
264,304,51665,2,0,B|360:304,1,80,2|8
376,232,52265,1,4
184,88,53165,5,8
264,88,53465,1,0
344,88,53765,1,8
384,240,54365,2,0,B|288:240,1,80,8|0
224,240,54965,1,8
96,328,55565,5,8
96,248,55865,2,0,B|96:144,1,80,0|8
216,64,56765,2,0,B|216:160,2,80,8|0|8
376,64,57965,2,8,B|376:256,1,160
256,328,59165,5,8
256,248,59465,1,2
256,88,60065,1,0
400,160,60665,5,2
320,160,60965,2,0,B|224:176,1,80,0|2
160,168,61565,2,0,B|72:144,1,80,0|4
96,304,62465,5,0
176,304,62765,1,8
256,304,63065,1,0
256,224,63365,1,8
256,64,63965,6,0,B|256:160,1,80,8|0
336,144,64565,1,8
336,304,65165,1,8
256,304,65465,2,0,B|152:304,1,80,0|8
176,224,66065,2,0,B|88:224,2,80,0|8|0
256,88,67265,5,0
336,80,67565,1,8
352,160,67865,1,0
272,176,68165,2,8,B|96:208,1,160
32,216,69065,6,0,B|0:304|56:360,1,120,4|0
112,336,69815,1,2
192,336,70115,1,0
256,232,70565,5,8
256,152,70865,1,8
256,72,71165,1,8
336,72,71465,2,0,B|416:64|416:64|456:160,1,160,4|0
296,184,72665,5,0
224,144,72965,2,0,B|120:144,2,80,8|0|8
256,72,73865,2,0,B|352:72,1,80,0|8
408,104,74465,2,2,B|408:224,1,120,2|6
312,296,75365,5,8
256,240,75665,1,0
208,176,75965,1,8
256,112,76265,1,0
96,80,76865,6,0,B|64:176,2,80,0|8|0
160,224,78065,2,0,B|128:336,2,80,0|8|4
240,136,79115,1,0
256,256,79565,1,8
336,256,79865,6,0,B|352:160,1,80,0|8
424,192,80465,2,0,B|440:104,1,80,0|8
256,192,80915,12,0,85565
