osu file format v9

[General]
AudioFilename: Hatsune Miku - Shiroi Yuki no Princess wa - VOCALOID.mp3
AudioLeadIn: 0
PreviewTime: 211859
Countdown: 1
SampleSet: Normal
StackLeniency: 0.7
Mode: 0
LetterboxInBreaks: 1

[Editor]
Bookmarks: 21075,29925,42675,107475,130275
DistanceSpacing: 0.8
BeatDivisor: 4
GridSize: 8

[Metadata]
Title:Shiroi Yuki no Princess wa
Artist:Hatsune Miku
Creator:KingsAL2
Version:Easy
Source:VOCALOID
Tags:EXIT TUNES Supernova 2 Noboru-P

[Difficulty]
HPDrainRate:3
CircleSize:3
OverallDifficulty:3
ApproachRate:3
SliderMultiplier:1.4
SliderTickRate:2

[Events]
//Background and Video events
0,0,"meola_1.jpg"
//Break Periods
//Storyboard Layer 0 (Background)
//Storyboard Layer 1 (Fail)
//Storyboard Layer 2 (Pass)
//Storyboard Layer 3 (Foreground)
//Storyboard Sound Samples
//Background Colour Transformations
3,100,163,162,255

[TimingPoints]
21065,600,4,1,2,81,1,0
61859,-100,4,1,2,81,0,1
62009,-100,4,1,2,81,0,0

[Colours]
Combo1 : 0,64,64
Combo2 : 43,164,61
Combo3 : 0,111,111
Combo4 : 0,196,196

[HitObjects]
440,192,21059,2,0,B|296:80|184:272|56:160,1,385
72,64,23309,5,0
152,72,23759,1,0
208,72,24059,2,0,B|312:160|440:72,1,245
440,192,25709,6,0,B|144:192,1,280
72,192,27359,1,0
72,248,27659,1,0
168,168,28109,6,0,B|208:24|72:-8|-8:88|24:160,1,315
104,160,29909,2,0,B|104:288,1,105
128,320,30659,6,0,B|238:418|350:226|494:338,1,385
488,224,32909,5,0
488,144,33359,1,0
504,88,33659,2,0,B|400:0|272:88,1,245
296,192,35309,6,0,B|0:192,1,280
16,272,36959,1,0
64,272,37259,1,0
208,200,37709,6,0,B|208:80|72:48|-8:144|24:216,1,315
16,256,39359,1,0
112,312,39959,1,0
208,256,40559,1,0
304,312,41159,1,0
360,312,41459,2,0,B|360:24,1,280
304,40,42959,5,0
192,48,43559,1,0
192,160,44159,1,0
304,160,44759,1,0
360,160,45059,2,0,B|432:256|360:360,1,210
304,344,46259,6,0,B|192:312|112:352,1,175
104,264,47459,2,0,B|240:192|384:280,1,280,4|0
424,296,48959,1,0
424,184,49559,1,0
424,128,49859,1,2
256,104,50759,5,0
200,104,51059,2,0,B|104:192|200:304,1,210,6|0
248,288,52259,2,0,B|480:288,1,210,2|0
456,232,53459,6,0,B|456:104|312:88,1,210,2|0
272,88,54659,2,0,B|160:144|192:272,1,210,2|0
184,320,55859,1,2
240,320,56159,1,0
312,240,56759,5,0
312,184,57059,1,2
168,96,57959,1,0
168,152,58259,1,2
328,96,59159,1,0
328,152,59459,1,4
152,296,60659,6,0,B|376:296,1,210,2|0
416,296,61859,1,4
416,184,62459,1,0
416,128,62759,1,0
312,80,63359,1,0
312,136,63659,1,0
200,136,64259,6,0,B|80:144|48:296|216:296,1,280
288,224,66059,1,0
344,224,66359,1,0
400,224,66659,1,0
400,112,67259,6,0,B|88:112,1,280
144,224,69059,1,0
224,224,69509,2,0,B|392:224,1,140
376,304,70559,5,0
320,304,70859,1,0
264,304,71159,1,0
208,304,71459,1,0
200,192,72059,5,0
200,80,72659,2,0,B|488:80,1,280
480,136,74159,1,0
480,192,74459,2,0,B|480:312,1,105
400,328,75359,6,0,B|304:328,3,70
256,240,76859,2,0,B|256:64,1,140
48,192,78659,5,0
128,192,79109,1,0
208,192,79559,1,0
256,192,79859,12,0,85709
